  0
SECTION
  2
HEADER
  9
$ACADVER
  1
AC1009
  9
$DWGCODEPAGE
  3
dos932
  9
$INSBASE
 10
0.0
 20
0.0
 30
0.0
  9
$EXTMIN
 10
-676.6099022667663
 20
-246.9309470739687
 30
0.0
  9
$EXTMAX
 10
1998.213797747212
 20
6905.736101527405
 30
0.0
  9
$LIMMIN
 10
0.0
 20
0.0
  9
$LIMMAX
 10
12.0
 20
9.0
  9
$ORTHOMODE
 70
     0
  9
$REGENMODE
 70
     1
  9
$FILLMODE
 70
     1
  9
$QTEXTMODE
 70
     0
  9
$MIRRTEXT
 70
     1
  9
$DRAGMODE
 70
     2
  9
$LTSCALE
 40
12.7
  9
$OSMODE
 70
    37
  9
$ATTMODE
 70
     1
  9
$TEXTSIZE
 40
0.2
  9
$TRACEWID
 40
1.0
  9
$TEXTSTYLE
  7
STANDARD
  9
$CLAYER
  8
020
  9
$CELTYPE
  6
BYLAYER
  9
$CECOLOR
 62
   256
  9
$DIMSCALE
 40
1.0
  9
$DIMASZ
 40
0.5007446289062499
  9
$DIMEXO
 40
3.0
  9
$DIMDLI
 40
10.16
  9
$DIMRND
 40
0.0
  9
$DIMDLE
 40
0.0
  9
$DIMEXE
 40
0.0
  9
$DIMTP
 40
0.0
  9
$DIMTM
 40
0.0
  9
$DIMTXT
 40
31.75824175824177
  9
$DIMCEN
 40
0.0
  9
$DIMTSZ
 40
0.0
  9
$DIMTOL
 70
     0
  9
$DIMLIM
 70
     0
  9
$DIMTIH
 70
     0
  9
$DIMTOH
 70
     0
  9
$DIMSE1
 70
     0
  9
$DIMSE2
 70
     0
  9
$DIMTAD
 70
     1
  9
$DIMZIN
 70
     8
  9
$DIMBLK
  1
DOT
  9
$DIMASO
 70
     1
  9
$DIMSHO
 70
     1
  9
$DIMPOST
  1
<>
  9
$DIMAPOST
  1
[]
  9
$DIMALT
 70
     0
  9
$DIMALTD
 70
     3
  9
$DIMALTF
 40
0.0393700787401575
  9
$DIMLFAC
 40
1.0
  9
$DIMTOFL
 70
     1
  9
$DIMTVP
 40
0.0
  9
$DIMTIX
 70
     1
  9
$DIMSOXD
 70
     0
  9
$DIMSAH
 70
     0
  9
$DIMBLK1
  1
DOT
  9
$DIMBLK2
  1
DOT
  9
$DIMSTYLE
  2
SPEAC
  9
$DIMCLRD
 70
     0
  9
$DIMCLRE
 70
     0
  9
$DIMCLRT
 70
     0
  9
$DIMTFAC
 40
1.0
  9
$DIMGAP
 40
0.1999999992549419
  9
$LUNITS
 70
     2
  9
$LUPREC
 70
     1
  9
$SKETCHINC
 40
0.1
  9
$FILLETRAD
 40
0.5
  9
$AUNITS
 70
     0
  9
$AUPREC
 70
     2
  9
$MENU
  1
.
  9
$ELEVATION
 40
0.0
  9
$PELEVATION
 40
0.0
  9
$THICKNESS
 40
0.0
  9
$LIMCHECK
 70
     0
  9
$CHAMFERA
 40
0.0
  9
$CHAMFERB
 40
0.0
  9
$SKPOLY
 70
     0
  9
$TDCREATE
 40
2459829.596022511
  9
$TDUPDATE
 40
2459829.596035613
  9
$TDINDWG
 40
0.0000000116
  9
$TDUSRTIMER
 40
0.0000000116
  9
$USRTIMER
 70
     1
  9
$ANGBASE
 50
0.0
  9
$ANGDIR
 70
     0
  9
$PDMODE
 70
     1
  9
$PDSIZE
 40
-2.0
  9
$PLINEWID
 40
0.0
  9
$COORDS
 70
     1
  9
$SPLFRAME
 70
     0
  9
$SPLINETYPE
 70
     6
  9
$SPLINESEGS
 70
     8
  9
$ATTDIA
 70
     0
  9
$ATTREQ
 70
     1
  9
$HANDLING
 70
     1
  9
$HANDSEED
  5
6CF
  9
$SURFTAB1
 70
     6
  9
$SURFTAB2
 70
     6
  9
$SURFTYPE
 70
     6
  9
$SURFU
 70
     6
  9
$SURFV
 70
     6
  9
$UCSNAME
  2

  9
$UCSORG
 10
0.0
 20
0.0
 30
0.0
  9
$UCSXDIR
 10
1.0
 20
0.0
 30
0.0
  9
$UCSYDIR
 10
0.0
 20
1.0
 30
0.0
  9
$PUCSNAME
  2

  9
$PUCSORG
 10
0.0
 20
0.0
 30
0.0
  9
$PUCSXDIR
 10
1.0
 20
0.0
 30
0.0
  9
$PUCSYDIR
 10
0.0
 20
1.0
 30
0.0
  9
$USERI1
 70
     0
  9
$USERI2
 70
     0
  9
$USERI3
 70
     0
  9
$USERI4
 70
     0
  9
$USERI5
 70
     0
  9
$USERR1
 40
0.0
  9
$USERR2
 40
0.0
  9
$USERR3
 40
0.0
  9
$USERR4
 40
0.0
  9
$USERR5
 40
0.0
  9
$WORLDVIEW
 70
     1
  9
$SHADEDGE
 70
     3
  9
$SHADEDIF
 70
    70
  9
$TILEMODE
 70
     1
  9
$MAXACTVP
 70
    64
  9
$PLIMCHECK
 70
     0
  9
$PEXTMIN
 10
1.000000000000000E+20
 20
1.000000000000000E+20
 30
1.000000000000000E+20
  9
$PEXTMAX
 10
-1.000000000000000E+20
 20
-1.000000000000000E+20
 30
-1.000000000000000E+20
  9
$PLIMMIN
 10
-20.0
 20
-7.5
  9
$PLIMMAX
 10
277.0
 20
202.5
  9
$UNITMODE
 70
     0
  9
$VISRETAIN
 70
     1
  9
$PLINEGEN
 70
     0
  9
$PSLTSCALE
 70
     1
  0
ENDSEC
  0
SECTION
  2
TABLES
  0
TABLE
  2
VPORT
 70
     1
  0
VPORT
  2
*ACTIVE
 70
     0
 10
0.0
 20
0.0
 11
1.0
 21
1.0
 12
660.8019477402229
 22
3329.402577226718
 13
0.0
 23
0.0
 14
0.5
 24
0.5
 15
0.5
 25
0.5
 16
0.0
 26
0.0
 36
1.0
 17
0.0
 27
0.0
 37
0.0
 40
7152.667048601374
 41
0.3739617239050728
 42
2000.0
 43
0.0
 44
0.0
 50
0.0
 51
0.0
 71
     0
 72
   100
 73
     1
 74
     3
 75
     0
 76
     0
 77
     0
 78
     0
  0
ENDTAB
  0
TABLE
  2
LTYPE
 70
   198
  0
LTYPE
  2
CONTINUOUS
 70
     0
  3
Solid line
 72
    65
 73
     0
 40
0.0
  0
LTYPE
  2
ISO-04______
 70
     0
  3

 72
    65
 73
     4
 40
0.48
 49
0.48
 49
-0.0600000000000001
 49
0.01
 49
-0.0600000000000001
  0
LTYPE
  2
ISO-02___
 70
     0
  3

 72
    65
 73
     2
 40
0.24
 49
0.24
 49
-0.06
  0
LTYPE
  2
AI-LINETYPE-180
 70
     0
  3

 72
    65
 73
     2
 40
2.462962962847222
 49
0.462962962847222
 49
-2.222222309969844
  0
LTYPE
  2
AI-LINETYPE-179
 70
     0
  3

 72
    65
 73
     2
 40
2.462962962847222
 49
0.462962962847222
 49
-2.222222309969844
  0
LTYPE
  2
AI-LINETYPE-178
 70
     0
  3

 72
    65
 73
     2
 40
2.462962962847222
 49
0.462962962847222
 49
-2.222222309969844
  0
LTYPE
  2
AI-LINETYPE-177
 70
     0
  3

 72
    65
 73
     2
 40
2.462962962847222
 49
0.462962962847222
 49
-2.222222309969844
  0
LTYPE
  2
AI-LINETYPE-176
 70
     0
  3

 72
    65
 73
     2
 40
2.462962962847222
 49
0.462962962847222
 49
-2.222222309969844
  0
LTYPE
  2
AI-LINETYPE-175
 70
     0
  3

 72
    65
 73
     2
 40
2.462962962847222
 49
0.462962962847222
 49
-2.222222309969844
  0
LTYPE
  2
AI-LINETYPE-174
 70
     0
  3

 72
    65
 73
     2
 40
2.462962962847222
 49
0.462962962847222
 49
-2.222222309969844
  0
LTYPE
  2
AI-LINETYPE-173
 70
     0
  3

 72
    65
 73
     2
 40
2.462962962847222
 49
0.462962962847222
 49
-2.222222309969844
  0
LTYPE
  2
AI-LINETYPE-172
 70
     0
  3

 72
    65
 73
     2
 40
0.462962962847222
 49
0.462962962847222
 49
-1.851851851388889
  0
LTYPE
  2
AI-LINETYPE-171
 70
     0
  3

 72
    65
 73
     2
 40
2.462962962847222
 49
0.462962962847222
 49
-2.222222309969844
  0
LTYPE
  2
AI-LINETYPE-170
 70
     0
  3

 72
    65
 73
     2
 40
2.462962962847222
 49
0.462962962847222
 49
-2.222222309969844
  0
LTYPE
  2
AI-LINETYPE-169
 70
     0
  3

 72
    65
 73
     2
 40
2.462962962847222
 49
0.462962962847222
 49
-2.222222309969844
  0
LTYPE
  2
AI-LINETYPE-168
 70
     0
  3

 72
    65
 73
     2
 40
2.462962962847222
 49
0.462962962847222
 49
-2.222222309969844
  0
LTYPE
  2
AI-LINETYPE-167
 70
     0
  3

 72
    65
 73
     2
 40
2.462962962847222
 49
0.462962962847222
 49
-2.222222309969844
  0
LTYPE
  2
AI-LINETYPE-166
 70
     0
  3

 72
    65
 73
     2
 40
2.462962962847222
 49
0.462962962847222
 49
-2.222222309969844
  0
LTYPE
  2
AI-LINETYPE-165
 70
     0
  3

 72
    65
 73
     2
 40
2.462962962847222
 49
0.462962962847222
 49
-2.222222309969844
  0
LTYPE
  2
AI-LINETYPE-164
 70
     0
  3

 72
    65
 73
     2
 40
2.462962962847222
 49
0.462962962847222
 49
-2.222222309969844
  0
LTYPE
  2
AI-LINETYPE-163
 70
     0
  3

 72
    65
 73
     2
 40
2.462962962847222
 49
0.462962962847222
 49
-2.222222309969844
  0
LTYPE
  2
AI-LINETYPE-162
 70
     0
  3

 72
    65
 73
     2
 40
2.462962962847222
 49
0.462962962847222
 49
-2.222222309969844
  0
LTYPE
  2
AI-LINETYPE-161
 70
     0
  3

 72
    65
 73
     2
 40
2.462962962847222
 49
0.462962962847222
 49
-2.222222309969844
  0
LTYPE
  2
AI-LINETYPE-160
 70
     0
  3

 72
    65
 73
     2
 40
2.462962962847222
 49
0.462962962847222
 49
-2.222222309969844
  0
LTYPE
  2
AI-LINETYPE-159
 70
     0
  3

 72
    65
 73
     2
 40
2.462962962847222
 49
0.462962962847222
 49
-2.222222309969844
  0
LTYPE
  2
AI-LINETYPE-158
 70
     0
  3

 72
    65
 73
     2
 40
0.462962962847222
 49
0.462962962847222
 49
-1.851851851388889
  0
LTYPE
  2
AI-LINETYPE-157
 70
     0
  3

 72
    65
 73
     2
 40
2.462962962847222
 49
0.462962962847222
 49
-2.222222309969844
  0
LTYPE
  2
AI-LINETYPE-156
 70
     0
  3

 72
    65
 73
     2
 40
2.462962962847222
 49
0.462962962847222
 49
-2.222222309969844
  0
LTYPE
  2
AI-LINETYPE-155
 70
     0
  3

 72
    65
 73
     2
 40
2.462962962847222
 49
0.462962962847222
 49
-2.222222309969844
  0
LTYPE
  2
AI-LINETYPE-154
 70
     0
  3

 72
    65
 73
     2
 40
2.462962962847222
 49
0.462962962847222
 49
-2.222222309969844
  0
LTYPE
  2
AI-LINETYPE-153
 70
     0
  3

 72
    65
 73
     2
 40
2.462962962847222
 49
0.462962962847222
 49
-2.222222309969844
  0
LTYPE
  2
ISO-08_____
 70
     0
  3

 72
    65
 73
     4
 40
0.48
 49
0.48
 49
-0.0600000000000001
 49
0.12
 49
-0.0599999999999999
  0
LTYPE
  2
ISO-10______
 70
     0
  3

 72
    65
 73
     4
 40
0.24
 49
0.24
 49
-0.06
 49
0.01
 49
-0.06
  0
LTYPE
  2
VW-01____
 70
     0
  3

 72
    65
 73
     2
 40
0.083312
 49
0.083312
 49
-0.083312
  0
LTYPE
  2
AI-LINETYPE-152
 70
     0
  3

 72
    65
 73
     2
 40
1.333333385981906
 49
1.333333385981906
 49
-1.333333385981906
  0
LTYPE
  2
AI-LINETYPE-151
 70
     0
  3

 72
    65
 73
     2
 40
1.333333385981906
 49
1.333333385981906
 49
-1.333333385981906
  0
LTYPE
  2
AI-LINETYPE-150
 70
     0
  3

 72
    65
 73
     2
 40
1.333333385981906
 49
1.333333385981906
 49
-1.333333385981906
  0
LTYPE
  2
AI-LINETYPE-149
 70
     0
  3

 72
    65
 73
     2
 40
1.333333385981906
 49
1.333333385981906
 49
-1.333333385981906
  0
LTYPE
  2
AI-LINETYPE-148
 70
     0
  3

 72
    65
 73
     2
 40
1.333333385981906
 49
1.333333385981906
 49
-1.333333385981906
  0
LTYPE
  2
AI-LINETYPE-147
 70
     0
  3

 72
    65
 73
     2
 40
1.333333385981906
 49
1.333333385981906
 49
-1.333333385981906
  0
LTYPE
  2
AI-LINETYPE-146
 70
     0
  3

 72
    65
 73
     2
 40
1.333333385981906
 49
1.333333385981906
 49
-1.333333385981906
  0
LTYPE
  2
AI-LINETYPE-145
 70
     0
  3

 72
    65
 73
     2
 40
1.333333385981906
 49
1.333333385981906
 49
-1.333333385981906
  0
LTYPE
  2
AI-LINETYPE-144
 70
     0
  3

 72
    65
 73
     2
 40
5.333333332500001
 49
3.3333333325
 49
-3.3333333325
  0
LTYPE
  2
AI-LINETYPE-143
 70
     0
  3

 72
    65
 73
     2
 40
5.333333332500001
 49
3.3333333325
 49
-3.3333333325
  0
LTYPE
  2
AI-LINETYPE-142
 70
     0
  3

 72
    65
 73
     2
 40
5.333333332500001
 49
3.3333333325
 49
-3.3333333325
  0
LTYPE
  2
AI-LINETYPE-141
 70
     0
  3

 72
    65
 73
     2
 40
5.333333332500001
 49
3.3333333325
 49
-3.3333333325
  0
LTYPE
  2
AI-LINETYPE-140
 70
     0
  3

 72
    65
 73
     2
 40
5.333333332500001
 49
3.3333333325
 49
-3.3333333325
  0
LTYPE
  2
AI-LINETYPE-139
 70
     0
  3

 72
    65
 73
     2
 40
5.333333332500001
 49
3.3333333325
 49
-3.3333333325
  0
LTYPE
  2
AI-LINETYPE-138
 70
     0
  3

 72
    65
 73
     2
 40
5.333333332500001
 49
3.3333333325
 49
-3.3333333325
  0
LTYPE
  2
AI-LINETYPE-137
 70
     0
  3

 72
    65
 73
     2
 40
5.333333332500001
 49
3.3333333325
 49
-3.3333333325
  0
LTYPE
  2
AI-LINETYPE-136
 70
     0
  3

 72
    65
 73
     2
 40
5.333333332500001
 49
3.3333333325
 49
-3.3333333325
  0
LTYPE
  2
AI-LINETYPE-135
 70
     0
  3

 72
    65
 73
     2
 40
5.333333332500001
 49
3.3333333325
 49
-3.3333333325
  0
LTYPE
  2
AI-LINETYPE-134
 70
     0
  3

 72
    65
 73
     2
 40
5.333333332500001
 49
3.3333333325
 49
-3.3333333325
  0
LTYPE
  2
AI-LINETYPE-133
 70
     0
  3

 72
    65
 73
     2
 40
5.333333332500001
 49
3.3333333325
 49
-3.3333333325
  0
LTYPE
  2
AI-LINETYPE-132
 70
     0
  3

 72
    65
 73
     2
 40
5.333333332500001
 49
3.3333333325
 49
-3.3333333325
  0
LTYPE
  2
AI-LINETYPE-131
 70
     0
  3

 72
    65
 73
     2
 40
5.333333332500001
 49
3.3333333325
 49
-3.3333333325
  0
LTYPE
  2
AI-LINETYPE-130
 70
     0
  3

 72
    65
 73
     2
 40
5.333333332500001
 49
3.3333333325
 49
-3.3333333325
  0
LTYPE
  2
AI-LINETYPE-129
 70
     0
  3

 72
    65
 73
     2
 40
5.333333332500001
 49
3.3333333325
 49
-3.3333333325
  0
LTYPE
  2
AI-LINETYPE-128
 70
     0
  3

 72
    65
 73
     2
 40
5.333333332500001
 49
3.3333333325
 49
-3.3333333325
  0
LTYPE
  2
AI-LINETYPE-127
 70
     0
  3

 72
    65
 73
     2
 40
5.333333332500001
 49
3.3333333325
 49
-3.3333333325
  0
LTYPE
  2
AI-LINETYPE-126
 70
     0
  3

 72
    65
 73
     2
 40
5.333333332500001
 49
3.3333333325
 49
-3.3333333325
  0
LTYPE
  2
AI-LINETYPE-125
 70
     0
  3

 72
    65
 73
     2
 40
5.333333332500001
 49
3.3333333325
 49
-3.3333333325
  0
LTYPE
  2
AI-LINETYPE-124
 70
     0
  3

 72
    65
 73
     2
 40
5.333333332500001
 49
3.3333333325
 49
-3.3333333325
  0
LTYPE
  2
AI-LINETYPE-123
 70
     0
  3

 72
    65
 73
     2
 40
5.333333332500001
 49
3.3333333325
 49
-3.3333333325
  0
LTYPE
  2
AI-LINETYPE-122
 70
     0
  3

 72
    65
 73
     2
 40
5.333333332500001
 49
3.3333333325
 49
-3.3333333325
  0
LTYPE
  2
AI-LINETYPE-121
 70
     0
  3

 72
    65
 73
     2
 40
5.333333332500001
 49
3.3333333325
 49
-3.3333333325
  0
LTYPE
  2
AI-LINETYPE-120
 70
     0
  3

 72
    65
 73
     2
 40
5.333333332500001
 49
3.3333333325
 49
-3.3333333325
  0
LTYPE
  2
AI-LINETYPE-119
 70
     0
  3

 72
    65
 73
     2
 40
5.333333332500001
 49
3.3333333325
 49
-3.3333333325
  0
LTYPE
  2
AI-LINETYPE-118
 70
     0
  3

 72
    65
 73
     2
 40
5.333333332500001
 49
3.3333333325
 49
-3.3333333325
  0
LTYPE
  2
AI-LINETYPE-117
 70
     0
  3

 72
    65
 73
     2
 40
5.333333332500001
 49
3.3333333325
 49
-3.3333333325
  0
LTYPE
  2
AI-LINETYPE-116
 70
     0
  3

 72
    65
 73
     2
 40
5.333333332500001
 49
3.3333333325
 49
-3.3333333325
  0
LTYPE
  2
AI-LINETYPE-115
 70
     0
  3

 72
    65
 73
     2
 40
5.333333332500001
 49
3.3333333325
 49
-3.3333333325
  0
LTYPE
  2
AI-LINETYPE-114
 70
     0
  3

 72
    65
 73
     2
 40
5.333333332500001
 49
3.3333333325
 49
-3.3333333325
  0
LTYPE
  2
AI-LINETYPE-113
 70
     0
  3

 72
    65
 73
     2
 40
5.333333332500001
 49
3.3333333325
 49
-3.3333333325
  0
LTYPE
  2
AI-LINETYPE-112
 70
     0
  3

 72
    65
 73
     2
 40
5.333333332500001
 49
3.3333333325
 49
-3.3333333325
  0
LTYPE
  2
AI-LINETYPE-111
 70
     0
  3

 72
    65
 73
     2
 40
5.333333332500001
 49
3.3333333325
 49
-3.3333333325
  0
LTYPE
  2
AI-LINETYPE-110
 70
     0
  3

 72
    65
 73
     2
 40
5.333333332500001
 49
3.3333333325
 49
-3.3333333325
  0
LTYPE
  2
AI-LINETYPE-109
 70
     0
  3

 72
    65
 73
     2
 40
5.333333332500001
 49
3.3333333325
 49
-3.3333333325
  0
LTYPE
  2
AI-LINETYPE-108
 70
     0
  3

 72
    65
 73
     2
 40
5.333333332500001
 49
3.3333333325
 49
-3.3333333325
  0
LTYPE
  2
AI-LINETYPE-107
 70
     0
  3

 72
    65
 73
     2
 40
5.333333332500001
 49
3.3333333325
 49
-3.3333333325
  0
LTYPE
  2
AI-LINETYPE-106
 70
     0
  3

 72
    65
 73
     2
 40
5.333333332500001
 49
3.3333333325
 49
-3.3333333325
  0
LTYPE
  2
AI-LINETYPE-105
 70
     0
  3

 72
    65
 73
     2
 40
5.333333332500001
 49
3.3333333325
 49
-3.3333333325
  0
LTYPE
  2
AI-LINETYPE-104
 70
     0
  3

 72
    65
 73
     2
 40
5.333333332500001
 49
3.3333333325
 49
-3.3333333325
  0
LTYPE
  2
AI-LINETYPE-103
 70
     0
  3

 72
    65
 73
     2
 40
5.333333332500001
 49
3.3333333325
 49
-3.3333333325
  0
LTYPE
  2
AI-LINETYPE-102
 70
     0
  3

 72
    65
 73
     2
 40
5.333333332500001
 49
3.3333333325
 49
-3.3333333325
  0
LTYPE
  2
AI-LINETYPE-101
 70
     0
  3

 72
    65
 73
     2
 40
5.333333332500001
 49
3.3333333325
 49
-3.3333333325
  0
LTYPE
  2
AI-LINETYPE-100
 70
     0
  3

 72
    65
 73
     2
 40
5.333333332500001
 49
3.3333333325
 49
-3.3333333325
  0
LTYPE
  2
AI-LINETYPE-99
 70
     0
  3

 72
    65
 73
     2
 40
5.333333332500001
 49
3.3333333325
 49
-3.3333333325
  0
LTYPE
  2
AI-LINETYPE-98
 70
     0
  3

 72
    65
 73
     2
 40
5.333333332500001
 49
3.3333333325
 49
-3.3333333325
  0
LTYPE
  2
AI-LINETYPE-97
 70
     0
  3

 72
    65
 73
     2
 40
5.333333332500001
 49
3.3333333325
 49
-3.3333333325
  0
LTYPE
  2
AI-LINETYPE-96
 70
     0
  3

 72
    65
 73
     2
 40
5.333333332500001
 49
3.3333333325
 49
-3.3333333325
  0
LTYPE
  2
AI-LINETYPE-95
 70
     0
  3

 72
    65
 73
     2
 40
5.333333332500001
 49
3.3333333325
 49
-3.3333333325
  0
LTYPE
  2
AI-LINETYPE-94
 70
     0
  3

 72
    65
 73
     2
 40
5.333333332500001
 49
3.3333333325
 49
-3.3333333325
  0
LTYPE
  2
AI-LINETYPE-93
 70
     0
  3

 72
    65
 73
     2
 40
5.333333332500001
 49
3.3333333325
 49
-3.3333333325
  0
LTYPE
  2
AI-LINETYPE-92
 70
     0
  3

 72
    65
 73
     2
 40
5.333333332500001
 49
3.3333333325
 49
-3.3333333325
  0
LTYPE
  2
AI-LINETYPE-91
 70
     0
  3

 72
    65
 73
     2
 40
5.333333332500001
 49
3.3333333325
 49
-3.3333333325
  0
LTYPE
  2
AI-LINETYPE-90
 70
     0
  3

 72
    65
 73
     2
 40
5.333333332500001
 49
3.3333333325
 49
-3.3333333325
  0
LTYPE
  2
AI-LINETYPE-89
 70
     0
  3

 72
    65
 73
     2
 40
5.333333332500001
 49
3.3333333325
 49
-3.3333333325
  0
LTYPE
  2
AI-LINETYPE-88
 70
     0
  3

 72
    65
 73
     2
 40
5.333333332500001
 49
3.3333333325
 49
-3.3333333325
  0
LTYPE
  2
AI-LINETYPE-87
 70
     0
  3

 72
    65
 73
     2
 40
5.333333332500001
 49
3.3333333325
 49
-3.3333333325
  0
LTYPE
  2
AI-LINETYPE-86
 70
     0
  3

 72
    65
 73
     2
 40
5.333333332500001
 49
3.3333333325
 49
-3.3333333325
  0
LTYPE
  2
AI-LINETYPE-85
 70
     0
  3

 72
    65
 73
     2
 40
5.333333332500001
 49
3.3333333325
 49
-3.3333333325
  0
LTYPE
  2
AI-LINETYPE-84
 70
     0
  3

 72
    65
 73
     2
 40
5.333333332500001
 49
3.3333333325
 49
-3.3333333325
  0
LTYPE
  2
AI-LINETYPE-83
 70
     0
  3

 72
    65
 73
     2
 40
5.333333332500001
 49
3.3333333325
 49
-3.3333333325
  0
LTYPE
  2
AI-LINETYPE-82
 70
     0
  3

 72
    65
 73
     2
 40
5.333333332500001
 49
3.3333333325
 49
-3.3333333325
  0
LTYPE
  2
AI-LINETYPE-81
 70
     0
  3

 72
    65
 73
     2
 40
5.333333332500001
 49
3.3333333325
 49
-3.3333333325
  0
LTYPE
  2
AI-LINETYPE-80
 70
     0
  3

 72
    65
 73
     2
 40
5.333333332500001
 49
3.3333333325
 49
-3.3333333325
  0
LTYPE
  2
AI-LINETYPE-79
 70
     0
  3

 72
    65
 73
     2
 40
5.333333332500001
 49
3.3333333325
 49
-3.3333333325
  0
LTYPE
  2
AI-LINETYPE-78
 70
     0
  3

 72
    65
 73
     2
 40
5.333333332500001
 49
3.3333333325
 49
-3.3333333325
  0
LTYPE
  2
AI-LINETYPE-77
 70
     0
  3

 72
    65
 73
     2
 40
5.333333332500001
 49
3.3333333325
 49
-3.3333333325
  0
LTYPE
  2
AI-LINETYPE-76
 70
     0
  3

 72
    65
 73
     2
 40
5.333333332500001
 49
3.3333333325
 49
-3.3333333325
  0
LTYPE
  2
AI-LINETYPE-75
 70
     0
  3

 72
    65
 73
     2
 40
5.333333332500001
 49
3.3333333325
 49
-3.3333333325
  0
LTYPE
  2
AI-LINETYPE-74
 70
     0
  3

 72
    65
 73
     2
 40
5.333333332500001
 49
3.3333333325
 49
-3.3333333325
  0
LTYPE
  2
AI-LINETYPE-73
 70
     0
  3

 72
    65
 73
     2
 40
5.333333332500001
 49
3.3333333325
 49
-3.3333333325
  0
LTYPE
  2
AI-LINETYPE-72
 70
     0
  3

 72
    65
 73
     2
 40
5.333333332500001
 49
3.3333333325
 49
-3.3333333325
  0
LTYPE
  2
AI-LINETYPE-71
 70
     0
  3

 72
    65
 73
     2
 40
5.333333332500001
 49
3.3333333325
 49
-3.3333333325
  0
LTYPE
  2
AI-LINETYPE-70
 70
     0
  3

 72
    65
 73
     2
 40
5.333333332500001
 49
3.3333333325
 49
-3.3333333325
  0
LTYPE
  2
AI-LINETYPE-69
 70
     0
  3

 72
    65
 73
     2
 40
5.333333332500001
 49
3.3333333325
 49
-3.3333333325
  0
LTYPE
  2
AI-LINETYPE-68
 70
     0
  3

 72
    65
 73
     2
 40
5.333333332500001
 49
3.3333333325
 49
-3.3333333325
  0
LTYPE
  2
AI-LINETYPE-67
 70
     0
  3

 72
    65
 73
     2
 40
5.333333332500001
 49
3.3333333325
 49
-3.3333333325
  0
LTYPE
  2
AI-LINETYPE-66
 70
     0
  3

 72
    65
 73
     2
 40
5.333333332500001
 49
3.3333333325
 49
-3.3333333325
  0
LTYPE
  2
AI-LINETYPE-65
 70
     0
  3

 72
    65
 73
     2
 40
5.333333332500001
 49
3.3333333325
 49
-3.3333333325
  0
LTYPE
  2
AI-LINETYPE-64
 70
     0
  3

 72
    65
 73
     2
 40
5.333333332500001
 49
3.3333333325
 49
-3.3333333325
  0
LTYPE
  2
AI-LINETYPE-63
 70
     0
  3

 72
    65
 73
     2
 40
5.333333332500001
 49
3.3333333325
 49
-3.3333333325
  0
LTYPE
  2
AI-LINETYPE-62
 70
     0
  3

 72
    65
 73
     2
 40
5.333333332500001
 49
3.3333333325
 49
-3.3333333325
  0
LTYPE
  2
AI-LINETYPE-61
 70
     0
  3

 72
    65
 73
     2
 40
5.333333332500001
 49
3.3333333325
 49
-3.3333333325
  0
LTYPE
  2
AI-LINETYPE-60
 70
     0
  3

 72
    65
 73
     2
 40
5.333333332500001
 49
3.3333333325
 49
-3.3333333325
  0
LTYPE
  2
AI-LINETYPE-59
 70
     0
  3

 72
    65
 73
     2
 40
5.333333332500001
 49
3.3333333325
 49
-3.3333333325
  0
LTYPE
  2
AI-LINETYPE-58
 70
     0
  3

 72
    65
 73
     2
 40
5.333333332500001
 49
3.3333333325
 49
-3.3333333325
  0
LTYPE
  2
AI-LINETYPE-57
 70
     0
  3

 72
    65
 73
     2
 40
5.333333332500001
 49
3.3333333325
 49
-3.3333333325
  0
LTYPE
  2
AI-LINETYPE-56
 70
     0
  3

 72
    65
 73
     2
 40
5.333333332500001
 49
3.3333333325
 49
-3.3333333325
  0
LTYPE
  2
AI-LINETYPE-55
 70
     0
  3

 72
    65
 73
     2
 40
5.333333332500001
 49
3.3333333325
 49
-3.3333333325
  0
LTYPE
  2
AI-LINETYPE-54
 70
     0
  3

 72
    65
 73
     2
 40
5.333333332500001
 49
3.3333333325
 49
-3.3333333325
  0
LTYPE
  2
AI-LINETYPE-53
 70
     0
  3

 72
    65
 73
     2
 40
5.333333332500001
 49
3.3333333325
 49
-3.3333333325
  0
LTYPE
  2
AI-LINETYPE-52
 70
     0
  3

 72
    65
 73
     2
 40
5.333333332500001
 49
3.3333333325
 49
-3.3333333325
  0
LTYPE
  2
AI-LINETYPE-51
 70
     0
  3

 72
    65
 73
     2
 40
5.333333332500001
 49
3.3333333325
 49
-3.3333333325
  0
LTYPE
  2
AI-LINETYPE-50
 70
     0
  3

 72
    65
 73
     2
 40
5.333333332500001
 49
3.3333333325
 49
-3.3333333325
  0
LTYPE
  2
AI-LINETYPE-49
 70
     0
  3

 72
    65
 73
     2
 40
5.333333332500001
 49
3.3333333325
 49
-3.3333333325
  0
LTYPE
  2
AI-LINETYPE-48
 70
     0
  3

 72
    65
 73
     2
 40
5.333333332500001
 49
3.3333333325
 49
-3.3333333325
  0
LTYPE
  2
AI-LINETYPE-47
 70
     0
  3

 72
    65
 73
     2
 40
5.333333332500001
 49
3.3333333325
 49
-3.3333333325
  0
LTYPE
  2
AI-LINETYPE-46
 70
     0
  3

 72
    65
 73
     2
 40
5.333333332500001
 49
3.3333333325
 49
-3.3333333325
  0
LTYPE
  2
AI-LINETYPE-45
 70
     0
  3

 72
    65
 73
     2
 40
5.333333332500001
 49
3.3333333325
 49
-3.3333333325
  0
LTYPE
  2
AI-LINETYPE-44
 70
     0
  3

 72
    65
 73
     2
 40
5.333333332500001
 49
3.3333333325
 49
-3.3333333325
  0
LTYPE
  2
AI-LINETYPE-43
 70
     0
  3

 72
    65
 73
     2
 40
5.333333332500001
 49
3.3333333325
 49
-3.3333333325
  0
LTYPE
  2
AI-LINETYPE-42
 70
     0
  3

 72
    65
 73
     2
 40
5.333333332500001
 49
3.3333333325
 49
-3.3333333325
  0
LTYPE
  2
AI-LINETYPE-41
 70
     0
  3

 72
    65
 73
     2
 40
5.333333332500001
 49
3.3333333325
 49
-3.3333333325
  0
LTYPE
  2
AI-LINETYPE-40
 70
     0
  3

 72
    65
 73
     2
 40
5.333333332500001
 49
3.3333333325
 49
-3.3333333325
  0
LTYPE
  2
AI-LINETYPE-39
 70
     0
  3

 72
    65
 73
     2
 40
5.333333332500001
 49
3.3333333325
 49
-3.3333333325
  0
LTYPE
  2
AI-LINETYPE-38
 70
     0
  3

 72
    65
 73
     2
 40
5.333333332500001
 49
3.3333333325
 49
-3.3333333325
  0
LTYPE
  2
AI-LINETYPE-37
 70
     0
  3

 72
    65
 73
     2
 40
5.333333332500001
 49
3.3333333325
 49
-3.3333333325
  0
LTYPE
  2
AI-LINETYPE-36
 70
     0
  3

 72
    65
 73
     2
 40
5.333333332500001
 49
3.3333333325
 49
-3.3333333325
  0
LTYPE
  2
AI-LINETYPE-35
 70
     0
  3

 72
    65
 73
     2
 40
5.333333332500001
 49
3.3333333325
 49
-3.3333333325
  0
LTYPE
  2
AI-LINETYPE-34
 70
     0
  3

 72
    65
 73
     2
 40
5.333333332500001
 49
3.3333333325
 49
-3.3333333325
  0
LTYPE
  2
AI-LINETYPE-33
 70
     0
  3

 72
    65
 73
     2
 40
5.333333332500001
 49
3.3333333325
 49
-3.3333333325
  0
LTYPE
  2
AI-LINETYPE-32
 70
     0
  3

 72
    65
 73
     2
 40
5.333333332500001
 49
3.3333333325
 49
-3.3333333325
  0
LTYPE
  2
AI-LINETYPE-31
 70
     0
  3

 72
    65
 73
     2
 40
5.333333332500001
 49
3.3333333325
 49
-3.3333333325
  0
LTYPE
  2
AI-LINETYPE-30
 70
     0
  3

 72
    65
 73
     2
 40
5.333333332500001
 49
3.3333333325
 49
-3.3333333325
  0
LTYPE
  2
AI-LINETYPE-29
 70
     0
  3

 72
    65
 73
     2
 40
5.333333332500001
 49
3.3333333325
 49
-3.3333333325
  0
LTYPE
  2
AI-LINETYPE-28
 70
     0
  3

 72
    65
 73
     2
 40
5.333333332500001
 49
3.3333333325
 49
-3.3333333325
  0
LTYPE
  2
AI-LINETYPE-27
 70
     0
  3

 72
    65
 73
     2
 40
5.333333332500001
 49
3.3333333325
 49
-3.3333333325
  0
LTYPE
  2
AI-LINETYPE-26
 70
     0
  3

 72
    65
 73
     2
 40
5.333333332500001
 49
3.3333333325
 49
-3.3333333325
  0
LTYPE
  2
AI-LINETYPE-25
 70
     0
  3

 72
    65
 73
     2
 40
5.333333332500001
 49
3.3333333325
 49
-3.3333333325
  0
LTYPE
  2
AI-LINETYPE-24
 70
     0
  3

 72
    65
 73
     2
 40
5.333333332500001
 49
3.3333333325
 49
-3.3333333325
  0
LTYPE
  2
AI-LINETYPE-23
 70
     0
  3

 72
    65
 73
     2
 40
5.333333332500001
 49
3.3333333325
 49
-3.3333333325
  0
LTYPE
  2
AI-LINETYPE-22
 70
     0
  3

 72
    65
 73
     2
 40
5.333333332500001
 49
3.3333333325
 49
-3.3333333325
  0
LTYPE
  2
AI-LINETYPE-21
 70
     0
  3

 72
    65
 73
     2
 40
5.333333332500001
 49
3.3333333325
 49
-3.3333333325
  0
LTYPE
  2
AI-LINETYPE-20
 70
     0
  3

 72
    65
 73
     2
 40
5.333333332500001
 49
3.3333333325
 49
-3.3333333325
  0
LTYPE
  2
AI-LINETYPE-19
 70
     0
  3

 72
    65
 73
     2
 40
5.333333332500001
 49
3.3333333325
 49
-3.3333333325
  0
LTYPE
  2
AI-LINETYPE-18
 70
     0
  3

 72
    65
 73
     2
 40
5.333333332500001
 49
3.3333333325
 49
-3.3333333325
  0
LTYPE
  2
AI-LINETYPE-17
 70
     0
  3

 72
    65
 73
     2
 40
5.333333332500001
 49
3.3333333325
 49
-3.3333333325
  0
LTYPE
  2
AI-LINETYPE-16
 70
     0
  3

 72
    65
 73
     2
 40
5.333333332500001
 49
3.3333333325
 49
-3.3333333325
  0
LTYPE
  2
AI-LINETYPE-15
 70
     0
  3

 72
    65
 73
     2
 40
5.333333332500001
 49
3.3333333325
 49
-3.3333333325
  0
LTYPE
  2
AI-LINETYPE-14
 70
     0
  3

 72
    65
 73
     2
 40
5.333333332500001
 49
3.3333333325
 49
-3.3333333325
  0
LTYPE
  2
AI-LINETYPE-13
 70
     0
  3

 72
    65
 73
     2
 40
5.333333332500001
 49
3.3333333325
 49
-3.3333333325
  0
LTYPE
  2
AI-LINETYPE-12
 70
     0
  3

 72
    65
 73
     2
 40
5.333333332500001
 49
3.3333333325
 49
-3.3333333325
  0
LTYPE
  2
AI-LINETYPE-11
 70
     0
  3

 72
    65
 73
     2
 40
5.333333332500001
 49
3.3333333325
 49
-3.3333333325
  0
LTYPE
  2
AI-LINETYPE-10
 70
     0
  3

 72
    65
 73
     2
 40
5.333333332500001
 49
3.3333333325
 49
-3.3333333325
  0
LTYPE
  2
AI-LINETYPE-9
 70
     0
  3

 72
    65
 73
     2
 40
5.333333332500001
 49
3.3333333325
 49
-3.3333333325
  0
LTYPE
  2
AI-LINETYPE-8
 70
     0
  3

 72
    65
 73
     2
 40
5.333333332500001
 49
3.3333333325
 49
-3.3333333325
  0
LTYPE
  2
AI-LINETYPE-7
 70
     0
  3

 72
    65
 73
     2
 40
5.333333332500001
 49
3.3333333325
 49
-3.3333333325
  0
LTYPE
  2
AI-LINETYPE-6
 70
     0
  3

 72
    65
 73
     2
 40
5.333333332500001
 49
3.3333333325
 49
-3.3333333325
  0
LTYPE
  2
AI-LINETYPE-5
 70
     0
  3

 72
    65
 73
     2
 40
5.333333332500001
 49
3.3333333325
 49
-3.3333333325
  0
LTYPE
  2
AI-LINETYPE-4
 70
     0
  3

 72
    65
 73
     2
 40
5.333333332500001
 49
3.3333333325
 49
-3.3333333325
  0
LTYPE
  2
AI-LINETYPE-3
 70
     0
  3

 72
    65
 73
     2
 40
5.333333332500001
 49
3.3333333325
 49
-3.3333333325
  0
LTYPE
  2
AI-LINETYPE-2
 70
     0
  3

 72
    65
 73
     2
 40
5.333333332500001
 49
3.3333333325
 49
-3.3333333325
  0
LTYPE
  2
AI-LINETYPE-1
 70
     0
  3

 72
    65
 73
     2
 40
5.333333332500001
 49
3.3333333325
 49
-3.3333333325
  0
LTYPE
  2
______-12
 70
     0
  3

 72
    65
 73
     2
 40
0.015748031496063
 49
0.015748031496063
 49
-0.031496062992126
  0
LTYPE
  2
______-11
 70
     0
  3

 72
    65
 73
     4
 40
0.1968503937007874
 49
0.1968503937007874
 49
-0.031496062992126
 49
0.015748031496063
 49
-0.031496062992126
  0
LTYPE
  2
______-10
 70
     0
  3

 72
    65
 73
     6
 40
1.5
 49
1.5
 49
-0.1111139999999999
 49
0.2777720000000001
 49
-0.1111139999999999
 49
0.25
 49
-0.125
  0
LTYPE
  2
______-9
 70
     0
  3

 72
    65
 73
     4
 40
1.5
 49
1.5
 49
-0.1111139999999999
 49
0.2777720000000001
 49
-0.1111139999999999
  0
LTYPE
  2
______-8
 70
     0
  3

 72
    65
 73
     6
 40
0.25
 49
0.25
 49
-0.083312
 49
0.027772
 49
-0.055572
 49
0.027772
 49
-0.055572
  0
LTYPE
  2
______-7
 70
     0
  3

 72
    65
 73
     6
 40
0.25
 49
0.25
 49
-0.083312
 49
0.2500000000000001
 49
-0.083344
 49
0.027772
 49
-0.055572
  0
LTYPE
  2
______-6
 70
     0
  3

 72
    65
 73
     4
 40
0.25
 49
0.25
 49
-0.083312
 49
0.027772
 49
-0.055572
  0
LTYPE
  2
______-5
 70
     0
  3

 72
    65
 73
     2
 40
0.02777
 49
0.02777
 49
-0.055542
  0
LTYPE
  2
______-4
 70
     0
  3

 72
    65
 73
     2
 40
0.52777
 49
0.52777
 49
-0.083314
  0
LTYPE
  2
______-3
 70
     0
  3

 72
    65
 73
     2
 40
0.416656
 49
0.416656
 49
-0.083344
  0
LTYPE
  2
______-2
 70
     0
  3

 72
    65
 73
     2
 40
0.194428
 49
0.194428
 49
-0.083342
  0
LTYPE
  2
______-1
 70
     0
  3

 72
    65
 73
     2
 40
0.083312
 49
0.083312
 49
-0.083344
  0
ENDTAB
  0
TABLE
  2
LAYER
 70
    35
  0
LAYER
  2
0
 70
     0
 62
     7
  6
CONTINUOUS
  0
LAYER
  2
020
 70
     0
 62
     1
  6
CONTINUOUS
  0
LAYER
  2
SAKUZU
 70
     0
 62
     7
  6
CONTINUOUS
  0
LAYER
  2
__-3
 70
     0
 62
     7
  6
CONTINUOUS
  0
LAYER
  2
LAYER0002
 70
     0
 62
     7
  6
CONTINUOUS
  0
LAYER
  2
DEFPOINTS
 70
     0
 62
     7
  6
CONTINUOUS
  0
ENDTAB
  0
TABLE
  2
STYLE
 70
     2
  0
STYLE
  2
STANDARD
 70
     0
 40
0.0
 41
1.0
 50
0.0
 71
     0
 42
0.2
  3
txt
  4
BIGFONT.SHX
  0
STYLE
  2
YUGOTHIC_MEDIUM
 70
     0
 40
0.0
 41
1.0
 50
0.0
 71
     0
 42
0.2
  3

  4
YuGothic Medium
  0
ENDTAB
  0
TABLE
  2
VIEW
 70
     0
  0
ENDTAB
  0
TABLE
  2
UCS
 70
     0
  0
ENDTAB
  0
TABLE
  2
APPID
 70
     3
  0
APPID
  2
ACAD
 70
     0
  0
APPID
  2
ACCMTRANSPARENCY
 70
     0
  0
APPID
  2
ACAECLAYERSTANDARD
 70
     0
  0
ENDTAB
  0
TABLE
  2
DIMSTYLE
 70
     2
  0
DIMSTYLE
  2
STANDARD
 70
     0
  3

  4

  5

  6

  7

 40
1.0
 41
0.18
 42
0.0625
 43
0.38
 44
0.18
 45
0.0
 46
0.0
 47
0.0
 48
0.0
140
0.18
141
0.09
142
0.0
143
25.4
144
1.0
145
0.0
146
1.0
147
0.09
 71
     0
 72
     0
 73
     1
 74
     1
 75
     0
 76
     0
 77
     0
 78
     0
170
     0
171
     2
172
     0
173
     0
174
     0
175
     0
176
     0
177
     0
178
     0
  0
DIMSTYLE
  2
SPEAC
 70
     0
  3
<>
  4
[]
  5
DOT
  6
DOT
  7
DOT
 40
1.0
 41
0.5007446289062499
 42
3.0
 43
10.16
 44
0.0
 45
0.0
 46
0.0
 47
0.0
 48
0.0
140
31.75824175824177
141
0.0
142
0.0
143
0.0393700787401575
144
1.0
145
0.0
146
1.0
147
0.1999999992549419
 71
     0
 72
     0
 73
     0
 74
     0
 75
     0
 76
     0
 77
     1
 78
     8
170
     0
171
     3
172
     1
173
     0
174
     1
175
     0
176
     0
177
     0
178
     0
  0
ENDTAB
  0
ENDSEC
  0
SECTION
  2
BLOCKS
  0
BLOCK
  8
0
  2
$MODEL_SPACE
 70
     0
 10
0.0
 20
0.0
 30
0.0
  3
$MODEL_SPACE
  1

  0
ENDBLK
  5
21
  8
0
  0
BLOCK
 67
     1
  8
0
  2
$PAPER_SPACE
 70
     0
 10
0.0
 20
0.0
 30
0.0
  3
$PAPER_SPACE
  1

  0
ENDBLK
  5
1D
 67
     1
  8
0
  0
BLOCK
  8
0
  2
____-1
 70
     0
 10
0.0
 20
0.0
 30
0.0
  3
____-1
  1

  0
ENDBLK
  5
71
  8
0
  0
BLOCK
  8
0
  2
____-2-1
 70
     0
 10
0.0
 20
0.0
 30
0.0
  3
____-2-1
  1

  0
LINE
  5
1C8
  8
__-3
  6
CONTINUOUS
 62
     7
 10
144.272
 20
-92.33631699029715
 30
0.0
 11
-144.272
 21
-92.33631699029715
 31
0.0
  0
TEXT
  5
1C9
  8
__-3
 62
     3
 10
94.48727566194628
 20
-96.67147750038858
 30
0.0
 40
2.389518229166667
  1
2022.08.20
  7
YUGOTHIC_MEDIUM
 11
94.48727566194628
 21
-95.47671838580524
 31
0.0
 73
     2
  0
TEXT
  5
1CA
  8
__-3
 62
     3
 10
129.4375369899762
 20
-96.67147750038858
 30
0.0
 40
2.389518229166667
  1
1:15(A4)
  7
YUGOTHIC_MEDIUM
 11
129.4375369899762
 21
-95.47671838580524
 31
0.0
 73
     2
  0
INSERT
  5
1CB
  8
__-3
 62
    17
  2
____-1
 10
0.0
 20
0.0
 30
0.0
  0
TEXT
  5
1CC
  8
__-3
 62
     3
 10
116.8075934565349
 20
-95.88946838580533
 30
0.0
 40
2.389518229166667
  1
SCALE:
  7
YUGOTHIC_MEDIUM
 11
116.8075934565349
 21
-93.49995015663866
 31
0.0
 73
     3
  0
TEXT
  5
1CD
  8
__-3
 62
     3
 10
-49.28778269347818
 20
-95.88946838580533
 30
0.0
 40
2.389518229166667
  1
NAME:
  7
YUGOTHIC_MEDIUM
 11
-49.28778269347818
 21
-93.49995015663866
 31
0.0
 73
     3
  0
TEXT
  5
1CE
  8
__-3
 62
     3
 10
83.83485407521397
 20
-95.88946838580533
 30
0.0
 40
2.389518229166667
  1
DATE:
  7
YUGOTHIC_MEDIUM
 11
83.83485407521397
 21
-93.49995015663866
 31
0.0
 73
     3
  0
TEXT
  5
1CF
  8
__-3
 62
     3
 10
49.94351325906837
 20
-95.88946838580533
 30
0.0
 40
2.389518229166667
  1
ID:
  7
YUGOTHIC_MEDIUM
 11
49.94351325906837
 21
-93.49995015663866
 31
0.0
 73
     3
  0
TEXT
  5
1D0
  8
__-3
 62
     3
 10
54.87692605681514
 20
-96.67147750038858
 30
0.0
 40
2.389518229166667
  1
LT-BR016
  7
YUGOTHIC_MEDIUM
 11
54.87692605681514
 21
-95.47671838580524
 31
0.0
 73
     2
  0
TEXT
  5
1D1
  8
__-3
 62
     3
 10
-36.90650480634038
 20
-96.67147750038858
 30
0.0
 40
2.389518229166667
  1
業務用キッチン
  7
YUGOTHIC_MEDIUM
 11
-36.90650480634038
 21
-95.47671838580524
 31
0.0
 73
     2
  0
ENDBLK
  5
74
  8
0
  0
BLOCK
  8
0
  2
____-3-1
 70
     0
 10
0.0
 20
0.0
 30
0.0
  3
____-3-1
  1

  0
ENDBLK
  5
77
  8
0
  0
BLOCK
  8
0
  2
____-4-1
 70
     0
 10
0.0
 20
0.0
 30
0.0
  3
____-4-1
  1

  0
LINE
  5
1D2
  8
__-3
  6
CONTINUOUS
 62
     7
 10
144.272
 20
310.5308544574551
 30
0.0
 11
-144.272
 21
310.5308544574551
 31
0.0
  0
TEXT
  5
1D3
  8
__-3
 62
     3
 10
94.48727566194626
 20
306.1956939473636
 30
0.0
 40
2.389518229166667
  1
2022.08.31
  7
YUGOTHIC_MEDIUM
 11
94.48727566194626
 21
307.390453061947
 31
0.0
 73
     2
  0
TEXT
  5
1D4
  8
__-3
 62
     3
 10
129.4375369899762
 20
306.1956939473636
 30
0.0
 40
2.389518229166667
  1
1:15(A4)
  7
YUGOTHIC_MEDIUM
 11
129.4375369899762
 21
307.390453061947
 31
0.0
 73
     2
  0
INSERT
  5
1D5
  8
__-3
 62
    17
  2
____-3-1
 10
0.0
 20
0.0
 30
0.0
  0
TEXT
  5
1D6
  8
__-3
 62
     3
 10
116.8075934565349
 20
306.9777030619469
 30
0.0
 40
2.389518229166667
  1
SCALE:
  7
YUGOTHIC_MEDIUM
 11
116.8075934565349
 21
309.3672212911135
 31
0.0
 73
     3
  0
TEXT
  5
1D7
  8
__-3
 62
     3
 10
-49.28778269347822
 20
306.9777030619469
 30
0.0
 40
2.389518229166667
  1
NAME:
  7
YUGOTHIC_MEDIUM
 11
-49.28778269347822
 21
309.3672212911135
 31
0.0
 73
     3
  0
TEXT
  5
1D8
  8
__-3
 62
     3
 10
83.83485407521394
 20
306.9777030619469
 30
0.0
 40
2.389518229166667
  1
DATE:
  7
YUGOTHIC_MEDIUM
 11
83.83485407521394
 21
309.3672212911135
 31
0.0
 73
     3
  0
TEXT
  5
1D9
  8
__-3
 62
     3
 10
49.94351325906834
 20
306.9777030619469
 30
0.0
 40
2.389518229166667
  1
ID:
  7
YUGOTHIC_MEDIUM
 11
49.94351325906834
 21
309.3672212911135
 31
0.0
 73
     3
  0
TEXT
  5
1DA
  8
__-3
 62
     3
 10
54.87692605681511
 20
306.1956939473636
 30
0.0
 40
2.389518229166667
  1
KB-KC025-08
  7
YUGOTHIC_MEDIUM
 11
54.87692605681511
 21
307.390453061947
 31
0.0
 73
     2
  0
TEXT
  5
1DB
  8
__-3
 62
     3
 10
-36.90650480634042
 20
306.1956939473636
 30
0.0
 40
2.389518229166667
  1
業務用キッチン  引き出し＆引き戸 バックガードあり
  7
YUGOTHIC_MEDIUM
 11
-36.90650480634042
 21
307.390453061947
 31
0.0
 73
     2
  0
ENDBLK
  5
7A
  8
0
  0
BLOCK
  8
0
  2
____-5-1
 70
     0
 10
0.0
 20
0.0
 30
0.0
  3
____-5-1
  1

  0
ENDBLK
  5
7D
  8
0
  0
BLOCK
  8
0
  2
____-6-1
 70
     0
 10
0.0
 20
0.0
 30
0.0
  3
____-6-1
  1

  0
LINE
  5
1DC
  8
__-3
  6
CONTINUOUS
 62
     7
 10
144.272
 20
109.2480892083655
 30
0.0
 11
-144.272
 21
109.2480892083655
 31
0.0
  0
TEXT
  5
1DD
  8
__-3
 62
     3
 10
94.48727566194626
 20
104.9129286982741
 30
0.0
 40
2.389518229166667
  1
2022.08.31
  7
YUGOTHIC_MEDIUM
 11
94.48727566194626
 21
106.1076878128574
 31
0.0
 73
     2
  0
TEXT
  5
1DE
  8
__-3
 62
     3
 10
129.4375369899762
 20
104.9129286982741
 30
0.0
 40
2.389518229166667
  1
1:15(A4)
  7
YUGOTHIC_MEDIUM
 11
129.4375369899762
 21
106.1076878128574
 31
0.0
 73
     2
  0
INSERT
  5
1DF
  8
__-3
 62
    17
  2
____-5-1
 10
0.0
 20
0.0
 30
0.0
  0
TEXT
  5
1E0
  8
__-3
 62
     3
 10
116.8075934565349
 20
105.6949378128574
 30
0.0
 40
2.389518229166667
  1
SCALE:
  7
YUGOTHIC_MEDIUM
 11
116.8075934565349
 21
108.084456042024
 31
0.0
 73
     3
  0
TEXT
  5
1E1
  8
__-3
 62
     3
 10
-49.28778269347822
 20
105.6949378128574
 30
0.0
 40
2.389518229166667
  1
NAME:
  7
YUGOTHIC_MEDIUM
 11
-49.28778269347822
 21
108.084456042024
 31
0.0
 73
     3
  0
TEXT
  5
1E2
  8
__-3
 62
     3
 10
83.83485407521394
 20
105.6949378128574
 30
0.0
 40
2.389518229166667
  1
DATE:
  7
YUGOTHIC_MEDIUM
 11
83.83485407521394
 21
108.084456042024
 31
0.0
 73
     3
  0
TEXT
  5
1E3
  8
__-3
 62
     3
 10
49.94351325906834
 20
105.6949378128574
 30
0.0
 40
2.389518229166667
  1
ID:
  7
YUGOTHIC_MEDIUM
 11
49.94351325906834
 21
108.084456042024
 31
0.0
 73
     3
  0
TEXT
  5
1E4
  8
__-3
 62
     3
 10
54.87692605681511
 20
104.9129286982741
 30
0.0
 40
2.389518229166667
  1
KB-KC025-08
  7
YUGOTHIC_MEDIUM
 11
54.87692605681511
 21
106.1076878128574
 31
0.0
 73
     2
  0
TEXT
  5
1E5
  8
__-3
 62
     3
 10
-36.90650480634042
 20
104.9129286982741
 30
0.0
 40
2.389518229166667
  1
業務用キッチン  コーナー台 バックガードなし
  7
YUGOTHIC_MEDIUM
 11
-36.90650480634042
 21
106.1076878128574
 31
0.0
 73
     2
  0
ENDBLK
  5
80
  8
0
  0
BLOCK
  8
0
  2
*D7
 70
     1
 10
0.0
 20
0.0
 30
0.0
  3
*D7
  1

  0
LINE
  5
1E6
  8
SAKUZU
  6
CONTINUOUS
 62
     0
 10
223.3900977332338
 20
3624.019092983591
 30
0.0
 11
223.3900977332338
 21
3721.019092983591
 31
0.0
  0
LINE
  5
1E7
  8
SAKUZU
  6
CONTINUOUS
 62
     0
 10
-676.6099022667663
 20
3624.019092983591
 30
0.0
 11
-676.6099022667663
 21
3721.019092983591
 31
0.0
  0
LINE
  5
1E8
  8
SAKUZU
  6
CONTINUOUS
 62
     0
 10
222.8893531043275
 20
3721.019092983591
 30
0.0
 11
-676.1091576378601
 21
3721.019092983591
 31
0.0
  0
INSERT
  5
1E9
  8
SAKUZU
 62
     0
  2
_DOT
 10
223.3900977332338
 20
3721.019092983591
 30
0.0
 41
0.5007446289062499
 42
0.5007446289062499
 43
0.5007446289062499
  0
INSERT
  5
1EA
  8
SAKUZU
 62
     0
  2
_DOT
 10
-676.6099022667663
 20
3721.019092983591
 30
0.0
 41
0.5007446289062499
 42
0.5007446289062499
 43
0.5007446289062499
 50
180.0
  0
TEXT
  5
1EB
  8
SAKUZU
  6
CONTINUOUS
 62
     0
 10
-271.9788190642545
 20
3721.219092982846
 30
0.0
 40
31.75824175824177
  1
900
  7
YUGOTHIC_MEDIUM
  0
POINT
  5
1EC
  8
DEFPOINTS
 62
     0
 10
223.3900977332338
 20
3621.019092983591
 30
0.0
  0
POINT
  5
1ED
  8
DEFPOINTS
 62
     0
 10
-676.6099022667663
 20
3621.019092983591
 30
0.0
  0
POINT
  5
1EE
  8
DEFPOINTS
 62
     0
 10
-676.6099022667663
 20
3721.019092983591
 30
0.0
  0
ENDBLK
  5
83
  8
0
  0
BLOCK
  8
0
  2
*D8
 70
     1
 10
0.0
 20
0.0
 30
0.0
  3
*D8
  1

  0
LINE
  5
1EF
  8
SAKUZU
  6
CONTINUOUS
 62
     0
 10
226.3900977332338
 20
3021.019092983591
 30
0.0
 11
323.3900977332339
 21
3021.019092983591
 31
0.0
  0
LINE
  5
1F0
  8
SAKUZU
  6
CONTINUOUS
 62
     0
 10
226.3900977332338
 20
3621.019092983591
 30
0.0
 11
323.3900977332339
 21
3621.019092983591
 31
0.0
  0
LINE
  5
1F1
  8
SAKUZU
  6
CONTINUOUS
 62
     0
 10
323.3900977332339
 20
3021.519837612497
 30
0.0
 11
323.3900977332339
 21
3620.518348354684
 31
0.0
  0
INSERT
  5
1F2
  8
SAKUZU
 62
     0
  2
_DOT
 10
323.3900977332339
 20
3021.019092983591
 30
0.0
 41
0.5007446289062499
 42
0.5007446289062499
 43
0.5007446289062499
 50
270.0
  0
INSERT
  5
1F3
  8
SAKUZU
 62
     0
  2
_DOT
 10
323.3900977332339
 20
3621.019092983591
 30
0.0
 41
0.5007446289062499
 42
0.5007446289062499
 43
0.5007446289062499
 50
90.0
  0
TEXT
  5
1F4
  8
SAKUZU
  6
CONTINUOUS
 62
     0
 10
323.1900977339792
 20
3274.894027572811
 30
0.0
 40
31.75824175824177
  1
600
 50
90.0
  7
YUGOTHIC_MEDIUM
  0
POINT
  5
1F5
  8
DEFPOINTS
 62
     0
 10
223.3900977332338
 20
3021.019092983591
 30
0.0
  0
POINT
  5
1F6
  8
DEFPOINTS
 62
     0
 10
223.3900977332338
 20
3621.019092983591
 30
0.0
  0
POINT
  5
1F7
  8
DEFPOINTS
 62
     0
 10
323.3900977332339
 20
3621.019092983591
 30
0.0
  0
ENDBLK
  5
86
  8
0
  0
BLOCK
  8
0
  2
*D9
 70
     1
 10
0.0
 20
0.0
 30
0.0
  3
*D9
  1

  0
LINE
  5
1F8
  8
SAKUZU
  6
CONTINUOUS
 62
     0
 10
216.3900977332338
 20
2535.579694741714
 30
0.0
 11
323.3900977332338
 21
2535.579694741714
 31
0.0
  0
LINE
  5
1F9
  8
SAKUZU
  6
CONTINUOUS
 62
     0
 10
226.3900977332343
 20
2595.579694741714
 30
0.0
 11
323.3900977332338
 21
2595.579694741714
 31
0.0
  0
LINE
  5
1FA
  8
SAKUZU
  6
CONTINUOUS
 62
     0
 10
323.3900977332338
 20
2536.08043937062
 30
0.0
 11
323.3900977332338
 21
2595.078950112807
 31
0.0
  0
INSERT
  5
1FB
  8
SAKUZU
 62
     0
  2
_DOT
 10
323.3900977332338
 20
2535.579694741714
 30
0.0
 41
0.5007446289062499
 42
0.5007446289062499
 43
0.5007446289062499
 50
270.0
  0
INSERT
  5
1FC
  8
SAKUZU
 62
     0
  2
_DOT
 10
323.3900977332338
 20
2595.579694741714
 30
0.0
 41
0.5007446289062499
 42
0.5007446289062499
 43
0.5007446289062499
 50
90.0
  0
TEXT
  5
1FD
  8
SAKUZU
  6
CONTINUOUS
 62
     0
 10
323.1900977339787
 20
2534.577601596764
 30
0.0
 40
31.75824175824177
  1
60
 50
90.0
  7
YUGOTHIC_MEDIUM
  0
POINT
  5
1FE
  8
DEFPOINTS
 62
     0
 10
213.3900977332338
 20
2535.579694741714
 30
0.0
  0
POINT
  5
1FF
  8
DEFPOINTS
 62
     0
 10
223.3900977332343
 20
2595.579694741714
 30
0.0
  0
POINT
  5
200
  8
DEFPOINTS
 62
     0
 10
323.3900977332338
 20
2595.579694741714
 30
0.0
  0
ENDBLK
  5
89
  8
0
  0
BLOCK
  8
0
  2
*D10
 70
     1
 10
0.0
 20
0.0
 30
0.0
  3
*D10
  1

  0
LINE
  5
201
  8
SAKUZU
  6
CONTINUOUS
 62
     0
 10
216.3900977332338
 20
2415.579694741714
 30
0.0
 11
323.3900977332338
 21
2415.579694741714
 31
0.0
  0
LINE
  5
202
  8
SAKUZU
  6
CONTINUOUS
 62
     0
 10
216.3900977332338
 20
2535.579694741714
 30
0.0
 11
323.3900977332338
 21
2535.579694741714
 31
0.0
  0
LINE
  5
203
  8
SAKUZU
  6
CONTINUOUS
 62
     0
 10
323.3900977332338
 20
2416.08043937062
 30
0.0
 11
323.3900977332338
 21
2535.078950112807
 31
0.0
  0
INSERT
  5
204
  8
SAKUZU
 62
     0
  2
_DOT
 10
323.3900977332338
 20
2415.579694741714
 30
0.0
 41
0.5007446289062499
 42
0.5007446289062499
 43
0.5007446289062499
 50
270.0
  0
INSERT
  5
205
  8
SAKUZU
 62
     0
  2
_DOT
 10
323.3900977332338
 20
2535.579694741714
 30
0.0
 41
0.5007446289062499
 42
0.5007446289062499
 43
0.5007446289062499
 50
90.0
  0
TEXT
  5
206
  8
SAKUZU
  6
CONTINUOUS
 62
     0
 10
323.1900977339787
 20
2427.942332104351
 30
0.0
 40
31.75824175824177
  1
120
 50
90.0
  7
YUGOTHIC_MEDIUM
  0
POINT
  5
207
  8
DEFPOINTS
 62
     0
 10
213.3900977332338
 20
2415.579694741714
 30
0.0
  0
POINT
  5
208
  8
DEFPOINTS
 62
     0
 10
213.3900977332338
 20
2535.579694741714
 30
0.0
  0
POINT
  5
209
  8
DEFPOINTS
 62
     0
 10
323.3900977332338
 20
2535.579694741714
 30
0.0
  0
ENDBLK
  5
8C
  8
0
  0
BLOCK
  8
0
  2
*D11
 70
     1
 10
0.0
 20
0.0
 30
0.0
  3
*D11
  1

  0
LINE
  5
20A
  8
SAKUZU
  6
CONTINUOUS
 62
     0
 10
216.3900977332338
 20
2365.579694741714
 30
0.0
 11
323.3900977332338
 21
2365.579694741714
 31
0.0
  0
LINE
  5
20B
  8
SAKUZU
  6
CONTINUOUS
 62
     0
 10
216.3900977332338
 20
2415.579694741714
 30
0.0
 11
323.3900977332338
 21
2415.579694741714
 31
0.0
  0
LINE
  5
20C
  8
SAKUZU
  6
CONTINUOUS
 62
     0
 10
323.3900977332338
 20
2365.579694741714
 30
0.0
 11
323.3900977332338
 21
2415.579694741714
 31
0.0
  0
LINE
  5
20D
  8
SAKUZU
  6
CONTINUOUS
 62
     0
 10
323.3900977332338
 20
2365.078950112807
 30
0.0
 11
323.3900977332338
 21
2364.578205483901
 31
0.0
  0
LINE
  5
20E
  8
SAKUZU
  6
CONTINUOUS
 62
     0
 10
323.3900977332338
 20
2416.08043937062
 30
0.0
 11
323.3900977332338
 21
2416.581183999527
 31
0.0
  0
INSERT
  5
20F
  8
SAKUZU
 62
     0
  2
_DOT
 10
323.3900977332338
 20
2365.579694741714
 30
0.0
 41
0.5007446289062499
 42
0.5007446289062499
 43
0.5007446289062499
 50
90.0
  0
INSERT
  5
210
  8
SAKUZU
 62
     0
  2
_DOT
 10
323.3900977332338
 20
2415.579694741714
 30
0.0
 41
0.5007446289062499
 42
0.5007446289062499
 43
0.5007446289062499
 50
270.0
  0
TEXT
  5
211
  8
SAKUZU
  6
CONTINUOUS
 62
     0
 10
323.1900977339787
 20
2360.333750210055
 30
0.0
 40
31.75824175824177
  1
50
 50
90.0
  7
YUGOTHIC_MEDIUM
  0
POINT
  5
212
  8
DEFPOINTS
 62
     0
 10
213.3900977332338
 20
2365.579694741714
 30
0.0
  0
POINT
  5
581
  8
DEFPOINTS
 62
     0
 10
213.3900977332338
 20
2415.579694741714
 30
0.0
  0
POINT
  5
582
  8
DEFPOINTS
 62
     0
 10
323.3900977332338
 20
2415.579694741714
 30
0.0
  0
ENDBLK
  5
8F
  8
0
  0
BLOCK
  8
0
  2
*D12
 70
     1
 10
0.0
 20
0.0
 30
0.0
  3
*D12
  1

  0
LINE
  5
213
  8
SAKUZU
  6
CONTINUOUS
 62
     0
 10
216.3900977332338
 20
1945.579694741714
 30
0.0
 11
323.3900977332338
 21
1945.579694741714
 31
0.0
  0
LINE
  5
214
  8
SAKUZU
  6
CONTINUOUS
 62
     0
 10
216.3900977332338
 20
2365.579694741714
 30
0.0
 11
323.3900977332338
 21
2365.579694741714
 31
0.0
  0
LINE
  5
215
  8
SAKUZU
  6
CONTINUOUS
 62
     0
 10
323.3900977332338
 20
1946.08043937062
 30
0.0
 11
323.3900977332338
 21
2365.078950112807
 31
0.0
  0
INSERT
  5
216
  8
SAKUZU
 62
     0
  2
_DOT
 10
323.3900977332338
 20
1945.579694741714
 30
0.0
 41
0.5007446289062499
 42
0.5007446289062499
 43
0.5007446289062499
 50
270.0
  0
INSERT
  5
217
  8
SAKUZU
 62
     0
  2
_DOT
 10
323.3900977332338
 20
2365.579694741714
 30
0.0
 41
0.5007446289062499
 42
0.5007446289062499
 43
0.5007446289062499
 50
90.0
  0
TEXT
  5
218
  8
SAKUZU
  6
CONTINUOUS
 62
     0
 10
323.1900977339787
 20
2110.210777944226
 30
0.0
 40
31.75824175824177
  1
420
 50
90.0
  7
YUGOTHIC_MEDIUM
  0
POINT
  5
219
  8
DEFPOINTS
 62
     0
 10
213.3900977332338
 20
1945.579694741714
 30
0.0
  0
POINT
  5
21A
  8
DEFPOINTS
 62
     0
 10
213.3900977332338
 20
2365.579694741714
 30
0.0
  0
POINT
  5
21B
  8
DEFPOINTS
 62
     0
 10
323.3900977332338
 20
2365.579694741714
 30
0.0
  0
ENDBLK
  5
92
  8
0
  0
BLOCK
  8
0
  2
*D13
 70
     1
 10
0.0
 20
0.0
 30
0.0
  3
*D13
  1

  0
LINE
  5
21C
  8
SAKUZU
  6
CONTINUOUS
 62
     0
 10
216.3900977332338
 20
1895.579694741714
 30
0.0
 11
323.3900977332338
 21
1895.579694741714
 31
0.0
  0
LINE
  5
21D
  8
SAKUZU
  6
CONTINUOUS
 62
     0
 10
216.3900977332338
 20
1945.579694741714
 30
0.0
 11
323.3900977332338
 21
1945.579694741714
 31
0.0
  0
LINE
  5
21E
  8
SAKUZU
  6
CONTINUOUS
 62
     0
 10
323.3900977332338
 20
1895.579694741714
 30
0.0
 11
323.3900977332338
 21
1945.579694741714
 31
0.0
  0
LINE
  5
21F
  8
SAKUZU
  6
CONTINUOUS
 62
     0
 10
323.3900977332338
 20
1895.078950112807
 30
0.0
 11
323.3900977332338
 21
1894.578205483901
 31
0.0
  0
LINE
  5
220
  8
SAKUZU
  6
CONTINUOUS
 62
     0
 10
323.3900977332338
 20
1946.08043937062
 30
0.0
 11
323.3900977332338
 21
1946.581183999526
 31
0.0
  0
INSERT
  5
221
  8
SAKUZU
 62
     0
  2
_DOT
 10
323.3900977332338
 20
1895.579694741714
 30
0.0
 41
0.5007446289062499
 42
0.5007446289062499
 43
0.5007446289062499
 50
90.0
  0
INSERT
  5
222
  8
SAKUZU
 62
     0
  2
_DOT
 10
323.3900977332338
 20
1945.579694741714
 30
0.0
 41
0.5007446289062499
 42
0.5007446289062499
 43
0.5007446289062499
 50
270.0
  0
TEXT
  5
223
  8
SAKUZU
  6
CONTINUOUS
 62
     0
 10
323.1900977339792
 20
1890.333750210055
 30
0.0
 40
31.75824175824177
  1
50
 50
90.0
  7
YUGOTHIC_MEDIUM
  0
POINT
  5
224
  8
DEFPOINTS
 62
     0
 10
213.3900977332338
 20
1895.579694741714
 30
0.0
  0
POINT
  5
585
  8
DEFPOINTS
 62
     0
 10
213.3900977332338
 20
1945.579694741714
 30
0.0
  0
POINT
  5
586
  8
DEFPOINTS
 62
     0
 10
323.3900977332338
 20
1945.579694741714
 30
0.0
  0
ENDBLK
  5
95
  8
0
  0
BLOCK
  8
0
  2
*D14
 70
     1
 10
0.0
 20
0.0
 30
0.0
  3
*D14
  1

  0
LINE
  5
225
  8
SAKUZU
  6
CONTINUOUS
 62
     0
 10
1441.213797747212
 20
1745.579694741714
 30
0.0
 11
1198.213797747212
 21
1745.579694741714
 31
0.0
  0
LINE
  5
226
  8
SAKUZU
  6
CONTINUOUS
 62
     0
 10
1400.213797747212
 20
2595.579694741714
 30
0.0
 11
1198.213797747212
 21
2595.579694741714
 31
0.0
  0
LINE
  5
227
  8
SAKUZU
  6
CONTINUOUS
 62
     0
 10
1198.213797747212
 20
1746.08043937062
 30
0.0
 11
1198.213797747212
 21
2595.078950112807
 31
0.0
  0
INSERT
  5
228
  8
SAKUZU
 62
     0
  2
_DOT
 10
1198.213797747212
 20
1745.579694741714
 30
0.0
 41
0.5007446289062499
 42
0.5007446289062499
 43
0.5007446289062499
 50
270.0
  0
INSERT
  5
229
  8
SAKUZU
 62
     0
  2
_DOT
 10
1198.213797747212
 20
2595.579694741714
 30
0.0
 41
0.5007446289062499
 42
0.5007446289062499
 43
0.5007446289062499
 50
90.0
  0
TEXT
  5
22A
  8
SAKUZU
  6
CONTINUOUS
 62
     0
 10
1198.013797747957
 20
2125.210777944226
 30
0.0
 40
31.75824175824177
  1
850
 50
90.0
  7
YUGOTHIC_MEDIUM
  0
POINT
  5
22B
  8
DEFPOINTS
 62
     0
 10
1444.213797747212
 20
1745.579694741714
 30
0.0
  0
POINT
  5
22C
  8
DEFPOINTS
 62
     0
 10
1403.213797747212
 20
2595.579694741714
 30
0.0
  0
POINT
  5
22D
  8
DEFPOINTS
 62
     0
 10
1198.213797747212
 20
2595.579694741714
 30
0.0
  0
ENDBLK
  5
98
  8
0
  0
BLOCK
  8
0
  2
*D15
 70
     1
 10
0.0
 20
0.0
 30
0.0
  3
*D15
  1

  0
LINE
  5
22E
  8
SAKUZU
  6
CONTINUOUS
 62
     0
 10
1395.213797747212
 20
2555.579694741714
 30
0.0
 11
1298.213797747212
 21
2555.579694741714
 31
0.0
  0
LINE
  5
22F
  8
SAKUZU
  6
CONTINUOUS
 62
     0
 10
1400.213797747212
 20
2595.579694741714
 30
0.0
 11
1298.213797747212
 21
2595.579694741714
 31
0.0
  0
LINE
  5
230
  8
SAKUZU
  6
CONTINUOUS
 62
     0
 10
1298.213797747212
 20
2555.579694741714
 30
0.0
 11
1298.213797747212
 21
2595.579694741714
 31
0.0
  0
LINE
  5
231
  8
SAKUZU
  6
CONTINUOUS
 62
     0
 10
1298.213797747212
 20
2555.078950112807
 30
0.0
 11
1298.213797747212
 21
2554.578205483901
 31
0.0
  0
LINE
  5
232
  8
SAKUZU
  6
CONTINUOUS
 62
     0
 10
1298.213797747212
 20
2596.08043937062
 30
0.0
 11
1298.213797747212
 21
2596.581183999527
 31
0.0
  0
INSERT
  5
233
  8
SAKUZU
 62
     0
  2
_DOT
 10
1298.213797747212
 20
2555.579694741714
 30
0.0
 41
0.5007446289062499
 42
0.5007446289062499
 43
0.5007446289062499
 50
90.0
  0
INSERT
  5
234
  8
SAKUZU
 62
     0
  2
_DOT
 10
1298.213797747212
 20
2595.579694741714
 30
0.0
 41
0.5007446289062499
 42
0.5007446289062499
 43
0.5007446289062499
 50
270.0
  0
TEXT
  5
235
  8
SAKUZU
  6
CONTINUOUS
 62
     0
 10
1298.013797747957
 20
2545.333750210055
 30
0.0
 40
31.75824175824177
  1
40
 50
90.0
  7
YUGOTHIC_MEDIUM
  0
POINT
  5
236
  8
DEFPOINTS
 62
     0
 10
1398.213797747212
 20
2555.579694741714
 30
0.0
  0
POINT
  5
589
  8
DEFPOINTS
 62
     0
 10
1403.213797747212
 20
2595.579694741714
 30
0.0
  0
POINT
  5
58A
  8
DEFPOINTS
 62
     0
 10
1298.213797747212
 20
2595.579694741714
 30
0.0
  0
ENDBLK
  5
9B
  8
0
  0
BLOCK
  8
0
  2
*D16
 70
     1
 10
0.0
 20
0.0
 30
0.0
  3
*D16
  1

  0
LINE
  5
237
  8
SAKUZU
  6
CONTINUOUS
 62
     0
 10
1405.213797747212
 20
1895.579694741714
 30
0.0
 11
1298.213797747212
 21
1895.579694741714
 31
0.0
  0
LINE
  5
238
  8
SAKUZU
  6
CONTINUOUS
 62
     0
 10
1441.213797747212
 20
1745.579694741714
 30
0.0
 11
1298.213797747212
 21
1745.579694741714
 31
0.0
  0
LINE
  5
239
  8
SAKUZU
  6
CONTINUOUS
 62
     0
 10
1298.213797747212
 20
1895.078950112807
 30
0.0
 11
1298.213797747212
 21
1746.08043937062
 31
0.0
  0
INSERT
  5
23A
  8
SAKUZU
 62
     0
  2
_DOT
 10
1298.213797747212
 20
1895.579694741714
 30
0.0
 41
0.5007446289062499
 42
0.5007446289062499
 43
0.5007446289062499
 50
90.0
  0
INSERT
  5
23B
  8
SAKUZU
 62
     0
  2
_DOT
 10
1298.213797747212
 20
1745.579694741714
 30
0.0
 41
0.5007446289062499
 42
0.5007446289062499
 43
0.5007446289062499
 50
270.0
  0
TEXT
  5
23C
  8
SAKUZU
  6
CONTINUOUS
 62
     0
 10
1298.013797747957
 20
1772.942332104351
 30
0.0
 40
31.75824175824177
  1
150
 50
90.0
  7
YUGOTHIC_MEDIUM
  0
POINT
  5
23D
  8
DEFPOINTS
 62
     0
 10
1408.213797747212
 20
1895.579694741714
 30
0.0
  0
POINT
  5
23E
  8
DEFPOINTS
 62
     0
 10
1444.213797747212
 20
1745.579694741714
 30
0.0
  0
POINT
  5
23F
  8
DEFPOINTS
 62
     0
 10
1298.213797747212
 20
1745.579694741714
 30
0.0
  0
ENDBLK
  5
9E
  8
0
  0
BLOCK
  8
0
  2
*D17
 70
     1
 10
0.0
 20
0.0
 30
0.0
  3
*D17
  1

  0
LINE
  5
240
  8
SAKUZU
  6
CONTINUOUS
 62
     0
 10
1818.213797747211
 20
2527.079694741714
 30
0.0
 11
1818.213797747211
 21
2695.579694741714
 31
0.0
  0
LINE
  5
241
  8
SAKUZU
  6
CONTINUOUS
 62
     0
 10
1398.213797747212
 20
2593.579694741714
 30
0.0
 11
1398.213797747212
 21
2695.579694741714
 31
0.0
  0
LINE
  5
242
  8
SAKUZU
  6
CONTINUOUS
 62
     0
 10
1817.713053118305
 20
2695.579694741714
 30
0.0
 11
1398.714542376118
 21
2695.579694741714
 31
0.0
  0
INSERT
  5
243
  8
SAKUZU
 62
     0
  2
_DOT
 10
1818.213797747211
 20
2695.579694741714
 30
0.0
 41
0.5007446289062499
 42
0.5007446289062499
 43
0.5007446289062499
  0
INSERT
  5
244
  8
SAKUZU
 62
     0
  2
_DOT
 10
1398.213797747212
 20
2695.579694741714
 30
0.0
 41
0.5007446289062499
 42
0.5007446289062499
 43
0.5007446289062499
 50
180.0
  0
TEXT
  5
245
  8
SAKUZU
  6
CONTINUOUS
 62
     0
 10
1562.844880949723
 20
2695.779694740969
 30
0.0
 40
31.75824175824177
  1
420
  7
YUGOTHIC_MEDIUM
  0
POINT
  5
246
  8
DEFPOINTS
 62
     0
 10
1818.213797747211
 20
2524.079694741714
 30
0.0
  0
POINT
  5
247
  8
DEFPOINTS
 62
     0
 10
1398.213797747212
 20
2590.579694741714
 30
0.0
  0
POINT
  5
248
  8
DEFPOINTS
 62
     0
 10
1398.213797747212
 20
2695.579694741714
 30
0.0
  0
ENDBLK
  5
A1
  8
0
  0
BLOCK
  8
0
  2
*D18
 70
     1
 10
0.0
 20
0.0
 30
0.0
  3
*D18
  1

  0
LINE
  5
249
  8
SAKUZU
  6
CONTINUOUS
 62
     0
 10
161.3900977332338
 20
2598.579694741714
 30
0.0
 11
161.3900977332338
 21
2695.579694741714
 31
0.0
  0
LINE
  5
24A
  8
SAKUZU
  6
CONTINUOUS
 62
     0
 10
-188.609963301923
 20
2598.579694741714
 30
0.0
 11
-188.609963301923
 21
2695.579694741714
 31
0.0
  0
LINE
  5
24B
  8
SAKUZU
  6
CONTINUOUS
 62
     0
 10
160.8893531043275
 20
2695.579694741714
 30
0.0
 11
-188.1092186730168
 21
2695.579694741714
 31
0.0
  0
INSERT
  5
24C
  8
SAKUZU
 62
     0
  2
_DOT
 10
161.3900977332338
 20
2695.579694741714
 30
0.0
 41
0.5007446289062499
 42
0.5007446289062499
 43
0.5007446289062499
  0
INSERT
  5
24D
  8
SAKUZU
 62
     0
  2
_DOT
 10
-188.609963301923
 20
2695.579694741714
 30
0.0
 41
0.5007446289062499
 42
0.5007446289062499
 43
0.5007446289062499
 50
180.0
  0
TEXT
  5
24E
  8
SAKUZU
  6
CONTINUOUS
 62
     0
 10
-122.4953330983164
 20
2695.779694740969
 30
0.0
 40
31.75824175824177
  1
350.0001
  7
YUGOTHIC_MEDIUM
  0
POINT
  5
24F
  8
DEFPOINTS
 62
     0
 10
161.3900977332338
 20
2595.579694741714
 30
0.0
  0
POINT
  5
250
  8
DEFPOINTS
 62
     0
 10
-188.609963301923
 20
2595.579694741714
 30
0.0
  0
POINT
  5
251
  8
DEFPOINTS
 62
     0
 10
-188.609963301923
 20
2695.579694741714
 30
0.0
  0
ENDBLK
  5
A4
  8
0
  0
BLOCK
  8
0
  2
*D19
 70
     1
 10
0.0
 20
0.0
 30
0.0
  3
*D19
  1

  0
LINE
  5
252
  8
SAKUZU
  6
CONTINUOUS
 62
     0
 10
223.3900977332343
 20
6642.439398241877
 30
0.0
 11
223.3900977332343
 21
6839.439398241877
 31
0.0
  0
LINE
  5
253
  8
SAKUZU
  6
CONTINUOUS
 62
     0
 10
-676.6099022667663
 20
6642.439398241877
 30
0.0
 11
-676.6099022667663
 21
6839.439398241877
 31
0.0
  0
LINE
  5
254
  8
SAKUZU
  6
CONTINUOUS
 62
     0
 10
222.889353104328
 20
6839.439398241877
 30
0.0
 11
-676.1091576378601
 21
6839.439398241877
 31
0.0
  0
INSERT
  5
255
  8
SAKUZU
 62
     0
  2
_DOT
 10
223.3900977332343
 20
6839.439398241877
 30
0.0
 41
0.5007446289062499
 42
0.5007446289062499
 43
0.5007446289062499
  0
INSERT
  5
256
  8
SAKUZU
 62
     0
  2
_DOT
 10
-676.6099022667663
 20
6839.439398241877
 30
0.0
 41
0.5007446289062499
 42
0.5007446289062499
 43
0.5007446289062499
 50
180.0
  0
TEXT
  5
257
  8
SAKUZU
  6
CONTINUOUS
 62
     0
 10
-271.9788190642543
 20
6839.639398241132
 30
0.0
 40
31.75824175824177
  1
900
  7
YUGOTHIC_MEDIUM
  0
POINT
  5
258
  8
DEFPOINTS
 62
     0
 10
223.3900977332343
 20
6639.439398241877
 30
0.0
  0
POINT
  5
259
  8
DEFPOINTS
 62
     0
 10
-676.6099022667663
 20
6639.439398241877
 30
0.0
  0
POINT
  5
25A
  8
DEFPOINTS
 62
     0
 10
-676.6099022667663
 20
6839.439398241877
 30
0.0
  0
ENDBLK
  5
A7
  8
0
  0
BLOCK
  8
0
  2
*D20
 70
     1
 10
0.0
 20
0.0
 30
0.0
  3
*D20
  1

  0
LINE
  5
25B
  8
SAKUZU
  6
CONTINUOUS
 62
     0
 10
226.3900977332343
 20
6039.439398241877
 30
0.0
 11
423.3900977332343
 21
6039.439398241877
 31
0.0
  0
LINE
  5
25C
  8
SAKUZU
  6
CONTINUOUS
 62
     0
 10
226.3900977332343
 20
6639.439398241877
 30
0.0
 11
423.3900977332343
 21
6639.439398241877
 31
0.0
  0
LINE
  5
25D
  8
SAKUZU
  6
CONTINUOUS
 62
     0
 10
423.3900977332343
 20
6039.940142870783
 30
0.0
 11
423.3900977332343
 21
6638.93865361297
 31
0.0
  0
INSERT
  5
25E
  8
SAKUZU
 62
     0
  2
_DOT
 10
423.3900977332343
 20
6039.439398241877
 30
0.0
 41
0.5007446289062499
 42
0.5007446289062499
 43
0.5007446289062499
 50
270.0
  0
INSERT
  5
25F
  8
SAKUZU
 62
     0
  2
_DOT
 10
423.3900977332343
 20
6639.439398241877
 30
0.0
 41
0.5007446289062499
 42
0.5007446289062499
 43
0.5007446289062499
 50
90.0
  0
TEXT
  5
260
  8
SAKUZU
  6
CONTINUOUS
 62
     0
 10
423.1900977339792
 20
6293.314332831098
 30
0.0
 40
31.75824175824177
  1
600
 50
90.0
  7
YUGOTHIC_MEDIUM
  0
POINT
  5
261
  8
DEFPOINTS
 62
     0
 10
223.3900977332343
 20
6039.439398241877
 30
0.0
  0
POINT
  5
262
  8
DEFPOINTS
 62
     0
 10
223.3900977332343
 20
6639.439398241877
 30
0.0
  0
POINT
  5
263
  8
DEFPOINTS
 62
     0
 10
423.3900977332343
 20
6639.439398241877
 30
0.0
  0
ENDBLK
  5
AA
  8
0
  0
BLOCK
  8
0
  2
*D21
 70
     1
 10
0.0
 20
0.0
 30
0.0
  3
*D21
  1

  0
LINE
  5
264
  8
SAKUZU
  6
CONTINUOUS
 62
     0
 10
226.3900977332343
 20
6579.439398241877
 30
0.0
 11
323.3900977332343
 21
6579.439398241877
 31
0.0
  0
LINE
  5
265
  8
SAKUZU
  6
CONTINUOUS
 62
     0
 10
226.3900977332343
 20
6639.439398241877
 30
0.0
 11
323.3900977332343
 21
6639.439398241877
 31
0.0
  0
LINE
  5
266
  8
SAKUZU
  6
CONTINUOUS
 62
     0
 10
323.3900977332343
 20
6579.940142870783
 30
0.0
 11
323.3900977332343
 21
6638.93865361297
 31
0.0
  0
INSERT
  5
267
  8
SAKUZU
 62
     0
  2
_DOT
 10
323.3900977332343
 20
6579.439398241877
 30
0.0
 41
0.5007446289062499
 42
0.5007446289062499
 43
0.5007446289062499
 50
270.0
  0
INSERT
  5
268
  8
SAKUZU
 62
     0
  2
_DOT
 10
323.3900977332343
 20
6639.439398241877
 30
0.0
 41
0.5007446289062499
 42
0.5007446289062499
 43
0.5007446289062499
 50
90.0
  0
TEXT
  5
269
  8
SAKUZU
  6
CONTINUOUS
 62
     0
 10
323.1900977339792
 20
6578.437305096927
 30
0.0
 40
31.75824175824177
  1
60
 50
90.0
  7
YUGOTHIC_MEDIUM
  0
POINT
  5
26A
  8
DEFPOINTS
 62
     0
 10
223.3900977332343
 20
6579.439398241877
 30
0.0
  0
POINT
  5
26B
  8
DEFPOINTS
 62
     0
 10
223.3900977332343
 20
6639.439398241877
 30
0.0
  0
POINT
  5
26C
  8
DEFPOINTS
 62
     0
 10
323.3900977332343
 20
6639.439398241877
 30
0.0
  0
ENDBLK
  5
AD
  8
0
  0
BLOCK
  8
0
  2
*D22
 70
     1
 10
0.0
 20
0.0
 30
0.0
  3
*D22
  1

  0
LINE
  5
26D
  8
SAKUZU
  6
CONTINUOUS
 62
     0
 10
226.3900977332347
 20
6039.439398241877
 30
0.0
 11
323.3900977332343
 21
6039.439398241877
 31
0.0
  0
LINE
  5
26E
  8
SAKUZU
  6
CONTINUOUS
 62
     0
 10
226.3900977332343
 20
6579.439398241877
 30
0.0
 11
323.3900977332343
 21
6579.439398241877
 31
0.0
  0
LINE
  5
26F
  8
SAKUZU
  6
CONTINUOUS
 62
     0
 10
323.3900977332343
 20
6039.940142870783
 30
0.0
 11
323.3900977332343
 21
6578.93865361297
 31
0.0
  0
INSERT
  5
270
  8
SAKUZU
 62
     0
  2
_DOT
 10
323.3900977332343
 20
6039.439398241877
 30
0.0
 41
0.5007446289062499
 42
0.5007446289062499
 43
0.5007446289062499
 50
270.0
  0
INSERT
  5
271
  8
SAKUZU
 62
     0
  2
_DOT
 10
323.3900977332343
 20
6579.439398241877
 30
0.0
 41
0.5007446289062499
 42
0.5007446289062499
 43
0.5007446289062499
 50
90.0
  0
TEXT
  5
272
  8
SAKUZU
  6
CONTINUOUS
 62
     0
 10
323.1900977339792
 20
6264.070481444389
 30
0.0
 40
31.75824175824177
  1
540
 50
90.0
  7
YUGOTHIC_MEDIUM
  0
POINT
  5
273
  8
DEFPOINTS
 62
     0
 10
223.3900977332347
 20
6039.439398241877
 30
0.0
  0
POINT
  5
274
  8
DEFPOINTS
 62
     0
 10
223.3900977332343
 20
6579.439398241877
 30
0.0
  0
POINT
  5
275
  8
DEFPOINTS
 62
     0
 10
323.3900977332343
 20
6579.439398241877
 30
0.0
  0
ENDBLK
  5
B0
  8
0
  0
BLOCK
  8
0
  2
*D23
 70
     1
 10
0.0
 20
0.0
 30
0.0
  3
*D23
  1

  0
LINE
  5
276
  8
SAKUZU
  6
CONTINUOUS
 62
     0
 10
216.3900977332343
 20
5554.0
 30
0.0
 11
423.3900977332343
 21
5554.0
 31
0.0
  0
LINE
  5
277
  8
SAKUZU
  6
CONTINUOUS
 62
     0
 10
226.3900977332347
 20
5614.0
 30
0.0
 11
423.3900977332343
 21
5614.0
 31
0.0
  0
LINE
  5
278
  8
SAKUZU
  6
CONTINUOUS
 62
     0
 10
423.3900977332343
 20
5554.500744628906
 30
0.0
 11
423.3900977332343
 21
5613.499255371094
 31
0.0
  0
INSERT
  5
279
  8
SAKUZU
 62
     0
  2
_DOT
 10
423.3900977332343
 20
5554.0
 30
0.0
 41
0.5007446289062499
 42
0.5007446289062499
 43
0.5007446289062499
 50
270.0
  0
INSERT
  5
27A
  8
SAKUZU
 62
     0
  2
_DOT
 10
423.3900977332343
 20
5614.0
 30
0.0
 41
0.5007446289062499
 42
0.5007446289062499
 43
0.5007446289062499
 50
90.0
  0
TEXT
  5
27B
  8
SAKUZU
  6
CONTINUOUS
 62
     0
 10
423.1900977339792
 20
5552.99790685505
 30
0.0
 40
31.75824175824177
  1
60
 50
90.0
  7
YUGOTHIC_MEDIUM
  0
POINT
  5
27C
  8
DEFPOINTS
 62
     0
 10
213.3900977332343
 20
5554.0
 30
0.0
  0
POINT
  5
27D
  8
DEFPOINTS
 62
     0
 10
223.3900977332347
 20
5614.0
 30
0.0
  0
POINT
  5
27E
  8
DEFPOINTS
 62
     0
 10
423.3900977332343
 20
5614.0
 30
0.0
  0
ENDBLK
  5
B3
  8
0
  0
BLOCK
  8
0
  2
*D24
 70
     1
 10
0.0
 20
0.0
 30
0.0
  3
*D24
  1

  0
LINE
  5
27F
  8
SAKUZU
  6
CONTINUOUS
 62
     0
 10
216.3900977332343
 20
5434.0
 30
0.0
 11
423.3900977332343
 21
5434.0
 31
0.0
  0
LINE
  5
280
  8
SAKUZU
  6
CONTINUOUS
 62
     0
 10
216.3900977332343
 20
5554.0
 30
0.0
 11
423.3900977332343
 21
5554.0
 31
0.0
  0
LINE
  5
281
  8
SAKUZU
  6
CONTINUOUS
 62
     0
 10
423.3900977332343
 20
5434.500744628906
 30
0.0
 11
423.3900977332343
 21
5553.499255371094
 31
0.0
  0
INSERT
  5
282
  8
SAKUZU
 62
     0
  2
_DOT
 10
423.3900977332343
 20
5434.0
 30
0.0
 41
0.5007446289062499
 42
0.5007446289062499
 43
0.5007446289062499
 50
270.0
  0
INSERT
  5
283
  8
SAKUZU
 62
     0
  2
_DOT
 10
423.3900977332343
 20
5554.0
 30
0.0
 41
0.5007446289062499
 42
0.5007446289062499
 43
0.5007446289062499
 50
90.0
  0
TEXT
  5
284
  8
SAKUZU
  6
CONTINUOUS
 62
     0
 10
423.1900977339792
 20
5446.362637362638
 30
0.0
 40
31.75824175824177
  1
120
 50
90.0
  7
YUGOTHIC_MEDIUM
  0
POINT
  5
285
  8
DEFPOINTS
 62
     0
 10
213.3900977332343
 20
5434.0
 30
0.0
  0
POINT
  5
286
  8
DEFPOINTS
 62
     0
 10
213.3900977332343
 20
5554.0
 30
0.0
  0
POINT
  5
287
  8
DEFPOINTS
 62
     0
 10
423.3900977332343
 20
5554.0
 30
0.0
  0
ENDBLK
  5
B6
  8
0
  0
BLOCK
  8
0
  2
*D25
 70
     1
 10
0.0
 20
0.0
 30
0.0
  3
*D25
  1

  0
LINE
  5
288
  8
SAKUZU
  6
CONTINUOUS
 62
     0
 10
216.3900977332343
 20
5384.0
 30
0.0
 11
423.3900977332343
 21
5384.0
 31
0.0
  0
LINE
  5
289
  8
SAKUZU
  6
CONTINUOUS
 62
     0
 10
216.3900977332343
 20
5434.0
 30
0.0
 11
423.3900977332343
 21
5434.0
 31
0.0
  0
LINE
  5
28A
  8
SAKUZU
  6
CONTINUOUS
 62
     0
 10
423.3900977332343
 20
5384.0
 30
0.0
 11
423.3900977332343
 21
5434.0
 31
0.0
  0
LINE
  5
28B
  8
SAKUZU
  6
CONTINUOUS
 62
     0
 10
423.3900977332343
 20
5383.499255371094
 30
0.0
 11
423.3900977332343
 21
5382.998510742187
 31
0.0
  0
LINE
  5
28C
  8
SAKUZU
  6
CONTINUOUS
 62
     0
 10
423.3900977332343
 20
5434.500744628906
 30
0.0
 11
423.3900977332343
 21
5435.001489257813
 31
0.0
  0
INSERT
  5
28D
  8
SAKUZU
 62
     0
  2
_DOT
 10
423.3900977332343
 20
5384.0
 30
0.0
 41
0.5007446289062499
 42
0.5007446289062499
 43
0.5007446289062499
 50
90.0
  0
INSERT
  5
28E
  8
SAKUZU
 62
     0
  2
_DOT
 10
423.3900977332343
 20
5434.0
 30
0.0
 41
0.5007446289062499
 42
0.5007446289062499
 43
0.5007446289062499
 50
270.0
  0
TEXT
  5
28F
  8
SAKUZU
  6
CONTINUOUS
 62
     0
 10
423.1900977339792
 20
5378.754055468341
 30
0.0
 40
31.75824175824177
  1
50
 50
90.0
  7
YUGOTHIC_MEDIUM
  0
POINT
  5
290
  8
DEFPOINTS
 62
     0
 10
213.3900977332343
 20
5384.0
 30
0.0
  0
POINT
  5
660
  8
DEFPOINTS
 62
     0
 10
213.3900977332343
 20
5434.0
 30
0.0
  0
POINT
  5
661
  8
DEFPOINTS
 62
     0
 10
423.3900977332343
 20
5434.0
 30
0.0
  0
ENDBLK
  5
B9
  8
0
  0
BLOCK
  8
0
  2
*D26
 70
     1
 10
0.0
 20
0.0
 30
0.0
  3
*D26
  1

  0
LINE
  5
291
  8
SAKUZU
  6
CONTINUOUS
 62
     0
 10
216.3900977332343
 20
4964.0
 30
0.0
 11
423.3900977332343
 21
4964.0
 31
0.0
  0
LINE
  5
292
  8
SAKUZU
  6
CONTINUOUS
 62
     0
 10
216.3900977332343
 20
5384.0
 30
0.0
 11
423.3900977332343
 21
5384.0
 31
0.0
  0
LINE
  5
293
  8
SAKUZU
  6
CONTINUOUS
 62
     0
 10
423.3900977332343
 20
4964.500744628906
 30
0.0
 11
423.3900977332343
 21
5383.499255371094
 31
0.0
  0
INSERT
  5
294
  8
SAKUZU
 62
     0
  2
_DOT
 10
423.3900977332343
 20
4964.0
 30
0.0
 41
0.5007446289062499
 42
0.5007446289062499
 43
0.5007446289062499
 50
270.0
  0
INSERT
  5
295
  8
SAKUZU
 62
     0
  2
_DOT
 10
423.3900977332343
 20
5384.0
 30
0.0
 41
0.5007446289062499
 42
0.5007446289062499
 43
0.5007446289062499
 50
90.0
  0
TEXT
  5
296
  8
SAKUZU
  6
CONTINUOUS
 62
     0
 10
423.1900977339792
 20
5128.631083202512
 30
0.0
 40
31.75824175824177
  1
420
 50
90.0
  7
YUGOTHIC_MEDIUM
  0
POINT
  5
297
  8
DEFPOINTS
 62
     0
 10
213.3900977332343
 20
4964.0
 30
0.0
  0
POINT
  5
298
  8
DEFPOINTS
 62
     0
 10
213.3900977332343
 20
5384.0
 30
0.0
  0
POINT
  5
299
  8
DEFPOINTS
 62
     0
 10
423.3900977332343
 20
5384.0
 30
0.0
  0
ENDBLK
  5
BC
  8
0
  0
BLOCK
  8
0
  2
*D27
 70
     1
 10
0.0
 20
0.0
 30
0.0
  3
*D27
  1

  0
LINE
  5
29A
  8
SAKUZU
  6
CONTINUOUS
 62
     0
 10
216.3900977332343
 20
4914.0
 30
0.0
 11
423.3900977332343
 21
4914.0
 31
0.0
  0
LINE
  5
29B
  8
SAKUZU
  6
CONTINUOUS
 62
     0
 10
216.3900977332343
 20
4964.0
 30
0.0
 11
423.3900977332343
 21
4964.0
 31
0.0
  0
LINE
  5
29C
  8
SAKUZU
  6
CONTINUOUS
 62
     0
 10
423.3900977332343
 20
4914.0
 30
0.0
 11
423.3900977332343
 21
4964.0
 31
0.0
  0
LINE
  5
29D
  8
SAKUZU
  6
CONTINUOUS
 62
     0
 10
423.3900977332343
 20
4913.499255371094
 30
0.0
 11
423.3900977332343
 21
4912.998510742187
 31
0.0
  0
LINE
  5
29E
  8
SAKUZU
  6
CONTINUOUS
 62
     0
 10
423.3900977332343
 20
4964.500744628906
 30
0.0
 11
423.3900977332343
 21
4965.001489257813
 31
0.0
  0
INSERT
  5
29F
  8
SAKUZU
 62
     0
  2
_DOT
 10
423.3900977332343
 20
4914.0
 30
0.0
 41
0.5007446289062499
 42
0.5007446289062499
 43
0.5007446289062499
 50
90.0
  0
INSERT
  5
2A0
  8
SAKUZU
 62
     0
  2
_DOT
 10
423.3900977332343
 20
4964.0
 30
0.0
 41
0.5007446289062499
 42
0.5007446289062499
 43
0.5007446289062499
 50
270.0
  0
TEXT
  5
2A1
  8
SAKUZU
  6
CONTINUOUS
 62
     0
 10
423.1900977339792
 20
4908.754055468341
 30
0.0
 40
31.75824175824177
  1
50
 50
90.0
  7
YUGOTHIC_MEDIUM
  0
POINT
  5
2A2
  8
DEFPOINTS
 62
     0
 10
213.3900977332343
 20
4914.0
 30
0.0
  0
POINT
  5
664
  8
DEFPOINTS
 62
     0
 10
213.3900977332343
 20
4964.0
 30
0.0
  0
POINT
  5
665
  8
DEFPOINTS
 62
     0
 10
423.3900977332343
 20
4964.0
 30
0.0
  0
ENDBLK
  5
BF
  8
0
  0
BLOCK
  8
0
  2
*D28
 70
     1
 10
0.0
 20
0.0
 30
0.0
  3
*D28
  1

  0
LINE
  5
2A3
  8
SAKUZU
  6
CONTINUOUS
 62
     0
 10
1441.213797747212
 20
4764.0
 30
0.0
 11
1198.213797747212
 21
4764.0
 31
0.0
  0
LINE
  5
2A4
  8
SAKUZU
  6
CONTINUOUS
 62
     0
 10
1400.213797747212
 20
5614.0
 30
0.0
 11
1198.213797747212
 21
5614.0
 31
0.0
  0
LINE
  5
2A5
  8
SAKUZU
  6
CONTINUOUS
 62
     0
 10
1198.213797747212
 20
4764.500744628906
 30
0.0
 11
1198.213797747212
 21
5613.499255371094
 31
0.0
  0
INSERT
  5
2A6
  8
SAKUZU
 62
     0
  2
_DOT
 10
1198.213797747212
 20
4764.0
 30
0.0
 41
0.5007446289062499
 42
0.5007446289062499
 43
0.5007446289062499
 50
270.0
  0
INSERT
  5
2A7
  8
SAKUZU
 62
     0
  2
_DOT
 10
1198.213797747212
 20
5614.0
 30
0.0
 41
0.5007446289062499
 42
0.5007446289062499
 43
0.5007446289062499
 50
90.0
  0
TEXT
  5
2A8
  8
SAKUZU
  6
CONTINUOUS
 62
     0
 10
1198.013797747957
 20
5143.631083202512
 30
0.0
 40
31.75824175824177
  1
850
 50
90.0
  7
YUGOTHIC_MEDIUM
  0
POINT
  5
2A9
  8
DEFPOINTS
 62
     0
 10
1444.213797747212
 20
4764.0
 30
0.0
  0
POINT
  5
2AA
  8
DEFPOINTS
 62
     0
 10
1403.213797747212
 20
5614.0
 30
0.0
  0
POINT
  5
2AB
  8
DEFPOINTS
 62
     0
 10
1198.213797747212
 20
5614.0
 30
0.0
  0
ENDBLK
  5
C2
  8
0
  0
BLOCK
  8
0
  2
*D29
 70
     1
 10
0.0
 20
0.0
 30
0.0
  3
*D29
  1

  0
LINE
  5
2AC
  8
SAKUZU
  6
CONTINUOUS
 62
     0
 10
1395.213797747212
 20
5574.0
 30
0.0
 11
1298.213797747212
 21
5574.0
 31
0.0
  0
LINE
  5
2AD
  8
SAKUZU
  6
CONTINUOUS
 62
     0
 10
1400.213797747212
 20
5614.0
 30
0.0
 11
1298.213797747212
 21
5614.0
 31
0.0
  0
LINE
  5
2AE
  8
SAKUZU
  6
CONTINUOUS
 62
     0
 10
1298.213797747212
 20
5574.0
 30
0.0
 11
1298.213797747212
 21
5614.0
 31
0.0
  0
LINE
  5
2AF
  8
SAKUZU
  6
CONTINUOUS
 62
     0
 10
1298.213797747212
 20
5573.499255371094
 30
0.0
 11
1298.213797747212
 21
5572.998510742187
 31
0.0
  0
LINE
  5
2B0
  8
SAKUZU
  6
CONTINUOUS
 62
     0
 10
1298.213797747212
 20
5614.500744628906
 30
0.0
 11
1298.213797747212
 21
5615.001489257813
 31
0.0
  0
INSERT
  5
2B1
  8
SAKUZU
 62
     0
  2
_DOT
 10
1298.213797747212
 20
5574.0
 30
0.0
 41
0.5007446289062499
 42
0.5007446289062499
 43
0.5007446289062499
 50
90.0
  0
INSERT
  5
2B2
  8
SAKUZU
 62
     0
  2
_DOT
 10
1298.213797747212
 20
5614.0
 30
0.0
 41
0.5007446289062499
 42
0.5007446289062499
 43
0.5007446289062499
 50
270.0
  0
TEXT
  5
2B3
  8
SAKUZU
  6
CONTINUOUS
 62
     0
 10
1298.013797747957
 20
5563.754055468341
 30
0.0
 40
31.75824175824177
  1
40
 50
90.0
  7
YUGOTHIC_MEDIUM
  0
POINT
  5
2B4
  8
DEFPOINTS
 62
     0
 10
1398.213797747212
 20
5574.0
 30
0.0
  0
POINT
  5
668
  8
DEFPOINTS
 62
     0
 10
1403.213797747212
 20
5614.0
 30
0.0
  0
POINT
  5
669
  8
DEFPOINTS
 62
     0
 10
1298.213797747212
 20
5614.0
 30
0.0
  0
ENDBLK
  5
C5
  8
0
  0
BLOCK
  8
0
  2
*D30
 70
     1
 10
0.0
 20
0.0
 30
0.0
  3
*D30
  1

  0
LINE
  5
2B5
  8
SAKUZU
  6
CONTINUOUS
 62
     0
 10
1405.213797747212
 20
4914.0
 30
0.0
 11
1298.213797747212
 21
4914.0
 31
0.0
  0
LINE
  5
2B6
  8
SAKUZU
  6
CONTINUOUS
 62
     0
 10
1441.213797747212
 20
4764.0
 30
0.0
 11
1298.213797747212
 21
4764.0
 31
0.0
  0
LINE
  5
2B7
  8
SAKUZU
  6
CONTINUOUS
 62
     0
 10
1298.213797747212
 20
4913.499255371094
 30
0.0
 11
1298.213797747212
 21
4764.500744628906
 31
0.0
  0
INSERT
  5
2B8
  8
SAKUZU
 62
     0
  2
_DOT
 10
1298.213797747212
 20
4914.0
 30
0.0
 41
0.5007446289062499
 42
0.5007446289062499
 43
0.5007446289062499
 50
90.0
  0
INSERT
  5
2B9
  8
SAKUZU
 62
     0
  2
_DOT
 10
1298.213797747212
 20
4764.0
 30
0.0
 41
0.5007446289062499
 42
0.5007446289062499
 43
0.5007446289062499
 50
270.0
  0
TEXT
  5
2BA
  8
SAKUZU
  6
CONTINUOUS
 62
     0
 10
1298.013797747957
 20
4791.362637362638
 30
0.0
 40
31.75824175824177
  1
150
 50
90.0
  7
YUGOTHIC_MEDIUM
  0
POINT
  5
2BB
  8
DEFPOINTS
 62
     0
 10
1408.213797747212
 20
4914.0
 30
0.0
  0
POINT
  5
2BC
  8
DEFPOINTS
 62
     0
 10
1444.213797747212
 20
4764.0
 30
0.0
  0
POINT
  5
2BD
  8
DEFPOINTS
 62
     0
 10
1298.213797747212
 20
4764.0
 30
0.0
  0
ENDBLK
  5
C8
  8
0
  0
BLOCK
  8
0
  2
*D31
 70
     1
 10
0.0
 20
0.0
 30
0.0
  3
*D31
  1

  0
LINE
  5
2BE
  8
SAKUZU
  6
CONTINUOUS
 62
     0
 10
1940.213797747212
 20
5764.0
 30
0.0
 11
1198.213797747213
 21
5764.0
 31
0.0
  0
LINE
  5
2BF
  8
SAKUZU
  6
CONTINUOUS
 62
     0
 10
1400.213797747212
 20
5614.0
 30
0.0
 11
1198.213797747213
 21
5614.0
 31
0.0
  0
LINE
  5
2C0
  8
SAKUZU
  6
CONTINUOUS
 62
     0
 10
1198.213797747213
 20
5763.499255371094
 30
0.0
 11
1198.213797747213
 21
5614.500744628906
 31
0.0
  0
INSERT
  5
2C1
  8
SAKUZU
 62
     0
  2
_DOT
 10
1198.213797747213
 20
5764.0
 30
0.0
 41
0.5007446289062499
 42
0.5007446289062499
 43
0.5007446289062499
 50
90.0
  0
INSERT
  5
2C2
  8
SAKUZU
 62
     0
  2
_DOT
 10
1198.213797747213
 20
5614.0
 30
0.0
 41
0.5007446289062499
 42
0.5007446289062499
 43
0.5007446289062499
 50
270.0
  0
TEXT
  5
2C3
  8
SAKUZU
  6
CONTINUOUS
 62
     0
 10
1198.013797747957
 20
5641.362637362638
 30
0.0
 40
31.75824175824177
  1
150
 50
90.0
  7
YUGOTHIC_MEDIUM
  0
POINT
  5
2C4
  8
DEFPOINTS
 62
     0
 10
1943.213797747212
 20
5764.0
 30
0.0
  0
POINT
  5
2C5
  8
DEFPOINTS
 62
     0
 10
1403.213797747212
 20
5614.0
 30
0.0
  0
POINT
  5
2C6
  8
DEFPOINTS
 62
     0
 10
1198.213797747213
 20
5614.0
 30
0.0
  0
ENDBLK
  5
CB
  8
0
  0
BLOCK
  8
0
  2
*D32
 70
     1
 10
0.0
 20
0.0
 30
0.0
  3
*D32
  1

  0
LINE
  5
2C7
  8
SAKUZU
  6
CONTINUOUS
 62
     0
 10
1818.213797747212
 20
5545.5
 30
0.0
 11
1818.213797747212
 21
5863.985637488755
 31
0.0
  0
LINE
  5
2C8
  8
SAKUZU
  6
CONTINUOUS
 62
     0
 10
1398.213797747212
 20
5612.0
 30
0.0
 11
1398.213797747212
 21
5863.985637488755
 31
0.0
  0
LINE
  5
2C9
  8
SAKUZU
  6
CONTINUOUS
 62
     0
 10
1817.713053118306
 20
5863.985637488755
 30
0.0
 11
1398.714542376118
 21
5863.985637488755
 31
0.0
  0
INSERT
  5
2CA
  8
SAKUZU
 62
     0
  2
_DOT
 10
1818.213797747212
 20
5863.985637488755
 30
0.0
 41
0.5007446289062499
 42
0.5007446289062499
 43
0.5007446289062499
  0
INSERT
  5
2CB
  8
SAKUZU
 62
     0
  2
_DOT
 10
1398.213797747212
 20
5863.985637488755
 30
0.0
 41
0.5007446289062499
 42
0.5007446289062499
 43
0.5007446289062499
 50
180.0
  0
TEXT
  5
2CC
  8
SAKUZU
  6
CONTINUOUS
 62
     0
 10
1562.844880949724
 20
5864.18563748801
 30
0.0
 40
31.75824175824177
  1
420
  7
YUGOTHIC_MEDIUM
  0
POINT
  5
2CD
  8
DEFPOINTS
 62
     0
 10
1818.213797747212
 20
5542.5
 30
0.0
  0
POINT
  5
2CE
  8
DEFPOINTS
 62
     0
 10
1398.213797747212
 20
5609.0
 30
0.0
  0
POINT
  5
2CF
  8
DEFPOINTS
 62
     0
 10
1398.213797747212
 20
5863.985637488755
 30
0.0
  0
ENDBLK
  5
CE
  8
0
  0
BLOCK
  8
0
  2
*D33
 70
     1
 10
0.0
 20
0.0
 30
0.0
  3
*D33
  1

  0
LINE
  5
2D0
  8
SAKUZU
  6
CONTINUOUS
 62
     0
 10
161.3900977332343
 20
5617.0
 30
0.0
 11
161.3900977332343
 21
5864.0
 31
0.0
  0
LINE
  5
2D1
  8
SAKUZU
  6
CONTINUOUS
 62
     0
 10
-188.6099633019226
 20
5617.0
 30
0.0
 11
-188.6099633019226
 21
5864.0
 31
0.0
  0
LINE
  5
2D2
  8
SAKUZU
  6
CONTINUOUS
 62
     0
 10
160.889353104328
 20
5864.0
 30
0.0
 11
-188.1092186730163
 21
5864.0
 31
0.0
  0
INSERT
  5
2D3
  8
SAKUZU
 62
     0
  2
_DOT
 10
161.3900977332343
 20
5864.0
 30
0.0
 41
0.5007446289062499
 42
0.5007446289062499
 43
0.5007446289062499
  0
INSERT
  5
2D4
  8
SAKUZU
 62
     0
  2
_DOT
 10
-188.6099633019226
 20
5864.0
 30
0.0
 41
0.5007446289062499
 42
0.5007446289062499
 43
0.5007446289062499
 50
180.0
  0
TEXT
  5
2D5
  8
SAKUZU
  6
CONTINUOUS
 62
     0
 10
-122.4953330983159
 20
5864.199999999255
 30
0.0
 40
31.75824175824177
  1
350.0001
  7
YUGOTHIC_MEDIUM
  0
POINT
  5
2D6
  8
DEFPOINTS
 62
     0
 10
161.3900977332343
 20
5614.0
 30
0.0
  0
POINT
  5
2D7
  8
DEFPOINTS
 62
     0
 10
-188.6099633019226
 20
5614.0
 30
0.0
  0
POINT
  5
2D8
  8
DEFPOINTS
 62
     0
 10
-188.6099633019226
 20
5864.0
 30
0.0
  0
ENDBLK
  5
D1
  8
0
  0
BLOCK
  8
0
  2
*D34
 70
     1
 10
0.0
 20
0.0
 30
0.0
  3
*D34
  1

  0
LINE
  5
2D9
  8
SAKUZU
  6
CONTINUOUS
 62
     0
 10
1405.213797747212
 20
4914.0
 30
0.0
 11
1298.213797747212
 21
4914.0
 31
0.0
  0
LINE
  5
2DA
  8
SAKUZU
  6
CONTINUOUS
 62
     0
 10
1395.213797747212
 20
5574.0
 30
0.0
 11
1298.213797747212
 21
5574.0
 31
0.0
  0
LINE
  5
2DB
  8
SAKUZU
  6
CONTINUOUS
 62
     0
 10
1298.213797747212
 20
4914.500744628906
 30
0.0
 11
1298.213797747212
 21
5573.499255371094
 31
0.0
  0
INSERT
  5
2DC
  8
SAKUZU
 62
     0
  2
_DOT
 10
1298.213797747212
 20
4914.0
 30
0.0
 41
0.5007446289062499
 42
0.5007446289062499
 43
0.5007446289062499
 50
270.0
  0
INSERT
  5
2DD
  8
SAKUZU
 62
     0
  2
_DOT
 10
1298.213797747212
 20
5574.0
 30
0.0
 41
0.5007446289062499
 42
0.5007446289062499
 43
0.5007446289062499
 50
90.0
  0
TEXT
  5
2DE
  8
SAKUZU
  6
CONTINUOUS
 62
     0
 10
1298.013797747957
 20
5197.87493458922
 30
0.0
 40
31.75824175824177
  1
660
 50
90.0
  7
YUGOTHIC_MEDIUM
  0
POINT
  5
2DF
  8
DEFPOINTS
 62
     0
 10
1408.213797747212
 20
4914.0
 30
0.0
  0
POINT
  5
2E0
  8
DEFPOINTS
 62
     0
 10
1398.213797747212
 20
5574.0
 30
0.0
  0
POINT
  5
2E1
  8
DEFPOINTS
 62
     0
 10
1298.213797747212
 20
5574.0
 30
0.0
  0
ENDBLK
  5
D4
  8
0
  0
BLOCK
  8
0
  2
*D35
 70
     1
 10
0.0
 20
0.0
 30
0.0
  3
*D35
  1

  0
LINE
  5
2E2
  8
SAKUZU
  6
CONTINUOUS
 62
     0
 10
1405.213797747212
 20
1895.579694741714
 30
0.0
 11
1298.213797747212
 21
1895.579694741714
 31
0.0
  0
LINE
  5
2E3
  8
SAKUZU
  6
CONTINUOUS
 62
     0
 10
1405.213797747212
 20
2555.579694741714
 30
0.0
 11
1298.213797747212
 21
2555.579694741714
 31
0.0
  0
LINE
  5
2E4
  8
SAKUZU
  6
CONTINUOUS
 62
     0
 10
1298.213797747212
 20
1896.08043937062
 30
0.0
 11
1298.213797747212
 21
2555.078950112807
 31
0.0
  0
INSERT
  5
2E5
  8
SAKUZU
 62
     0
  2
_DOT
 10
1298.213797747212
 20
1895.579694741714
 30
0.0
 41
0.5007446289062499
 42
0.5007446289062499
 43
0.5007446289062499
 50
270.0
  0
INSERT
  5
2E6
  8
SAKUZU
 62
     0
  2
_DOT
 10
1298.213797747212
 20
2555.579694741714
 30
0.0
 41
0.5007446289062499
 42
0.5007446289062499
 43
0.5007446289062499
 50
90.0
  0
TEXT
  5
2E7
  8
SAKUZU
  6
CONTINUOUS
 62
     0
 10
1298.013797747957
 20
2179.454629330934
 30
0.0
 40
31.75824175824177
  1
660
 50
90.0
  7
YUGOTHIC_MEDIUM
  0
POINT
  5
2E8
  8
DEFPOINTS
 62
     0
 10
1408.213797747212
 20
1895.579694741714
 30
0.0
  0
POINT
  5
2E9
  8
DEFPOINTS
 62
     0
 10
1408.213797747212
 20
2555.579694741714
 30
0.0
  0
POINT
  5
2EA
  8
DEFPOINTS
 62
     0
 10
1298.213797747212
 20
2555.579694741714
 30
0.0
  0
ENDBLK
  5
D7
  8
0
  0
BLOCK
  8
0
  2
_DOT
 70
     0
 10
0.0
 20
0.0
 30
0.0
  3
_DOT
  1

  0
POLYLINE
  5
1C6
  8
0
  6
BYBLOCK
 62
     0
 66
     1
 10
0.0
 20
0.0
 30
0.0
 70
     1
 40
0.5
 41
0.5
  0
VERTEX
  5
6CC
  8
0
  6
BYBLOCK
 62
     0
 10
-0.25
 20
0.0
 30
0.0
 42
1.0
  0
VERTEX
  5
6CD
  8
0
  6
BYBLOCK
 62
     0
 10
0.25
 20
0.0
 30
0.0
 42
1.0
  0
SEQEND
  5
6CE
  8
0
  6
BYBLOCK
 62
     0
  0
LINE
  5
1C7
  8
0
  6
BYBLOCK
 62
     0
 10
-0.5
 20
0.0
 30
0.0
 11
-1.0
 21
0.0
 31
0.0
  0
ENDBLK
  5
1C5
  8
0
  0
ENDSEC
  0
SECTION
  2
ENTITIES
  0
INSERT
  5
2EB
  8
__-3
 62
    17
  2
____-2-1
 10
711.2328257883746
 20
-148.5000416295412
 30
0.0
  0
POLYLINE
  5
2EC
  8
020
  6
CONTINUOUS
 62
     1
 66
     1
 10
0.0
 20
0.0
 30
0.0
 70
   129
  0
VERTEX
  5
2ED
  8
020
  6
CONTINUOUS
 62
     1
 10
749.9048257883746
 20
348.4652149237513
 30
0.0
  0
VERTEX
  5
2EE
  8
020
  6
CONTINUOUS
 62
     1
 10
760.4027853330042
 20
348.4652149237513
 30
0.0
  0
VERTEX
  5
2EF
  8
020
  6
CONTINUOUS
 62
     1
 10
760.4027853330042
 20
343.2652149237513
 30
0.0
  0
VERTEX
  5
2F0
  8
020
  6
CONTINUOUS
 62
     1
 10
749.9048257883746
 20
343.2652149237513
 30
0.0
  0
SEQEND
  5
2F1
  8
020
  6
CONTINUOUS
 62
     1
  0
TEXT
  5
2F2
  8
020
 62
     1
 10
753.1544014544509
 20
345.0149927015291
 30
0.0
 40
2.124016203703704
  1
NO
  7
YUGOTHIC_MEDIUM
 11
753.1544014544509
 21
347.1390089052328
 31
0.0
 73
     3
  0
TEXT
  5
2F3
  8
020
 62
     1
 10
768.7815833384673
 20
344.9883260348624
 30
0.0
 40
2.124016203703704
  1
名称
  7
YUGOTHIC_MEDIUM
 11
768.7815833384673
 21
347.1123422385662
 31
0.0
 73
     3
  0
POLYLINE
  5
2F4
  8
020
  6
CONTINUOUS
 62
     1
 66
     1
 10
0.0
 20
0.0
 30
0.0
 70
   129
  0
VERTEX
  5
2F5
  8
020
  6
CONTINUOUS
 62
     1
 10
760.4027853330043
 20
348.4652149237513
 30
0.0
  0
VERTEX
  5
2F6
  8
020
  6
CONTINUOUS
 62
     1
 10
782.8048257883746
 20
348.4652149237513
 30
0.0
  0
VERTEX
  5
2F7
  8
020
  6
CONTINUOUS
 62
     1
 10
782.8048257883746
 20
343.2652149237513
 30
0.0
  0
VERTEX
  5
2F8
  8
020
  6
CONTINUOUS
 62
     1
 10
760.4027853330043
 20
343.2652149237513
 30
0.0
  0
SEQEND
  5
2F9
  8
020
  6
CONTINUOUS
 62
     1
  0
POLYLINE
  5
2FA
  8
020
  6
CONTINUOUS
 62
     1
 66
     1
 10
0.0
 20
0.0
 30
0.0
 70
   129
  0
VERTEX
  5
2FB
  8
020
  6
CONTINUOUS
 62
     1
 10
782.8048257883746
 20
348.4652149237513
 30
0.0
  0
VERTEX
  5
2FC
  8
020
  6
CONTINUOUS
 62
     1
 10
813.4548257883746
 20
348.4652149237513
 30
0.0
  0
VERTEX
  5
2FD
  8
020
  6
CONTINUOUS
 62
     1
 10
813.4548257883746
 20
343.2652149237513
 30
0.0
  0
VERTEX
  5
2FE
  8
020
  6
CONTINUOUS
 62
     1
 10
782.8048257883746
 20
343.2652149237513
 30
0.0
  0
SEQEND
  5
2FF
  8
020
  6
CONTINUOUS
 62
     1
  0
TEXT
  5
300
  8
020
 62
     1
 10
795.1437146772635
 20
344.9983260348624
 30
0.0
 40
2.124016203703704
  1
材質
  7
YUGOTHIC_MEDIUM
 11
795.1437146772635
 21
347.1223422385661
 31
0.0
 73
     3
  0
POLYLINE
  5
301
  8
020
  6
CONTINUOUS
 62
     1
 66
     1
 10
0.0
 20
0.0
 30
0.0
 70
   129
  0
VERTEX
  5
302
  8
020
  6
CONTINUOUS
 62
     1
 10
749.9048257883746
 20
343.2652149237513
 30
0.0
  0
VERTEX
  5
303
  8
020
  6
CONTINUOUS
 62
     1
 10
760.4027853330042
 20
343.2652149237513
 30
0.0
  0
VERTEX
  5
304
  8
020
  6
CONTINUOUS
 62
     1
 10
760.4027853330042
 20
338.0652149237512
 30
0.0
  0
VERTEX
  5
305
  8
020
  6
CONTINUOUS
 62
     1
 10
749.9048257883746
 20
338.0652149237512
 30
0.0
  0
SEQEND
  5
306
  8
020
  6
CONTINUOUS
 62
     1
  0
POLYLINE
  5
307
  8
020
  6
CONTINUOUS
 62
     1
 66
     1
 10
0.0
 20
0.0
 30
0.0
 70
   129
  0
VERTEX
  5
308
  8
020
  6
CONTINUOUS
 62
     1
 10
760.4027853330043
 20
343.2652149237513
 30
0.0
  0
VERTEX
  5
309
  8
020
  6
CONTINUOUS
 62
     1
 10
782.8048257883746
 20
343.2652149237513
 30
0.0
  0
VERTEX
  5
30A
  8
020
  6
CONTINUOUS
 62
     1
 10
782.8048257883746
 20
338.0652149237512
 30
0.0
  0
VERTEX
  5
30B
  8
020
  6
CONTINUOUS
 62
     1
 10
760.4027853330043
 20
338.0652149237512
 30
0.0
  0
SEQEND
  5
30C
  8
020
  6
CONTINUOUS
 62
     1
  0
POLYLINE
  5
30D
  8
020
  6
CONTINUOUS
 62
     1
 66
     1
 10
0.0
 20
0.0
 30
0.0
 70
   129
  0
VERTEX
  5
30E
  8
020
  6
CONTINUOUS
 62
     1
 10
782.8048257883746
 20
343.2652149237513
 30
0.0
  0
VERTEX
  5
30F
  8
020
  6
CONTINUOUS
 62
     1
 10
813.4548257883746
 20
343.2652149237513
 30
0.0
  0
VERTEX
  5
310
  8
020
  6
CONTINUOUS
 62
     1
 10
813.4548257883746
 20
338.0652149237512
 30
0.0
  0
VERTEX
  5
311
  8
020
  6
CONTINUOUS
 62
     1
 10
782.8048257883746
 20
338.0652149237512
 30
0.0
  0
SEQEND
  5
312
  8
020
  6
CONTINUOUS
 62
     1
  0
TEXT
  5
313
  8
SAKUZU
 62
     1
 10
754.0607772311525
 20
319.0504206340927
 30
0.0
 40
2.124016203703704
  1
4
  7
YUGOTHIC_MEDIUM
 72
     1
 11
755.1227853330043
 21
319.0504206340927
 31
0.0
  0
TEXT
  5
314
  8
SAKUZU
 62
     1
 10
767.9116146980837
 20
308.2878911728992
 30
0.0
 40
2.124016203703704
  1
引戸取手
  7
YUGOTHIC_MEDIUM
 72
     1
 11
771.5527853330043
 21
308.2878911728992
 31
0.0
  0
TEXT
  5
315
  8
SAKUZU
 62
     1
 10
767.1533624947238
 20
334.3927704793068
 30
0.0
 40
2.124016203703704
  1
トップ補強
  7
YUGOTHIC_MEDIUM
 72
     1
 11
771.7048257883746
 21
334.3927704793068
 31
0.0
  0
TEXT
  5
316
  8
SAKUZU
 62
     1
 10
754.2435129019592
 20
334.3927704793068
 30
0.0
 40
2.124016203703704
  1
２
  7
YUGOTHIC_MEDIUM
 72
     1
 11
755.1538055606894
 21
334.3927704793068
 31
0.0
  0
TEXT
  5
317
  8
SAKUZU
 62
     1
 10
754.2435129019592
 20
339.5927704793069
 30
0.0
 40
2.124016203703704
  1
１
  7
YUGOTHIC_MEDIUM
 72
     1
 11
755.1538055606894
 21
339.5927704793069
 31
0.0
  0
TEXT
  5
318
  8
SAKUZU
 62
     1
 10
768.9739478121841
 20
339.5927704793069
 30
0.0
 40
2.124016203703704
  1
トップ
  7
YUGOTHIC_MEDIUM
 72
     1
 11
771.7048257883746
 21
339.5927704793069
 31
0.0
  0
TEXT
  5
319
  8
SAKUZU
 62
     1
 10
792.6680698359936
 20
326.7391477702677
 30
0.0
 40
2.124016203703704
  1
ＳＵＳ４３０
  7
YUGOTHIC_MEDIUM
 72
     1
 11
798.1298257883745
 21
326.7391477702677
 31
0.0
  0
TEXT
  5
31A
  8
SAKUZU
 62
     1
 10
754.1423692732114
 20
313.5304937903081
 30
0.0
 40
2.124016203703704
  1
5
  7
YUGOTHIC_MEDIUM
 72
     1
 11
755.1538055606894
 21
313.5304937903081
 31
0.0
  0
TEXT
  5
31B
  8
SAKUZU
 62
     1
 10
792.6680698359936
 20
308.4354467284552
 30
0.0
 40
2.124016203703704
  1
ＳＵＳ３０４
  7
YUGOTHIC_MEDIUM
 72
     1
 11
798.1298257883745
 21
308.4354467284552
 31
0.0
  0
TEXT
  5
31C
  8
SAKUZU
 62
     1
 10
754.0917974588376
 20
308.3927704793066
 30
0.0
 40
2.124016203703704
  1
6
  7
YUGOTHIC_MEDIUM
 72
     1
 11
755.1538055606894
 21
308.3927704793066
 31
0.0
  0
POLYLINE
  5
31D
  8
020
  6
CONTINUOUS
 62
     1
 66
     1
 10
0.0
 20
0.0
 30
0.0
 70
   129
  0
VERTEX
  5
31E
  8
020
  6
CONTINUOUS
 62
     1
 10
813.4548257883746
 20
348.4652149237513
 30
0.0
  0
VERTEX
  5
31F
  8
020
  6
CONTINUOUS
 62
     1
 10
846.5048257883745
 20
348.4652149237513
 30
0.0
  0
VERTEX
  5
320
  8
020
  6
CONTINUOUS
 62
     1
 10
846.5048257883745
 20
343.2652149237513
 30
0.0
  0
VERTEX
  5
321
  8
020
  6
CONTINUOUS
 62
     1
 10
813.4548257883746
 20
343.2652149237513
 30
0.0
  0
SEQEND
  5
322
  8
020
  6
CONTINUOUS
 62
     1
  0
TEXT
  5
323
  8
020
 62
     1
 10
827.3687146772635
 20
344.9983260348624
 30
0.0
 40
2.124016203703704
  1
仕様
  7
YUGOTHIC_MEDIUM
 11
827.3687146772635
 21
347.1223422385661
 31
0.0
 73
     3
  0
POLYLINE
  5
324
  8
020
  6
CONTINUOUS
 62
     1
 66
     1
 10
0.0
 20
0.0
 30
0.0
 70
   129
  0
VERTEX
  5
325
  8
020
  6
CONTINUOUS
 62
     1
 10
813.4548257883746
 20
343.2652149237513
 30
0.0
  0
VERTEX
  5
326
  8
020
  6
CONTINUOUS
 62
     1
 10
846.5048257883745
 20
343.2652149237513
 30
0.0
  0
VERTEX
  5
327
  8
020
  6
CONTINUOUS
 62
     1
 10
846.5048257883745
 20
338.0652149237512
 30
0.0
  0
VERTEX
  5
328
  8
020
  6
CONTINUOUS
 62
     1
 10
813.4548257883746
 20
338.0652149237512
 30
0.0
  0
SEQEND
  5
329
  8
020
  6
CONTINUOUS
 62
     1
  0
POLYLINE
  5
32A
  8
020
  6
CONTINUOUS
 62
     1
 66
     1
 10
0.0
 20
0.0
 30
0.0
 70
   129
  0
VERTEX
  5
32B
  8
020
  6
CONTINUOUS
 62
     1
 10
749.9048257883746
 20
338.0652149237512
 30
0.0
  0
VERTEX
  5
32C
  8
020
  6
CONTINUOUS
 62
     1
 10
760.4027853330042
 20
338.0652149237512
 30
0.0
  0
VERTEX
  5
32D
  8
020
  6
CONTINUOUS
 62
     1
 10
760.4027853330042
 20
332.8652149237512
 30
0.0
  0
VERTEX
  5
32E
  8
020
  6
CONTINUOUS
 62
     1
 10
749.9048257883746
 20
332.8652149237512
 30
0.0
  0
SEQEND
  5
32F
  8
020
  6
CONTINUOUS
 62
     1
  0
POLYLINE
  5
330
  8
020
  6
CONTINUOUS
 62
     1
 66
     1
 10
0.0
 20
0.0
 30
0.0
 70
   129
  0
VERTEX
  5
331
  8
020
  6
CONTINUOUS
 62
     1
 10
760.4027853330043
 20
338.0652149237512
 30
0.0
  0
VERTEX
  5
332
  8
020
  6
CONTINUOUS
 62
     1
 10
782.8048257883746
 20
338.0652149237512
 30
0.0
  0
VERTEX
  5
333
  8
020
  6
CONTINUOUS
 62
     1
 10
782.8048257883746
 20
332.8652149237512
 30
0.0
  0
VERTEX
  5
334
  8
020
  6
CONTINUOUS
 62
     1
 10
760.4027853330043
 20
332.8652149237512
 30
0.0
  0
SEQEND
  5
335
  8
020
  6
CONTINUOUS
 62
     1
  0
POLYLINE
  5
336
  8
020
  6
CONTINUOUS
 62
     1
 66
     1
 10
0.0
 20
0.0
 30
0.0
 70
   129
  0
VERTEX
  5
337
  8
020
  6
CONTINUOUS
 62
     1
 10
782.8048257883746
 20
338.0652149237512
 30
0.0
  0
VERTEX
  5
338
  8
020
  6
CONTINUOUS
 62
     1
 10
813.4548257883746
 20
338.0652149237512
 30
0.0
  0
VERTEX
  5
339
  8
020
  6
CONTINUOUS
 62
     1
 10
813.4548257883746
 20
332.8652149237512
 30
0.0
  0
VERTEX
  5
33A
  8
020
  6
CONTINUOUS
 62
     1
 10
782.8048257883746
 20
332.8652149237512
 30
0.0
  0
SEQEND
  5
33B
  8
020
  6
CONTINUOUS
 62
     1
  0
POLYLINE
  5
33C
  8
020
  6
CONTINUOUS
 62
     1
 66
     1
 10
0.0
 20
0.0
 30
0.0
 70
   129
  0
VERTEX
  5
33D
  8
020
  6
CONTINUOUS
 62
     1
 10
813.4548257883746
 20
338.0652149237512
 30
0.0
  0
VERTEX
  5
33E
  8
020
  6
CONTINUOUS
 62
     1
 10
846.5048257883745
 20
338.0652149237512
 30
0.0
  0
VERTEX
  5
33F
  8
020
  6
CONTINUOUS
 62
     1
 10
846.5048257883745
 20
332.8652149237512
 30
0.0
  0
VERTEX
  5
340
  8
020
  6
CONTINUOUS
 62
     1
 10
813.4548257883746
 20
332.8652149237512
 30
0.0
  0
SEQEND
  5
341
  8
020
  6
CONTINUOUS
 62
     1
  0
POLYLINE
  5
342
  8
020
  6
CONTINUOUS
 62
     1
 66
     1
 10
0.0
 20
0.0
 30
0.0
 70
   129
  0
VERTEX
  5
343
  8
020
  6
CONTINUOUS
 62
     1
 10
749.9048257883746
 20
322.4652149237511
 30
0.0
  0
VERTEX
  5
344
  8
020
  6
CONTINUOUS
 62
     1
 10
760.4027853330042
 20
322.4652149237511
 30
0.0
  0
VERTEX
  5
345
  8
020
  6
CONTINUOUS
 62
     1
 10
760.4027853330042
 20
317.265214923751
 30
0.0
  0
VERTEX
  5
346
  8
020
  6
CONTINUOUS
 62
     1
 10
749.9048257883746
 20
317.265214923751
 30
0.0
  0
SEQEND
  5
347
  8
020
  6
CONTINUOUS
 62
     1
  0
POLYLINE
  5
348
  8
020
  6
CONTINUOUS
 62
     1
 66
     1
 10
0.0
 20
0.0
 30
0.0
 70
   129
  0
VERTEX
  5
349
  8
020
  6
CONTINUOUS
 62
     1
 10
760.4027853330043
 20
322.4652149237511
 30
0.0
  0
VERTEX
  5
34A
  8
020
  6
CONTINUOUS
 62
     1
 10
782.8048257883746
 20
322.4652149237511
 30
0.0
  0
VERTEX
  5
34B
  8
020
  6
CONTINUOUS
 62
     1
 10
782.8048257883746
 20
317.265214923751
 30
0.0
  0
VERTEX
  5
34C
  8
020
  6
CONTINUOUS
 62
     1
 10
760.4027853330043
 20
317.265214923751
 30
0.0
  0
SEQEND
  5
34D
  8
020
  6
CONTINUOUS
 62
     1
  0
POLYLINE
  5
34E
  8
020
  6
CONTINUOUS
 62
     1
 66
     1
 10
0.0
 20
0.0
 30
0.0
 70
   129
  0
VERTEX
  5
34F
  8
020
  6
CONTINUOUS
 62
     1
 10
782.8048257883746
 20
322.4652149237511
 30
0.0
  0
VERTEX
  5
350
  8
020
  6
CONTINUOUS
 62
     1
 10
813.4548257883746
 20
322.4652149237511
 30
0.0
  0
VERTEX
  5
351
  8
020
  6
CONTINUOUS
 62
     1
 10
813.4548257883746
 20
317.265214923751
 30
0.0
  0
VERTEX
  5
352
  8
020
  6
CONTINUOUS
 62
     1
 10
782.8048257883746
 20
317.265214923751
 30
0.0
  0
SEQEND
  5
353
  8
020
  6
CONTINUOUS
 62
     1
  0
POLYLINE
  5
354
  8
020
  6
CONTINUOUS
 62
     1
 66
     1
 10
0.0
 20
0.0
 30
0.0
 70
   129
  0
VERTEX
  5
355
  8
020
  6
CONTINUOUS
 62
     1
 10
813.4548257883746
 20
322.4652149237511
 30
0.0
  0
VERTEX
  5
356
  8
020
  6
CONTINUOUS
 62
     1
 10
846.5048257883745
 20
322.4652149237511
 30
0.0
  0
VERTEX
  5
357
  8
020
  6
CONTINUOUS
 62
     1
 10
846.5048257883745
 20
317.265214923751
 30
0.0
  0
VERTEX
  5
358
  8
020
  6
CONTINUOUS
 62
     1
 10
813.4548257883746
 20
317.265214923751
 30
0.0
  0
SEQEND
  5
359
  8
020
  6
CONTINUOUS
 62
     1
  0
POLYLINE
  5
35A
  8
020
  6
CONTINUOUS
 62
     1
 66
     1
 10
0.0
 20
0.0
 30
0.0
 70
   129
  0
VERTEX
  5
35B
  8
020
  6
CONTINUOUS
 62
     1
 10
749.9048257883746
 20
317.2652149237513
 30
0.0
  0
VERTEX
  5
35C
  8
020
  6
CONTINUOUS
 62
     1
 10
760.4027853330042
 20
317.2652149237513
 30
0.0
  0
VERTEX
  5
35D
  8
020
  6
CONTINUOUS
 62
     1
 10
760.4027853330042
 20
312.0652149237512
 30
0.0
  0
VERTEX
  5
35E
  8
020
  6
CONTINUOUS
 62
     1
 10
749.9048257883746
 20
312.0652149237512
 30
0.0
  0
SEQEND
  5
35F
  8
020
  6
CONTINUOUS
 62
     1
  0
POLYLINE
  5
360
  8
020
  6
CONTINUOUS
 62
     1
 66
     1
 10
0.0
 20
0.0
 30
0.0
 70
   129
  0
VERTEX
  5
361
  8
020
  6
CONTINUOUS
 62
     1
 10
760.4027853330043
 20
317.2652149237513
 30
0.0
  0
VERTEX
  5
362
  8
020
  6
CONTINUOUS
 62
     1
 10
782.8048257883746
 20
317.2652149237513
 30
0.0
  0
VERTEX
  5
363
  8
020
  6
CONTINUOUS
 62
     1
 10
782.8048257883746
 20
312.0652149237512
 30
0.0
  0
VERTEX
  5
364
  8
020
  6
CONTINUOUS
 62
     1
 10
760.4027853330043
 20
312.0652149237512
 30
0.0
  0
SEQEND
  5
365
  8
020
  6
CONTINUOUS
 62
     1
  0
POLYLINE
  5
366
  8
020
  6
CONTINUOUS
 62
     1
 66
     1
 10
0.0
 20
0.0
 30
0.0
 70
   129
  0
VERTEX
  5
367
  8
020
  6
CONTINUOUS
 62
     1
 10
782.8048257883746
 20
317.265214923751
 30
0.0
  0
VERTEX
  5
368
  8
020
  6
CONTINUOUS
 62
     1
 10
813.4548257883746
 20
317.265214923751
 30
0.0
  0
VERTEX
  5
369
  8
020
  6
CONTINUOUS
 62
     1
 10
813.4548257883746
 20
312.065214923751
 30
0.0
  0
VERTEX
  5
36A
  8
020
  6
CONTINUOUS
 62
     1
 10
782.8048257883746
 20
312.065214923751
 30
0.0
  0
SEQEND
  5
36B
  8
020
  6
CONTINUOUS
 62
     1
  0
POLYLINE
  5
36C
  8
020
  6
CONTINUOUS
 62
     1
 66
     1
 10
0.0
 20
0.0
 30
0.0
 70
   129
  0
VERTEX
  5
36D
  8
020
  6
CONTINUOUS
 62
     1
 10
813.4548257883746
 20
317.265214923751
 30
0.0
  0
VERTEX
  5
36E
  8
020
  6
CONTINUOUS
 62
     1
 10
846.5048257883745
 20
317.265214923751
 30
0.0
  0
VERTEX
  5
36F
  8
020
  6
CONTINUOUS
 62
     1
 10
846.5048257883745
 20
312.065214923751
 30
0.0
  0
VERTEX
  5
370
  8
020
  6
CONTINUOUS
 62
     1
 10
813.4548257883746
 20
312.065214923751
 30
0.0
  0
SEQEND
  5
371
  8
020
  6
CONTINUOUS
 62
     1
  0
POLYLINE
  5
372
  8
020
  6
CONTINUOUS
 62
     1
 66
     1
 10
0.0
 20
0.0
 30
0.0
 70
   129
  0
VERTEX
  5
373
  8
020
  6
CONTINUOUS
 62
     1
 10
749.9048257883746
 20
312.0652149237512
 30
0.0
  0
VERTEX
  5
374
  8
020
  6
CONTINUOUS
 62
     1
 10
760.4027853330042
 20
312.0652149237512
 30
0.0
  0
VERTEX
  5
375
  8
020
  6
CONTINUOUS
 62
     1
 10
760.4027853330042
 20
306.8652149237512
 30
0.0
  0
VERTEX
  5
376
  8
020
  6
CONTINUOUS
 62
     1
 10
749.9048257883746
 20
306.8652149237512
 30
0.0
  0
SEQEND
  5
377
  8
020
  6
CONTINUOUS
 62
     1
  0
POLYLINE
  5
378
  8
020
  6
CONTINUOUS
 62
     1
 66
     1
 10
0.0
 20
0.0
 30
0.0
 70
   129
  0
VERTEX
  5
379
  8
020
  6
CONTINUOUS
 62
     1
 10
760.4027853330043
 20
312.0652149237512
 30
0.0
  0
VERTEX
  5
37A
  8
020
  6
CONTINUOUS
 62
     1
 10
782.8048257883746
 20
312.0652149237512
 30
0.0
  0
VERTEX
  5
37B
  8
020
  6
CONTINUOUS
 62
     1
 10
782.8048257883746
 20
306.8652149237512
 30
0.0
  0
VERTEX
  5
37C
  8
020
  6
CONTINUOUS
 62
     1
 10
760.4027853330043
 20
306.8652149237512
 30
0.0
  0
SEQEND
  5
37D
  8
020
  6
CONTINUOUS
 62
     1
  0
POLYLINE
  5
37E
  8
020
  6
CONTINUOUS
 62
     1
 66
     1
 10
0.0
 20
0.0
 30
0.0
 70
   129
  0
VERTEX
  5
37F
  8
020
  6
CONTINUOUS
 62
     1
 10
782.8048257883746
 20
312.0652149237512
 30
0.0
  0
VERTEX
  5
380
  8
020
  6
CONTINUOUS
 62
     1
 10
813.4548257883746
 20
312.0652149237512
 30
0.0
  0
VERTEX
  5
381
  8
020
  6
CONTINUOUS
 62
     1
 10
813.4548257883746
 20
306.8652149237512
 30
0.0
  0
VERTEX
  5
382
  8
020
  6
CONTINUOUS
 62
     1
 10
782.8048257883746
 20
306.8652149237512
 30
0.0
  0
SEQEND
  5
383
  8
020
  6
CONTINUOUS
 62
     1
  0
POLYLINE
  5
384
  8
020
  6
CONTINUOUS
 62
     1
 66
     1
 10
0.0
 20
0.0
 30
0.0
 70
   129
  0
VERTEX
  5
385
  8
020
  6
CONTINUOUS
 62
     1
 10
813.4548257883746
 20
312.0652149237512
 30
0.0
  0
VERTEX
  5
386
  8
020
  6
CONTINUOUS
 62
     1
 10
846.5048257883745
 20
312.0652149237512
 30
0.0
  0
VERTEX
  5
387
  8
020
  6
CONTINUOUS
 62
     1
 10
846.5048257883745
 20
306.8652149237512
 30
0.0
  0
VERTEX
  5
388
  8
020
  6
CONTINUOUS
 62
     1
 10
813.4548257883746
 20
306.8652149237512
 30
0.0
  0
SEQEND
  5
389
  8
020
  6
CONTINUOUS
 62
     1
  0
TEXT
  5
38A
  8
SAKUZU
 62
     1
 10
795.398947812184
 20
334.4540539657885
 30
0.0
 40
2.124016203703704
  1
ホンデ
  7
YUGOTHIC_MEDIUM
 72
     1
 11
798.1298257883745
 21
334.4540539657885
 31
0.0
  0
TEXT
  5
38B
  8
SAKUZU
 62
     1
 10
820.6876590678783
 20
339.5927704793069
 30
0.0
 40
2.124016203703704
  1
t 1.0 NO.4仕上
  7
YUGOTHIC_MEDIUM
  0
TEXT
  5
38C
  8
SAKUZU
 62
     1
 10
820.6876590678783
 20
334.3927704793068
 30
0.0
 40
2.124016203703704
  1
t 1.0
  7
YUGOTHIC_MEDIUM
  0
TEXT
  5
38D
  8
SAKUZU
 62
     1
 10
762.7136551534539
 20
287.5927704793064
 30
0.0
 40
2.124016203703704
  1
製品重量
  7
YUGOTHIC_MEDIUM
 72
     1
 11
766.3548257883746
 21
287.5927704793064
 31
0.0
  0
POLYLINE
  5
38E
  8
020
  6
CONTINUOUS
 62
     1
 66
     1
 10
0.0
 20
0.0
 30
0.0
 70
   129
  0
VERTEX
  5
38F
  8
020
  6
CONTINUOUS
 62
     1
 10
749.9048257883746
 20
291.265214923751
 30
0.0
  0
VERTEX
  5
390
  8
020
  6
CONTINUOUS
 62
     1
 10
782.8048257883745
 20
291.265214923751
 30
0.0
  0
VERTEX
  5
391
  8
020
  6
CONTINUOUS
 62
     1
 10
782.8048257883745
 20
286.065214923751
 30
0.0
  0
VERTEX
  5
392
  8
020
  6
CONTINUOUS
 62
     1
 10
749.9048257883746
 20
286.065214923751
 30
0.0
  0
SEQEND
  5
393
  8
020
  6
CONTINUOUS
 62
     1
  0
POLYLINE
  5
394
  8
020
  6
CONTINUOUS
 62
     1
 66
     1
 10
0.0
 20
0.0
 30
0.0
 70
   129
  0
VERTEX
  5
395
  8
020
  6
CONTINUOUS
 62
     1
 10
782.8048257883746
 20
291.265214923751
 30
0.0
  0
VERTEX
  5
396
  8
020
  6
CONTINUOUS
 62
     1
 10
846.5048257883747
 20
291.265214923751
 30
0.0
  0
VERTEX
  5
397
  8
020
  6
CONTINUOUS
 62
     1
 10
846.5048257883747
 20
286.065214923751
 30
0.0
  0
VERTEX
  5
398
  8
020
  6
CONTINUOUS
 62
     1
 10
782.8048257883746
 20
286.065214923751
 30
0.0
  0
SEQEND
  5
399
  8
020
  6
CONTINUOUS
 62
     1
  0
TEXT
  5
39A
  8
LAYER0002
 62
     1
 10
809.3447852791154
 20
287.476326034862
 30
0.0
 40
2.124016203703704
  1
38.2kg
  7
YUGOTHIC_MEDIUM
 72
     1
 11
814.6548257883746
 21
287.476326034862
 31
0.0
  0
TEXT
  5
39B
  8
SAKUZU
 62
     1
 10
767.1533624947238
 20
313.477067820002
 30
0.0
 40
2.124016203703704
  1
引き違い戸
  7
YUGOTHIC_MEDIUM
 72
     1
 11
771.7048257883746
 21
313.477067820002
 31
0.0
  0
TEXT
  5
39C
  8
SAKUZU
 62
     1
 10
792.7180698359937
 20
313.6467800617886
 30
0.0
 40
2.124016203703704
  1
ＳＵＳ４３０
  7
YUGOTHIC_MEDIUM
 72
     1
 11
798.1798257883746
 21
313.6467800617886
 31
0.0
  0
TEXT
  5
39D
  8
SAKUZU
 62
     1
 10
769.732200015544
 20
303.0452149237508
 30
0.0
 40
2.124016203703704
  1
本体
  7
YUGOTHIC_MEDIUM
 72
     1
 11
771.5527853330043
 21
303.0452149237508
 31
0.0
  0
TEXT
  5
39E
  8
SAKUZU
 62
     1
 10
754.1423692732114
 20
303.130493790308
 30
0.0
 40
2.124016203703704
  1
7
  7
YUGOTHIC_MEDIUM
 72
     1
 11
755.1538055606894
 21
303.130493790308
 31
0.0
  0
TEXT
  5
39F
  8
SAKUZU
 62
     1
 10
767.0523422670386
 20
297.9927704793067
 30
0.0
 40
2.124016203703704
  1
アジャスト
  7
YUGOTHIC_MEDIUM
 72
     1
 11
771.6038055606895
 21
297.9927704793067
 31
0.0
  0
TEXT
  5
3A0
  8
SAKUZU
 62
     1
 10
754.1423692732114
 20
297.9927704793067
 30
0.0
 40
2.124016203703704
  1
8
  7
YUGOTHIC_MEDIUM
 72
     1
 11
755.1538055606894
 21
297.9927704793067
 31
0.0
  0
TEXT
  5
3A1
  8
SAKUZU
 62
     1
 10
792.6680698359936
 20
297.7741143228
 30
0.0
 40
2.124016203703704
  1
ＳＵＳ３０４
  7
YUGOTHIC_MEDIUM
 72
     1
 11
798.1298257883745
 21
297.7741143228
 31
0.0
  0
POLYLINE
  5
3A2
  8
020
  6
CONTINUOUS
 62
     1
 66
     1
 10
0.0
 20
0.0
 30
0.0
 70
   129
  0
VERTEX
  5
3A3
  8
020
  6
CONTINUOUS
 62
     1
 10
749.9048257883746
 20
306.8652149237512
 30
0.0
  0
VERTEX
  5
3A4
  8
020
  6
CONTINUOUS
 62
     1
 10
760.4027853330042
 20
306.8652149237512
 30
0.0
  0
VERTEX
  5
3A5
  8
020
  6
CONTINUOUS
 62
     1
 10
760.4027853330042
 20
301.6652149237511
 30
0.0
  0
VERTEX
  5
3A6
  8
020
  6
CONTINUOUS
 62
     1
 10
749.9048257883746
 20
301.6652149237511
 30
0.0
  0
SEQEND
  5
3A7
  8
020
  6
CONTINUOUS
 62
     1
  0
POLYLINE
  5
3A8
  8
020
  6
CONTINUOUS
 62
     1
 66
     1
 10
0.0
 20
0.0
 30
0.0
 70
   129
  0
VERTEX
  5
3A9
  8
020
  6
CONTINUOUS
 62
     1
 10
760.4027853330043
 20
306.8652149237512
 30
0.0
  0
VERTEX
  5
3AA
  8
020
  6
CONTINUOUS
 62
     1
 10
782.8048257883746
 20
306.8652149237512
 30
0.0
  0
VERTEX
  5
3AB
  8
020
  6
CONTINUOUS
 62
     1
 10
782.8048257883746
 20
301.6652149237511
 30
0.0
  0
VERTEX
  5
3AC
  8
020
  6
CONTINUOUS
 62
     1
 10
760.4027853330043
 20
301.6652149237511
 30
0.0
  0
SEQEND
  5
3AD
  8
020
  6
CONTINUOUS
 62
     1
  0
POLYLINE
  5
3AE
  8
020
  6
CONTINUOUS
 62
     1
 66
     1
 10
0.0
 20
0.0
 30
0.0
 70
   129
  0
VERTEX
  5
3AF
  8
020
  6
CONTINUOUS
 62
     1
 10
782.8048257883746
 20
306.8652149237512
 30
0.0
  0
VERTEX
  5
3B0
  8
020
  6
CONTINUOUS
 62
     1
 10
813.4548257883746
 20
306.8652149237512
 30
0.0
  0
VERTEX
  5
3B1
  8
020
  6
CONTINUOUS
 62
     1
 10
813.4548257883746
 20
301.6652149237511
 30
0.0
  0
VERTEX
  5
3B2
  8
020
  6
CONTINUOUS
 62
     1
 10
782.8048257883746
 20
301.6652149237511
 30
0.0
  0
SEQEND
  5
3B3
  8
020
  6
CONTINUOUS
 62
     1
  0
POLYLINE
  5
3B4
  8
020
  6
CONTINUOUS
 62
     1
 66
     1
 10
0.0
 20
0.0
 30
0.0
 70
   129
  0
VERTEX
  5
3B5
  8
020
  6
CONTINUOUS
 62
     1
 10
813.4548257883746
 20
306.8652149237512
 30
0.0
  0
VERTEX
  5
3B6
  8
020
  6
CONTINUOUS
 62
     1
 10
846.5048257883745
 20
306.8652149237512
 30
0.0
  0
VERTEX
  5
3B7
  8
020
  6
CONTINUOUS
 62
     1
 10
846.5048257883745
 20
301.6652149237511
 30
0.0
  0
VERTEX
  5
3B8
  8
020
  6
CONTINUOUS
 62
     1
 10
813.4548257883746
 20
301.6652149237511
 30
0.0
  0
SEQEND
  5
3B9
  8
020
  6
CONTINUOUS
 62
     1
  0
POLYLINE
  5
3BA
  8
020
  6
CONTINUOUS
 62
     1
 66
     1
 10
0.0
 20
0.0
 30
0.0
 70
   129
  0
VERTEX
  5
3BB
  8
020
  6
CONTINUOUS
 62
     1
 10
749.9048257883746
 20
301.6652149237511
 30
0.0
  0
VERTEX
  5
3BC
  8
020
  6
CONTINUOUS
 62
     1
 10
760.4027853330042
 20
301.6652149237511
 30
0.0
  0
VERTEX
  5
3BD
  8
020
  6
CONTINUOUS
 62
     1
 10
760.4027853330042
 20
296.4652149237511
 30
0.0
  0
VERTEX
  5
3BE
  8
020
  6
CONTINUOUS
 62
     1
 10
749.9048257883746
 20
296.4652149237511
 30
0.0
  0
SEQEND
  5
3BF
  8
020
  6
CONTINUOUS
 62
     1
  0
POLYLINE
  5
3C0
  8
020
  6
CONTINUOUS
 62
     1
 66
     1
 10
0.0
 20
0.0
 30
0.0
 70
   129
  0
VERTEX
  5
3C1
  8
020
  6
CONTINUOUS
 62
     1
 10
760.4027853330043
 20
301.6652149237511
 30
0.0
  0
VERTEX
  5
3C2
  8
020
  6
CONTINUOUS
 62
     1
 10
782.8048257883746
 20
301.6652149237511
 30
0.0
  0
VERTEX
  5
3C3
  8
020
  6
CONTINUOUS
 62
     1
 10
782.8048257883746
 20
296.4652149237511
 30
0.0
  0
VERTEX
  5
3C4
  8
020
  6
CONTINUOUS
 62
     1
 10
760.4027853330043
 20
296.4652149237511
 30
0.0
  0
SEQEND
  5
3C5
  8
020
  6
CONTINUOUS
 62
     1
  0
POLYLINE
  5
3C6
  8
020
  6
CONTINUOUS
 62
     1
 66
     1
 10
0.0
 20
0.0
 30
0.0
 70
   129
  0
VERTEX
  5
3C7
  8
020
  6
CONTINUOUS
 62
     1
 10
782.8048257883746
 20
301.6652149237511
 30
0.0
  0
VERTEX
  5
3C8
  8
020
  6
CONTINUOUS
 62
     1
 10
813.4548257883746
 20
301.6652149237511
 30
0.0
  0
VERTEX
  5
3C9
  8
020
  6
CONTINUOUS
 62
     1
 10
813.4548257883746
 20
296.4652149237511
 30
0.0
  0
VERTEX
  5
3CA
  8
020
  6
CONTINUOUS
 62
     1
 10
782.8048257883746
 20
296.4652149237511
 30
0.0
  0
SEQEND
  5
3CB
  8
020
  6
CONTINUOUS
 62
     1
  0
POLYLINE
  5
3CC
  8
020
  6
CONTINUOUS
 62
     1
 66
     1
 10
0.0
 20
0.0
 30
0.0
 70
   129
  0
VERTEX
  5
3CD
  8
020
  6
CONTINUOUS
 62
     1
 10
813.4548257883746
 20
301.6652149237511
 30
0.0
  0
VERTEX
  5
3CE
  8
020
  6
CONTINUOUS
 62
     1
 10
846.5048257883745
 20
301.6652149237511
 30
0.0
  0
VERTEX
  5
3CF
  8
020
  6
CONTINUOUS
 62
     1
 10
846.5048257883745
 20
296.4652149237511
 30
0.0
  0
VERTEX
  5
3D0
  8
020
  6
CONTINUOUS
 62
     1
 10
813.4548257883746
 20
296.4652149237511
 30
0.0
  0
SEQEND
  5
3D1
  8
020
  6
CONTINUOUS
 62
     1
  0
TEXT
  5
3D2
  8
SAKUZU
 62
     1
 10
792.6680698359936
 20
303.1927704793065
 30
0.0
 40
2.124016203703704
  1
ＳＵＳ４３０
  7
YUGOTHIC_MEDIUM
 72
     1
 11
798.1298257883745
 21
303.1927704793065
 31
0.0
  0
TEXT
  5
3D3
  8
SAKUZU
 62
     1
 10
820.6876590678783
 20
303.1927704793065
 30
0.0
 40
2.124016203703704
  1
t 0.8 NO.4仕上
  7
YUGOTHIC_MEDIUM
  0
TEXT
  5
3D4
  8
SAKUZU
 62
     1
 10
820.6876590678783
 20
313.6354467284552
 30
0.0
 40
2.124016203703704
  1
t 0.8 NO.4仕上
  7
YUGOTHIC_MEDIUM
  0
POLYLINE
  5
3D5
  8
020
  6
CONTINUOUS
 62
     1
 66
     1
 10
0.0
 20
0.0
 30
0.0
 70
   129
  0
VERTEX
  5
3D6
  8
020
  6
CONTINUOUS
 62
     1
 10
749.9048257883746
 20
332.8652149237512
 30
0.0
  0
VERTEX
  5
3D7
  8
020
  6
CONTINUOUS
 62
     1
 10
760.4027853330043
 20
332.8652149237512
 30
0.0
  0
VERTEX
  5
3D8
  8
020
  6
CONTINUOUS
 62
     1
 10
760.4027853330043
 20
322.4652149237511
 30
0.0
  0
VERTEX
  5
3D9
  8
020
  6
CONTINUOUS
 62
     1
 10
749.9048257883746
 20
322.4652149237511
 30
0.0
  0
SEQEND
  5
3DA
  8
020
  6
CONTINUOUS
 62
     1
  0
POLYLINE
  5
3DB
  8
020
  6
CONTINUOUS
 62
     1
 66
     1
 10
0.0
 20
0.0
 30
0.0
 70
   129
  0
VERTEX
  5
3DC
  8
020
  6
CONTINUOUS
 62
     1
 10
760.4027853330043
 20
332.8652149237512
 30
0.0
  0
VERTEX
  5
3DD
  8
020
  6
CONTINUOUS
 62
     1
 10
782.8048257883746
 20
332.8652149237512
 30
0.0
  0
VERTEX
  5
3DE
  8
020
  6
CONTINUOUS
 62
     1
 10
782.8048257883746
 20
322.4652149237511
 30
0.0
  0
VERTEX
  5
3DF
  8
020
  6
CONTINUOUS
 62
     1
 10
760.4027853330043
 20
322.4652149237511
 30
0.0
  0
SEQEND
  5
3E0
  8
020
  6
CONTINUOUS
 62
     1
  0
POLYLINE
  5
3E1
  8
020
  6
CONTINUOUS
 62
     1
 66
     1
 10
0.0
 20
0.0
 30
0.0
 70
   129
  0
VERTEX
  5
3E2
  8
020
  6
CONTINUOUS
 62
     1
 10
782.8048257883746
 20
332.8652149237512
 30
0.0
  0
VERTEX
  5
3E3
  8
020
  6
CONTINUOUS
 62
     1
 10
813.4548257883746
 20
332.8652149237512
 30
0.0
  0
VERTEX
  5
3E4
  8
020
  6
CONTINUOUS
 62
     1
 10
813.4548257883746
 20
322.4652149237511
 30
0.0
  0
VERTEX
  5
3E5
  8
020
  6
CONTINUOUS
 62
     1
 10
782.8048257883746
 20
322.4652149237511
 30
0.0
  0
SEQEND
  5
3E6
  8
020
  6
CONTINUOUS
 62
     1
  0
POLYLINE
  5
3E7
  8
020
  6
CONTINUOUS
 62
     1
 66
     1
 10
0.0
 20
0.0
 30
0.0
 70
   129
  0
VERTEX
  5
3E8
  8
020
  6
CONTINUOUS
 62
     1
 10
813.4548257883746
 20
332.8652149237512
 30
0.0
  0
VERTEX
  5
3E9
  8
020
  6
CONTINUOUS
 62
     1
 10
846.5048257883745
 20
332.8652149237512
 30
0.0
  0
VERTEX
  5
3EA
  8
020
  6
CONTINUOUS
 62
     1
 10
846.5048257883745
 20
322.4652149237511
 30
0.0
  0
VERTEX
  5
3EB
  8
020
  6
CONTINUOUS
 62
     1
 10
813.4548257883746
 20
322.4652149237511
 30
0.0
  0
SEQEND
  5
3EC
  8
020
  6
CONTINUOUS
 62
     1
  0
TEXT
  5
3ED
  8
SAKUZU
 62
     1
 10
754.1113490455264
 20
326.5927704793069
 30
0.0
 40
2.124016203703704
  1
3
  7
YUGOTHIC_MEDIUM
 72
     1
 11
755.1227853330043
 21
326.5927704793069
 31
0.0
  0
TEXT
  5
3EE
  8
SAKUZU
 62
     1
 10
766.9033624947238
 20
326.7927704793069
 30
0.0
 40
2.124016203703704
  1
引出し本体
  7
YUGOTHIC_MEDIUM
 72
     1
 11
771.4548257883746
 21
326.7927704793069
 31
0.0
  0
TEXT
  5
3EF
  8
SAKUZU
 62
     1
 10
792.6680698359936
 20
318.7179170157831
 30
0.0
 40
2.124016203703704
  1
ＳＵＳ３０４
  7
YUGOTHIC_MEDIUM
 72
     1
 11
798.1298257883745
 21
318.7179170157831
 31
0.0
  0
TEXT
  5
3F0
  8
SAKUZU
 62
     1
 10
820.6876590678783
 20
328.5979781772337
 30
0.0
 40
2.124016203703704
  1
t 0.8
  7
YUGOTHIC_MEDIUM
  0
TEXT
  5
3F1
  8
SAKUZU
 62
     1
 10
815.4538177972597
 20
324.1845910883189
 30
0.0
 40
1.593012152777778
  1
有効寸法：W317×D378×H94
  7
YUGOTHIC_MEDIUM
  0
TEXT
  5
3F2
  8
SAKUZU
 62
     1
 10
815.9813344414707
 20
298.0455436814475
 30
0.0
 40
2.124016203703704
  1
調整幅：-5?＋30mm
  7
YUGOTHIC_MEDIUM
  0
TEXT
  5
3F3
  8
SAKUZU
 62
     1
 10
766.9033624947238
 20
318.8231393873559
 30
0.0
 40
2.124016203703704
  1
引出し取手
  7
YUGOTHIC_MEDIUM
 72
     1
 11
771.4548257883746
 21
318.8231393873559
 31
0.0
  0
TEXT
  5
3F4
  8
SAKUZU
 62
     1
 10
792.7180698359937
 20
339.4686752435746
 30
0.0
 40
2.124016203703704
  1
ＳＵＳ４３０
  7
YUGOTHIC_MEDIUM
 72
     1
 11
798.1798257883746
 21
339.4686752435746
 31
0.0
  0
POLYLINE
  5
3F5
  8
020
  6
CONTINUOUS
 62
     1
 66
     1
 10
0.0
 20
0.0
 30
0.0
 70
   129
  0
VERTEX
  5
3F6
  8
020
  6
CONTINUOUS
 62
     1
 10
749.9048257883746
 20
146.9374134625285
 30
0.0
  0
VERTEX
  5
3F7
  8
020
  6
CONTINUOUS
 62
     1
 10
760.4027853330042
 20
146.9374134625285
 30
0.0
  0
VERTEX
  5
3F8
  8
020
  6
CONTINUOUS
 62
     1
 10
760.4027853330042
 20
141.7374134625285
 30
0.0
  0
VERTEX
  5
3F9
  8
020
  6
CONTINUOUS
 62
     1
 10
749.9048257883746
 20
141.7374134625285
 30
0.0
  0
SEQEND
  5
3FA
  8
020
  6
CONTINUOUS
 62
     1
  0
TEXT
  5
3FB
  8
020
 62
     1
 10
753.1544014544509
 20
143.4871912403062
 30
0.0
 40
2.124016203703704
  1
NO
  7
YUGOTHIC_MEDIUM
 11
753.1544014544509
 21
145.6112074440099
 31
0.0
 73
     3
  0
TEXT
  5
3FC
  8
020
 62
     1
 10
768.7815833384673
 20
143.4605245736396
 30
0.0
 40
2.124016203703704
  1
名称
  7
YUGOTHIC_MEDIUM
 11
768.7815833384673
 21
145.5845407773433
 31
0.0
 73
     3
  0
POLYLINE
  5
3FD
  8
020
  6
CONTINUOUS
 62
     1
 66
     1
 10
0.0
 20
0.0
 30
0.0
 70
   129
  0
VERTEX
  5
3FE
  8
020
  6
CONTINUOUS
 62
     1
 10
760.4027853330043
 20
146.9374134625285
 30
0.0
  0
VERTEX
  5
3FF
  8
020
  6
CONTINUOUS
 62
     1
 10
782.8048257883746
 20
146.9374134625285
 30
0.0
  0
VERTEX
  5
400
  8
020
  6
CONTINUOUS
 62
     1
 10
782.8048257883746
 20
141.7374134625285
 30
0.0
  0
VERTEX
  5
401
  8
020
  6
CONTINUOUS
 62
     1
 10
760.4027853330043
 20
141.7374134625285
 30
0.0
  0
SEQEND
  5
402
  8
020
  6
CONTINUOUS
 62
     1
  0
POLYLINE
  5
403
  8
020
  6
CONTINUOUS
 62
     1
 66
     1
 10
0.0
 20
0.0
 30
0.0
 70
   129
  0
VERTEX
  5
404
  8
020
  6
CONTINUOUS
 62
     1
 10
782.8048257883746
 20
146.9374134625285
 30
0.0
  0
VERTEX
  5
405
  8
020
  6
CONTINUOUS
 62
     1
 10
813.4548257883746
 20
146.9374134625285
 30
0.0
  0
VERTEX
  5
406
  8
020
  6
CONTINUOUS
 62
     1
 10
813.4548257883746
 20
141.7374134625285
 30
0.0
  0
VERTEX
  5
407
  8
020
  6
CONTINUOUS
 62
     1
 10
782.8048257883746
 20
141.7374134625285
 30
0.0
  0
SEQEND
  5
408
  8
020
  6
CONTINUOUS
 62
     1
  0
TEXT
  5
409
  8
020
 62
     1
 10
795.1437146772635
 20
143.4705245736396
 30
0.0
 40
2.124016203703704
  1
材質
  7
YUGOTHIC_MEDIUM
 11
795.1437146772635
 21
145.5945407773433
 31
0.0
 73
     3
  0
POLYLINE
  5
40A
  8
020
  6
CONTINUOUS
 62
     1
 66
     1
 10
0.0
 20
0.0
 30
0.0
 70
   129
  0
VERTEX
  5
40B
  8
020
  6
CONTINUOUS
 62
     1
 10
749.9048257883746
 20
141.7374134625285
 30
0.0
  0
VERTEX
  5
40C
  8
020
  6
CONTINUOUS
 62
     1
 10
760.4027853330042
 20
141.7374134625285
 30
0.0
  0
VERTEX
  5
40D
  8
020
  6
CONTINUOUS
 62
     1
 10
760.4027853330042
 20
136.5374134625284
 30
0.0
  0
VERTEX
  5
40E
  8
020
  6
CONTINUOUS
 62
     1
 10
749.9048257883746
 20
136.5374134625284
 30
0.0
  0
SEQEND
  5
40F
  8
020
  6
CONTINUOUS
 62
     1
  0
POLYLINE
  5
410
  8
020
  6
CONTINUOUS
 62
     1
 66
     1
 10
0.0
 20
0.0
 30
0.0
 70
   129
  0
VERTEX
  5
411
  8
020
  6
CONTINUOUS
 62
     1
 10
760.4027853330043
 20
141.7374134625285
 30
0.0
  0
VERTEX
  5
412
  8
020
  6
CONTINUOUS
 62
     1
 10
782.8048257883746
 20
141.7374134625285
 30
0.0
  0
VERTEX
  5
413
  8
020
  6
CONTINUOUS
 62
     1
 10
782.8048257883746
 20
136.5374134625284
 30
0.0
  0
VERTEX
  5
414
  8
020
  6
CONTINUOUS
 62
     1
 10
760.4027853330043
 20
136.5374134625284
 30
0.0
  0
SEQEND
  5
415
  8
020
  6
CONTINUOUS
 62
     1
  0
POLYLINE
  5
416
  8
020
  6
CONTINUOUS
 62
     1
 66
     1
 10
0.0
 20
0.0
 30
0.0
 70
   129
  0
VERTEX
  5
417
  8
020
  6
CONTINUOUS
 62
     1
 10
782.8048257883746
 20
141.7374134625285
 30
0.0
  0
VERTEX
  5
418
  8
020
  6
CONTINUOUS
 62
     1
 10
813.4548257883746
 20
141.7374134625285
 30
0.0
  0
VERTEX
  5
419
  8
020
  6
CONTINUOUS
 62
     1
 10
813.4548257883746
 20
136.5374134625284
 30
0.0
  0
VERTEX
  5
41A
  8
020
  6
CONTINUOUS
 62
     1
 10
782.8048257883746
 20
136.5374134625284
 30
0.0
  0
SEQEND
  5
41B
  8
020
  6
CONTINUOUS
 62
     1
  0
TEXT
  5
41C
  8
SAKUZU
 62
     1
 10
754.0607772311525
 20
117.5226191728699
 30
0.0
 40
2.124016203703704
  1
4
  7
YUGOTHIC_MEDIUM
 72
     1
 11
755.1227853330043
 21
117.5226191728699
 31
0.0
  0
TEXT
  5
41D
  8
SAKUZU
 62
     1
 10
767.9116146980837
 20
106.7600897116764
 30
0.0
 40
2.124016203703704
  1
引戸取手
  7
YUGOTHIC_MEDIUM
 72
     1
 11
771.5527853330043
 21
106.7600897116764
 31
0.0
  0
TEXT
  5
41E
  8
SAKUZU
 62
     1
 10
767.1533624947238
 20
132.8649690180839
 30
0.0
 40
2.124016203703704
  1
トップ補強
  7
YUGOTHIC_MEDIUM
 72
     1
 11
771.7048257883746
 21
132.8649690180839
 31
0.0
  0
TEXT
  5
41F
  8
SAKUZU
 62
     1
 10
754.2435129019592
 20
132.8649690180839
 30
0.0
 40
2.124016203703704
  1
２
  7
YUGOTHIC_MEDIUM
 72
     1
 11
755.1538055606894
 21
132.8649690180839
 31
0.0
  0
TEXT
  5
420
  8
SAKUZU
 62
     1
 10
754.2435129019592
 20
138.064969018084
 30
0.0
 40
2.124016203703704
  1
１
  7
YUGOTHIC_MEDIUM
 72
     1
 11
755.1538055606894
 21
138.064969018084
 31
0.0
  0
TEXT
  5
421
  8
SAKUZU
 62
     1
 10
768.9739478121841
 20
138.064969018084
 30
0.0
 40
2.124016203703704
  1
トップ
  7
YUGOTHIC_MEDIUM
 72
     1
 11
771.7048257883746
 21
138.064969018084
 31
0.0
  0
TEXT
  5
422
  8
SAKUZU
 62
     1
 10
792.6680698359936
 20
125.2113463090449
 30
0.0
 40
2.124016203703704
  1
ＳＵＳ４３０
  7
YUGOTHIC_MEDIUM
 72
     1
 11
798.1298257883745
 21
125.2113463090449
 31
0.0
  0
TEXT
  5
423
  8
SAKUZU
 62
     1
 10
754.1423692732114
 20
112.0026923290852
 30
0.0
 40
2.124016203703704
  1
5
  7
YUGOTHIC_MEDIUM
 72
     1
 11
755.1538055606894
 21
112.0026923290852
 31
0.0
  0
TEXT
  5
424
  8
SAKUZU
 62
     1
 10
792.6680698359936
 20
106.9076452672323
 30
0.0
 40
2.124016203703704
  1
ＳＵＳ３０４
  7
YUGOTHIC_MEDIUM
 72
     1
 11
798.1298257883745
 21
106.9076452672323
 31
0.0
  0
TEXT
  5
425
  8
SAKUZU
 62
     1
 10
754.0917974588376
 20
106.8649690180838
 30
0.0
 40
2.124016203703704
  1
6
  7
YUGOTHIC_MEDIUM
 72
     1
 11
755.1538055606894
 21
106.8649690180838
 31
0.0
  0
POLYLINE
  5
426
  8
020
  6
CONTINUOUS
 62
     1
 66
     1
 10
0.0
 20
0.0
 30
0.0
 70
   129
  0
VERTEX
  5
427
  8
020
  6
CONTINUOUS
 62
     1
 10
813.4548257883746
 20
146.9374134625285
 30
0.0
  0
VERTEX
  5
428
  8
020
  6
CONTINUOUS
 62
     1
 10
846.5048257883745
 20
146.9374134625285
 30
0.0
  0
VERTEX
  5
429
  8
020
  6
CONTINUOUS
 62
     1
 10
846.5048257883745
 20
141.7374134625285
 30
0.0
  0
VERTEX
  5
42A
  8
020
  6
CONTINUOUS
 62
     1
 10
813.4548257883746
 20
141.7374134625285
 30
0.0
  0
SEQEND
  5
42B
  8
020
  6
CONTINUOUS
 62
     1
  0
TEXT
  5
42C
  8
020
 62
     1
 10
827.3687146772635
 20
143.4705245736396
 30
0.0
 40
2.124016203703704
  1
仕様
  7
YUGOTHIC_MEDIUM
 11
827.3687146772635
 21
145.5945407773433
 31
0.0
 73
     3
  0
POLYLINE
  5
42D
  8
020
  6
CONTINUOUS
 62
     1
 66
     1
 10
0.0
 20
0.0
 30
0.0
 70
   129
  0
VERTEX
  5
42E
  8
020
  6
CONTINUOUS
 62
     1
 10
813.4548257883746
 20
141.7374134625285
 30
0.0
  0
VERTEX
  5
42F
  8
020
  6
CONTINUOUS
 62
     1
 10
846.5048257883745
 20
141.7374134625285
 30
0.0
  0
VERTEX
  5
430
  8
020
  6
CONTINUOUS
 62
     1
 10
846.5048257883745
 20
136.5374134625284
 30
0.0
  0
VERTEX
  5
431
  8
020
  6
CONTINUOUS
 62
     1
 10
813.4548257883746
 20
136.5374134625284
 30
0.0
  0
SEQEND
  5
432
  8
020
  6
CONTINUOUS
 62
     1
  0
POLYLINE
  5
433
  8
020
  6
CONTINUOUS
 62
     1
 66
     1
 10
0.0
 20
0.0
 30
0.0
 70
   129
  0
VERTEX
  5
434
  8
020
  6
CONTINUOUS
 62
     1
 10
749.9048257883746
 20
136.5374134625284
 30
0.0
  0
VERTEX
  5
435
  8
020
  6
CONTINUOUS
 62
     1
 10
760.4027853330042
 20
136.5374134625284
 30
0.0
  0
VERTEX
  5
436
  8
020
  6
CONTINUOUS
 62
     1
 10
760.4027853330042
 20
131.3374134625284
 30
0.0
  0
VERTEX
  5
437
  8
020
  6
CONTINUOUS
 62
     1
 10
749.9048257883746
 20
131.3374134625284
 30
0.0
  0
SEQEND
  5
438
  8
020
  6
CONTINUOUS
 62
     1
  0
POLYLINE
  5
439
  8
020
  6
CONTINUOUS
 62
     1
 66
     1
 10
0.0
 20
0.0
 30
0.0
 70
   129
  0
VERTEX
  5
43A
  8
020
  6
CONTINUOUS
 62
     1
 10
760.4027853330043
 20
136.5374134625284
 30
0.0
  0
VERTEX
  5
43B
  8
020
  6
CONTINUOUS
 62
     1
 10
782.8048257883746
 20
136.5374134625284
 30
0.0
  0
VERTEX
  5
43C
  8
020
  6
CONTINUOUS
 62
     1
 10
782.8048257883746
 20
131.3374134625284
 30
0.0
  0
VERTEX
  5
43D
  8
020
  6
CONTINUOUS
 62
     1
 10
760.4027853330043
 20
131.3374134625284
 30
0.0
  0
SEQEND
  5
43E
  8
020
  6
CONTINUOUS
 62
     1
  0
POLYLINE
  5
43F
  8
020
  6
CONTINUOUS
 62
     1
 66
     1
 10
0.0
 20
0.0
 30
0.0
 70
   129
  0
VERTEX
  5
440
  8
020
  6
CONTINUOUS
 62
     1
 10
782.8048257883746
 20
136.5374134625284
 30
0.0
  0
VERTEX
  5
441
  8
020
  6
CONTINUOUS
 62
     1
 10
813.4548257883746
 20
136.5374134625284
 30
0.0
  0
VERTEX
  5
442
  8
020
  6
CONTINUOUS
 62
     1
 10
813.4548257883746
 20
131.3374134625284
 30
0.0
  0
VERTEX
  5
443
  8
020
  6
CONTINUOUS
 62
     1
 10
782.8048257883746
 20
131.3374134625284
 30
0.0
  0
SEQEND
  5
444
  8
020
  6
CONTINUOUS
 62
     1
  0
POLYLINE
  5
445
  8
020
  6
CONTINUOUS
 62
     1
 66
     1
 10
0.0
 20
0.0
 30
0.0
 70
   129
  0
VERTEX
  5
446
  8
020
  6
CONTINUOUS
 62
     1
 10
813.4548257883746
 20
136.5374134625284
 30
0.0
  0
VERTEX
  5
447
  8
020
  6
CONTINUOUS
 62
     1
 10
846.5048257883745
 20
136.5374134625284
 30
0.0
  0
VERTEX
  5
448
  8
020
  6
CONTINUOUS
 62
     1
 10
846.5048257883745
 20
131.3374134625284
 30
0.0
  0
VERTEX
  5
449
  8
020
  6
CONTINUOUS
 62
     1
 10
813.4548257883746
 20
131.3374134625284
 30
0.0
  0
SEQEND
  5
44A
  8
020
  6
CONTINUOUS
 62
     1
  0
POLYLINE
  5
44B
  8
020
  6
CONTINUOUS
 62
     1
 66
     1
 10
0.0
 20
0.0
 30
0.0
 70
   129
  0
VERTEX
  5
44C
  8
020
  6
CONTINUOUS
 62
     1
 10
749.9048257883746
 20
120.9374134625283
 30
0.0
  0
VERTEX
  5
44D
  8
020
  6
CONTINUOUS
 62
     1
 10
760.4027853330042
 20
120.9374134625283
 30
0.0
  0
VERTEX
  5
44E
  8
020
  6
CONTINUOUS
 62
     1
 10
760.4027853330042
 20
115.7374134625283
 30
0.0
  0
VERTEX
  5
44F
  8
020
  6
CONTINUOUS
 62
     1
 10
749.9048257883746
 20
115.7374134625283
 30
0.0
  0
SEQEND
  5
450
  8
020
  6
CONTINUOUS
 62
     1
  0
POLYLINE
  5
451
  8
020
  6
CONTINUOUS
 62
     1
 66
     1
 10
0.0
 20
0.0
 30
0.0
 70
   129
  0
VERTEX
  5
452
  8
020
  6
CONTINUOUS
 62
     1
 10
760.4027853330043
 20
120.9374134625283
 30
0.0
  0
VERTEX
  5
453
  8
020
  6
CONTINUOUS
 62
     1
 10
782.8048257883746
 20
120.9374134625283
 30
0.0
  0
VERTEX
  5
454
  8
020
  6
CONTINUOUS
 62
     1
 10
782.8048257883746
 20
115.7374134625283
 30
0.0
  0
VERTEX
  5
455
  8
020
  6
CONTINUOUS
 62
     1
 10
760.4027853330043
 20
115.7374134625283
 30
0.0
  0
SEQEND
  5
456
  8
020
  6
CONTINUOUS
 62
     1
  0
POLYLINE
  5
457
  8
020
  6
CONTINUOUS
 62
     1
 66
     1
 10
0.0
 20
0.0
 30
0.0
 70
   129
  0
VERTEX
  5
458
  8
020
  6
CONTINUOUS
 62
     1
 10
782.8048257883746
 20
120.9374134625283
 30
0.0
  0
VERTEX
  5
459
  8
020
  6
CONTINUOUS
 62
     1
 10
813.4548257883746
 20
120.9374134625283
 30
0.0
  0
VERTEX
  5
45A
  8
020
  6
CONTINUOUS
 62
     1
 10
813.4548257883746
 20
115.7374134625283
 30
0.0
  0
VERTEX
  5
45B
  8
020
  6
CONTINUOUS
 62
     1
 10
782.8048257883746
 20
115.7374134625283
 30
0.0
  0
SEQEND
  5
45C
  8
020
  6
CONTINUOUS
 62
     1
  0
POLYLINE
  5
45D
  8
020
  6
CONTINUOUS
 62
     1
 66
     1
 10
0.0
 20
0.0
 30
0.0
 70
   129
  0
VERTEX
  5
45E
  8
020
  6
CONTINUOUS
 62
     1
 10
813.4548257883746
 20
120.9374134625283
 30
0.0
  0
VERTEX
  5
45F
  8
020
  6
CONTINUOUS
 62
     1
 10
846.5048257883745
 20
120.9374134625283
 30
0.0
  0
VERTEX
  5
460
  8
020
  6
CONTINUOUS
 62
     1
 10
846.5048257883745
 20
115.7374134625283
 30
0.0
  0
VERTEX
  5
461
  8
020
  6
CONTINUOUS
 62
     1
 10
813.4548257883746
 20
115.7374134625283
 30
0.0
  0
SEQEND
  5
462
  8
020
  6
CONTINUOUS
 62
     1
  0
POLYLINE
  5
463
  8
020
  6
CONTINUOUS
 62
     1
 66
     1
 10
0.0
 20
0.0
 30
0.0
 70
   129
  0
VERTEX
  5
464
  8
020
  6
CONTINUOUS
 62
     1
 10
749.9048257883746
 20
115.7374134625283
 30
0.0
  0
VERTEX
  5
465
  8
020
  6
CONTINUOUS
 62
     1
 10
760.4027853330042
 20
115.7374134625283
 30
0.0
  0
VERTEX
  5
466
  8
020
  6
CONTINUOUS
 62
     1
 10
760.4027853330042
 20
110.5374134625283
 30
0.0
  0
VERTEX
  5
467
  8
020
  6
CONTINUOUS
 62
     1
 10
749.9048257883746
 20
110.5374134625283
 30
0.0
  0
SEQEND
  5
468
  8
020
  6
CONTINUOUS
 62
     1
  0
POLYLINE
  5
469
  8
020
  6
CONTINUOUS
 62
     1
 66
     1
 10
0.0
 20
0.0
 30
0.0
 70
   129
  0
VERTEX
  5
46A
  8
020
  6
CONTINUOUS
 62
     1
 10
760.4027853330043
 20
115.7374134625283
 30
0.0
  0
VERTEX
  5
46B
  8
020
  6
CONTINUOUS
 62
     1
 10
782.8048257883746
 20
115.7374134625283
 30
0.0
  0
VERTEX
  5
46C
  8
020
  6
CONTINUOUS
 62
     1
 10
782.8048257883746
 20
110.5374134625283
 30
0.0
  0
VERTEX
  5
46D
  8
020
  6
CONTINUOUS
 62
     1
 10
760.4027853330043
 20
110.5374134625283
 30
0.0
  0
SEQEND
  5
46E
  8
020
  6
CONTINUOUS
 62
     1
  0
POLYLINE
  5
46F
  8
020
  6
CONTINUOUS
 62
     1
 66
     1
 10
0.0
 20
0.0
 30
0.0
 70
   129
  0
VERTEX
  5
470
  8
020
  6
CONTINUOUS
 62
     1
 10
782.8048257883746
 20
115.7374134625283
 30
0.0
  0
VERTEX
  5
471
  8
020
  6
CONTINUOUS
 62
     1
 10
813.4548257883746
 20
115.7374134625283
 30
0.0
  0
VERTEX
  5
472
  8
020
  6
CONTINUOUS
 62
     1
 10
813.4548257883746
 20
110.5374134625282
 30
0.0
  0
VERTEX
  5
473
  8
020
  6
CONTINUOUS
 62
     1
 10
782.8048257883746
 20
110.5374134625282
 30
0.0
  0
SEQEND
  5
474
  8
020
  6
CONTINUOUS
 62
     1
  0
POLYLINE
  5
475
  8
020
  6
CONTINUOUS
 62
     1
 66
     1
 10
0.0
 20
0.0
 30
0.0
 70
   129
  0
VERTEX
  5
476
  8
020
  6
CONTINUOUS
 62
     1
 10
813.4548257883746
 20
115.7374134625283
 30
0.0
  0
VERTEX
  5
477
  8
020
  6
CONTINUOUS
 62
     1
 10
846.5048257883745
 20
115.7374134625283
 30
0.0
  0
VERTEX
  5
478
  8
020
  6
CONTINUOUS
 62
     1
 10
846.5048257883745
 20
110.5374134625282
 30
0.0
  0
VERTEX
  5
479
  8
020
  6
CONTINUOUS
 62
     1
 10
813.4548257883746
 20
110.5374134625282
 30
0.0
  0
SEQEND
  5
47A
  8
020
  6
CONTINUOUS
 62
     1
  0
POLYLINE
  5
47B
  8
020
  6
CONTINUOUS
 62
     1
 66
     1
 10
0.0
 20
0.0
 30
0.0
 70
   129
  0
VERTEX
  5
47C
  8
020
  6
CONTINUOUS
 62
     1
 10
749.9048257883746
 20
110.5374134625283
 30
0.0
  0
VERTEX
  5
47D
  8
020
  6
CONTINUOUS
 62
     1
 10
760.4027853330042
 20
110.5374134625283
 30
0.0
  0
VERTEX
  5
47E
  8
020
  6
CONTINUOUS
 62
     1
 10
760.4027853330042
 20
105.3374134625282
 30
0.0
  0
VERTEX
  5
47F
  8
020
  6
CONTINUOUS
 62
     1
 10
749.9048257883746
 20
105.3374134625282
 30
0.0
  0
SEQEND
  5
480
  8
020
  6
CONTINUOUS
 62
     1
  0
POLYLINE
  5
481
  8
020
  6
CONTINUOUS
 62
     1
 66
     1
 10
0.0
 20
0.0
 30
0.0
 70
   129
  0
VERTEX
  5
482
  8
020
  6
CONTINUOUS
 62
     1
 10
760.4027853330043
 20
110.5374134625283
 30
0.0
  0
VERTEX
  5
483
  8
020
  6
CONTINUOUS
 62
     1
 10
782.8048257883746
 20
110.5374134625283
 30
0.0
  0
VERTEX
  5
484
  8
020
  6
CONTINUOUS
 62
     1
 10
782.8048257883746
 20
105.3374134625282
 30
0.0
  0
VERTEX
  5
485
  8
020
  6
CONTINUOUS
 62
     1
 10
760.4027853330043
 20
105.3374134625282
 30
0.0
  0
SEQEND
  5
486
  8
020
  6
CONTINUOUS
 62
     1
  0
POLYLINE
  5
487
  8
020
  6
CONTINUOUS
 62
     1
 66
     1
 10
0.0
 20
0.0
 30
0.0
 70
   129
  0
VERTEX
  5
488
  8
020
  6
CONTINUOUS
 62
     1
 10
782.8048257883746
 20
110.5374134625283
 30
0.0
  0
VERTEX
  5
489
  8
020
  6
CONTINUOUS
 62
     1
 10
813.4548257883746
 20
110.5374134625283
 30
0.0
  0
VERTEX
  5
48A
  8
020
  6
CONTINUOUS
 62
     1
 10
813.4548257883746
 20
105.3374134625282
 30
0.0
  0
VERTEX
  5
48B
  8
020
  6
CONTINUOUS
 62
     1
 10
782.8048257883746
 20
105.3374134625282
 30
0.0
  0
SEQEND
  5
48C
  8
020
  6
CONTINUOUS
 62
     1
  0
POLYLINE
  5
48D
  8
020
  6
CONTINUOUS
 62
     1
 66
     1
 10
0.0
 20
0.0
 30
0.0
 70
   129
  0
VERTEX
  5
48E
  8
020
  6
CONTINUOUS
 62
     1
 10
813.4548257883746
 20
110.5374134625283
 30
0.0
  0
VERTEX
  5
48F
  8
020
  6
CONTINUOUS
 62
     1
 10
846.5048257883745
 20
110.5374134625283
 30
0.0
  0
VERTEX
  5
490
  8
020
  6
CONTINUOUS
 62
     1
 10
846.5048257883745
 20
105.3374134625282
 30
0.0
  0
VERTEX
  5
491
  8
020
  6
CONTINUOUS
 62
     1
 10
813.4548257883746
 20
105.3374134625282
 30
0.0
  0
SEQEND
  5
492
  8
020
  6
CONTINUOUS
 62
     1
  0
TEXT
  5
493
  8
SAKUZU
 62
     1
 10
795.398947812184
 20
132.9262525045656
 30
0.0
 40
2.124016203703704
  1
ホンデ
  7
YUGOTHIC_MEDIUM
 72
     1
 11
798.1298257883745
 21
132.9262525045656
 31
0.0
  0
TEXT
  5
494
  8
SAKUZU
 62
     1
 10
820.6876590678783
 20
138.064969018084
 30
0.0
 40
2.124016203703704
  1
t 1.0 NO.4仕上
  7
YUGOTHIC_MEDIUM
  0
TEXT
  5
495
  8
SAKUZU
 62
     1
 10
820.6876590678783
 20
132.8649690180839
 30
0.0
 40
2.124016203703704
  1
t 1.0
  7
YUGOTHIC_MEDIUM
  0
TEXT
  5
496
  8
SAKUZU
 62
     1
 10
762.7136551534539
 20
86.06496901808364
 30
0.0
 40
2.124016203703704
  1
製品重量
  7
YUGOTHIC_MEDIUM
 72
     1
 11
766.3548257883746
 21
86.06496901808364
 31
0.0
  0
POLYLINE
  5
497
  8
020
  6
CONTINUOUS
 62
     1
 66
     1
 10
0.0
 20
0.0
 30
0.0
 70
   129
  0
VERTEX
  5
498
  8
020
  6
CONTINUOUS
 62
     1
 10
749.9048257883746
 20
89.73741346252811
 30
0.0
  0
VERTEX
  5
499
  8
020
  6
CONTINUOUS
 62
     1
 10
782.8048257883745
 20
89.73741346252811
 30
0.0
  0
VERTEX
  5
49A
  8
020
  6
CONTINUOUS
 62
     1
 10
782.8048257883745
 20
84.53741346252806
 30
0.0
  0
VERTEX
  5
49B
  8
020
  6
CONTINUOUS
 62
     1
 10
749.9048257883746
 20
84.53741346252806
 30
0.0
  0
SEQEND
  5
49C
  8
020
  6
CONTINUOUS
 62
     1
  0
POLYLINE
  5
49D
  8
020
  6
CONTINUOUS
 62
     1
 66
     1
 10
0.0
 20
0.0
 30
0.0
 70
   129
  0
VERTEX
  5
49E
  8
020
  6
CONTINUOUS
 62
     1
 10
782.8048257883746
 20
89.73741346252811
 30
0.0
  0
VERTEX
  5
49F
  8
020
  6
CONTINUOUS
 62
     1
 10
846.5048257883747
 20
89.73741346252811
 30
0.0
  0
VERTEX
  5
4A0
  8
020
  6
CONTINUOUS
 62
     1
 10
846.5048257883747
 20
84.53741346252806
 30
0.0
  0
VERTEX
  5
4A1
  8
020
  6
CONTINUOUS
 62
     1
 10
782.8048257883746
 20
84.53741346252806
 30
0.0
  0
SEQEND
  5
4A2
  8
020
  6
CONTINUOUS
 62
     1
  0
TEXT
  5
4A3
  8
LAYER0002
 62
     1
 10
809.3447852791154
 20
85.94852457363916
 30
0.0
 40
2.124016203703704
  1
37.3kg
  7
YUGOTHIC_MEDIUM
 72
     1
 11
814.6548257883746
 21
85.94852457363916
 31
0.0
  0
TEXT
  5
4A4
  8
SAKUZU
 62
     1
 10
767.1533624947238
 20
111.9492663587793
 30
0.0
 40
2.124016203703704
  1
引き違い戸
  7
YUGOTHIC_MEDIUM
 72
     1
 11
771.7048257883746
 21
111.9492663587793
 31
0.0
  0
TEXT
  5
4A5
  8
SAKUZU
 62
     1
 10
792.7180698359937
 20
112.1189786005657
 30
0.0
 40
2.124016203703704
  1
ＳＵＳ４３０
  7
YUGOTHIC_MEDIUM
 72
     1
 11
798.1798257883746
 21
112.1189786005657
 31
0.0
  0
TEXT
  5
4A6
  8
SAKUZU
 62
     1
 10
769.732200015544
 20
101.5174134625279
 30
0.0
 40
2.124016203703704
  1
本体
  7
YUGOTHIC_MEDIUM
 72
     1
 11
771.5527853330043
 21
101.5174134625279
 31
0.0
  0
TEXT
  5
4A7
  8
SAKUZU
 62
     1
 10
754.1423692732114
 20
101.6026923290852
 30
0.0
 40
2.124016203703704
  1
7
  7
YUGOTHIC_MEDIUM
 72
     1
 11
755.1538055606894
 21
101.6026923290852
 31
0.0
  0
TEXT
  5
4A8
  8
SAKUZU
 62
     1
 10
767.0523422670386
 20
96.46496901808379
 30
0.0
 40
2.124016203703704
  1
アジャスト
  7
YUGOTHIC_MEDIUM
 72
     1
 11
771.6038055606895
 21
96.46496901808379
 31
0.0
  0
TEXT
  5
4A9
  8
SAKUZU
 62
     1
 10
754.1423692732114
 20
96.46496901808379
 30
0.0
 40
2.124016203703704
  1
8
  7
YUGOTHIC_MEDIUM
 72
     1
 11
755.1538055606894
 21
96.46496901808379
 31
0.0
  0
TEXT
  5
4AA
  8
SAKUZU
 62
     1
 10
792.6680698359936
 20
96.2463128615772
 30
0.0
 40
2.124016203703704
  1
ＳＵＳ３０４
  7
YUGOTHIC_MEDIUM
 72
     1
 11
798.1298257883745
 21
96.2463128615772
 31
0.0
  0
POLYLINE
  5
4AB
  8
020
  6
CONTINUOUS
 62
     1
 66
     1
 10
0.0
 20
0.0
 30
0.0
 70
   129
  0
VERTEX
  5
4AC
  8
020
  6
CONTINUOUS
 62
     1
 10
749.9048257883746
 20
105.3374134625283
 30
0.0
  0
VERTEX
  5
4AD
  8
020
  6
CONTINUOUS
 62
     1
 10
760.4027853330042
 20
105.3374134625283
 30
0.0
  0
VERTEX
  5
4AE
  8
020
  6
CONTINUOUS
 62
     1
 10
760.4027853330042
 20
100.1374134625283
 30
0.0
  0
VERTEX
  5
4AF
  8
020
  6
CONTINUOUS
 62
     1
 10
749.9048257883746
 20
100.1374134625283
 30
0.0
  0
SEQEND
  5
4B0
  8
020
  6
CONTINUOUS
 62
     1
  0
POLYLINE
  5
4B1
  8
020
  6
CONTINUOUS
 62
     1
 66
     1
 10
0.0
 20
0.0
 30
0.0
 70
   129
  0
VERTEX
  5
4B2
  8
020
  6
CONTINUOUS
 62
     1
 10
760.4027853330043
 20
105.3374134625283
 30
0.0
  0
VERTEX
  5
4B3
  8
020
  6
CONTINUOUS
 62
     1
 10
782.8048257883746
 20
105.3374134625283
 30
0.0
  0
VERTEX
  5
4B4
  8
020
  6
CONTINUOUS
 62
     1
 10
782.8048257883746
 20
100.1374134625283
 30
0.0
  0
VERTEX
  5
4B5
  8
020
  6
CONTINUOUS
 62
     1
 10
760.4027853330043
 20
100.1374134625283
 30
0.0
  0
SEQEND
  5
4B6
  8
020
  6
CONTINUOUS
 62
     1
  0
POLYLINE
  5
4B7
  8
020
  6
CONTINUOUS
 62
     1
 66
     1
 10
0.0
 20
0.0
 30
0.0
 70
   129
  0
VERTEX
  5
4B8
  8
020
  6
CONTINUOUS
 62
     1
 10
782.8048257883746
 20
105.3374134625282
 30
0.0
  0
VERTEX
  5
4B9
  8
020
  6
CONTINUOUS
 62
     1
 10
813.4548257883746
 20
105.3374134625282
 30
0.0
  0
VERTEX
  5
4BA
  8
020
  6
CONTINUOUS
 62
     1
 10
813.4548257883746
 20
100.1374134625282
 30
0.0
  0
VERTEX
  5
4BB
  8
020
  6
CONTINUOUS
 62
     1
 10
782.8048257883746
 20
100.1374134625282
 30
0.0
  0
SEQEND
  5
4BC
  8
020
  6
CONTINUOUS
 62
     1
  0
POLYLINE
  5
4BD
  8
020
  6
CONTINUOUS
 62
     1
 66
     1
 10
0.0
 20
0.0
 30
0.0
 70
   129
  0
VERTEX
  5
4BE
  8
020
  6
CONTINUOUS
 62
     1
 10
813.4548257883746
 20
105.3374134625282
 30
0.0
  0
VERTEX
  5
4BF
  8
020
  6
CONTINUOUS
 62
     1
 10
846.5048257883745
 20
105.3374134625282
 30
0.0
  0
VERTEX
  5
4C0
  8
020
  6
CONTINUOUS
 62
     1
 10
846.5048257883745
 20
100.1374134625282
 30
0.0
  0
VERTEX
  5
4C1
  8
020
  6
CONTINUOUS
 62
     1
 10
813.4548257883746
 20
100.1374134625282
 30
0.0
  0
SEQEND
  5
4C2
  8
020
  6
CONTINUOUS
 62
     1
  0
POLYLINE
  5
4C3
  8
020
  6
CONTINUOUS
 62
     1
 66
     1
 10
0.0
 20
0.0
 30
0.0
 70
   129
  0
VERTEX
  5
4C4
  8
020
  6
CONTINUOUS
 62
     1
 10
749.9048257883746
 20
100.1374134625283
 30
0.0
  0
VERTEX
  5
4C5
  8
020
  6
CONTINUOUS
 62
     1
 10
760.4027853330042
 20
100.1374134625283
 30
0.0
  0
VERTEX
  5
4C6
  8
020
  6
CONTINUOUS
 62
     1
 10
760.4027853330042
 20
94.93741346252821
 30
0.0
  0
VERTEX
  5
4C7
  8
020
  6
CONTINUOUS
 62
     1
 10
749.9048257883746
 20
94.93741346252821
 30
0.0
  0
SEQEND
  5
4C8
  8
020
  6
CONTINUOUS
 62
     1
  0
POLYLINE
  5
4C9
  8
020
  6
CONTINUOUS
 62
     1
 66
     1
 10
0.0
 20
0.0
 30
0.0
 70
   129
  0
VERTEX
  5
4CA
  8
020
  6
CONTINUOUS
 62
     1
 10
760.4027853330043
 20
100.1374134625283
 30
0.0
  0
VERTEX
  5
4CB
  8
020
  6
CONTINUOUS
 62
     1
 10
782.8048257883746
 20
100.1374134625283
 30
0.0
  0
VERTEX
  5
4CC
  8
020
  6
CONTINUOUS
 62
     1
 10
782.8048257883746
 20
94.93741346252821
 30
0.0
  0
VERTEX
  5
4CD
  8
020
  6
CONTINUOUS
 62
     1
 10
760.4027853330043
 20
94.93741346252821
 30
0.0
  0
SEQEND
  5
4CE
  8
020
  6
CONTINUOUS
 62
     1
  0
POLYLINE
  5
4CF
  8
020
  6
CONTINUOUS
 62
     1
 66
     1
 10
0.0
 20
0.0
 30
0.0
 70
   129
  0
VERTEX
  5
4D0
  8
020
  6
CONTINUOUS
 62
     1
 10
782.8048257883746
 20
100.1374134625283
 30
0.0
  0
VERTEX
  5
4D1
  8
020
  6
CONTINUOUS
 62
     1
 10
813.4548257883746
 20
100.1374134625283
 30
0.0
  0
VERTEX
  5
4D2
  8
020
  6
CONTINUOUS
 62
     1
 10
813.4548257883746
 20
94.93741346252821
 30
0.0
  0
VERTEX
  5
4D3
  8
020
  6
CONTINUOUS
 62
     1
 10
782.8048257883746
 20
94.93741346252821
 30
0.0
  0
SEQEND
  5
4D4
  8
020
  6
CONTINUOUS
 62
     1
  0
POLYLINE
  5
4D5
  8
020
  6
CONTINUOUS
 62
     1
 66
     1
 10
0.0
 20
0.0
 30
0.0
 70
   129
  0
VERTEX
  5
4D6
  8
020
  6
CONTINUOUS
 62
     1
 10
813.4548257883746
 20
100.1374134625283
 30
0.0
  0
VERTEX
  5
4D7
  8
020
  6
CONTINUOUS
 62
     1
 10
846.5048257883745
 20
100.1374134625283
 30
0.0
  0
VERTEX
  5
4D8
  8
020
  6
CONTINUOUS
 62
     1
 10
846.5048257883745
 20
94.93741346252821
 30
0.0
  0
VERTEX
  5
4D9
  8
020
  6
CONTINUOUS
 62
     1
 10
813.4548257883746
 20
94.93741346252821
 30
0.0
  0
SEQEND
  5
4DA
  8
020
  6
CONTINUOUS
 62
     1
  0
TEXT
  5
4DB
  8
SAKUZU
 62
     1
 10
792.6680698359936
 20
101.6649690180838
 30
0.0
 40
2.124016203703704
  1
ＳＵＳ４３０
  7
YUGOTHIC_MEDIUM
 72
     1
 11
798.1298257883745
 21
101.6649690180838
 31
0.0
  0
TEXT
  5
4DC
  8
SAKUZU
 62
     1
 10
820.6876590678783
 20
101.6649690180838
 30
0.0
 40
2.124016203703704
  1
t 0.8 NO.4仕上
  7
YUGOTHIC_MEDIUM
  0
TEXT
  5
4DD
  8
SAKUZU
 62
     1
 10
820.6876590678783
 20
112.1076452672324
 30
0.0
 40
2.124016203703704
  1
t 0.8 NO.4仕上
  7
YUGOTHIC_MEDIUM
  0
POLYLINE
  5
4DE
  8
020
  6
CONTINUOUS
 62
     1
 66
     1
 10
0.0
 20
0.0
 30
0.0
 70
   129
  0
VERTEX
  5
4DF
  8
020
  6
CONTINUOUS
 62
     1
 10
749.9048257883746
 20
131.3374134625284
 30
0.0
  0
VERTEX
  5
4E0
  8
020
  6
CONTINUOUS
 62
     1
 10
760.4027853330043
 20
131.3374134625284
 30
0.0
  0
VERTEX
  5
4E1
  8
020
  6
CONTINUOUS
 62
     1
 10
760.4027853330043
 20
120.9374134625283
 30
0.0
  0
VERTEX
  5
4E2
  8
020
  6
CONTINUOUS
 62
     1
 10
749.9048257883746
 20
120.9374134625283
 30
0.0
  0
SEQEND
  5
4E3
  8
020
  6
CONTINUOUS
 62
     1
  0
POLYLINE
  5
4E4
  8
020
  6
CONTINUOUS
 62
     1
 66
     1
 10
0.0
 20
0.0
 30
0.0
 70
   129
  0
VERTEX
  5
4E5
  8
020
  6
CONTINUOUS
 62
     1
 10
760.4027853330043
 20
131.3374134625284
 30
0.0
  0
VERTEX
  5
4E6
  8
020
  6
CONTINUOUS
 62
     1
 10
782.8048257883746
 20
131.3374134625284
 30
0.0
  0
VERTEX
  5
4E7
  8
020
  6
CONTINUOUS
 62
     1
 10
782.8048257883746
 20
120.9374134625283
 30
0.0
  0
VERTEX
  5
4E8
  8
020
  6
CONTINUOUS
 62
     1
 10
760.4027853330043
 20
120.9374134625283
 30
0.0
  0
SEQEND
  5
4E9
  8
020
  6
CONTINUOUS
 62
     1
  0
POLYLINE
  5
4EA
  8
020
  6
CONTINUOUS
 62
     1
 66
     1
 10
0.0
 20
0.0
 30
0.0
 70
   129
  0
VERTEX
  5
4EB
  8
020
  6
CONTINUOUS
 62
     1
 10
782.8048257883746
 20
131.3374134625284
 30
0.0
  0
VERTEX
  5
4EC
  8
020
  6
CONTINUOUS
 62
     1
 10
813.4548257883746
 20
131.3374134625284
 30
0.0
  0
VERTEX
  5
4ED
  8
020
  6
CONTINUOUS
 62
     1
 10
813.4548257883746
 20
120.9374134625283
 30
0.0
  0
VERTEX
  5
4EE
  8
020
  6
CONTINUOUS
 62
     1
 10
782.8048257883746
 20
120.9374134625283
 30
0.0
  0
SEQEND
  5
4EF
  8
020
  6
CONTINUOUS
 62
     1
  0
POLYLINE
  5
4F0
  8
020
  6
CONTINUOUS
 62
     1
 66
     1
 10
0.0
 20
0.0
 30
0.0
 70
   129
  0
VERTEX
  5
4F1
  8
020
  6
CONTINUOUS
 62
     1
 10
813.4548257883746
 20
131.3374134625284
 30
0.0
  0
VERTEX
  5
4F2
  8
020
  6
CONTINUOUS
 62
     1
 10
846.5048257883745
 20
131.3374134625284
 30
0.0
  0
VERTEX
  5
4F3
  8
020
  6
CONTINUOUS
 62
     1
 10
846.5048257883745
 20
120.9374134625283
 30
0.0
  0
VERTEX
  5
4F4
  8
020
  6
CONTINUOUS
 62
     1
 10
813.4548257883746
 20
120.9374134625283
 30
0.0
  0
SEQEND
  5
4F5
  8
020
  6
CONTINUOUS
 62
     1
  0
TEXT
  5
4F6
  8
SAKUZU
 62
     1
 10
754.1113490455264
 20
125.0649690180839
 30
0.0
 40
2.124016203703704
  1
3
  7
YUGOTHIC_MEDIUM
 72
     1
 11
755.1227853330043
 21
125.0649690180839
 31
0.0
  0
TEXT
  5
4F7
  8
SAKUZU
 62
     1
 10
766.9033624947238
 20
125.264969018084
 30
0.0
 40
2.124016203703704
  1
引出し本体
  7
YUGOTHIC_MEDIUM
 72
     1
 11
771.4548257883746
 21
125.264969018084
 31
0.0
  0
TEXT
  5
4F8
  8
SAKUZU
 62
     1
 10
792.6680698359936
 20
117.1901155545603
 30
0.0
 40
2.124016203703704
  1
ＳＵＳ３０４
  7
YUGOTHIC_MEDIUM
 72
     1
 11
798.1298257883745
 21
117.1901155545603
 31
0.0
  0
TEXT
  5
4F9
  8
SAKUZU
 62
     1
 10
820.6876590678783
 20
127.0701767160108
 30
0.0
 40
2.124016203703704
  1
t 0.8
  7
YUGOTHIC_MEDIUM
  0
TEXT
  5
4FA
  8
SAKUZU
 62
     1
 10
815.4538177972597
 20
122.656789627096
 30
0.0
 40
1.593012152777778
  1
有効寸法：W317×D378×H94
  7
YUGOTHIC_MEDIUM
  0
TEXT
  5
4FB
  8
SAKUZU
 62
     1
 10
815.9813344414707
 20
96.51774222022473
 30
0.0
 40
2.124016203703704
  1
調整幅：-5?＋30mm
  7
YUGOTHIC_MEDIUM
  0
TEXT
  5
4FC
  8
SAKUZU
 62
     1
 10
766.9033624947238
 20
117.295337926133
 30
0.0
 40
2.124016203703704
  1
引出し取手
  7
YUGOTHIC_MEDIUM
 72
     1
 11
771.4548257883746
 21
117.295337926133
 31
0.0
  0
TEXT
  5
4FD
  8
SAKUZU
 62
     1
 10
792.7180698359937
 20
137.9408737823518
 30
0.0
 40
2.124016203703704
  1
ＳＵＳ４３０
  7
YUGOTHIC_MEDIUM
 72
     1
 11
798.1798257883746
 21
137.9408737823518
 31
0.0
  0
INSERT
  5
4FE
  8
__-3
 62
    17
  2
____-4-1
 10
711.2328257883746
 20
-148.5000416295412
 30
0.0
  0
INSERT
  5
4FF
  8
__-3
 62
    17
  2
____-6-1
 10
711.2328257883746
 20
-148.5000416295412
 30
0.0
  0
LINE
  5
500
  8
SAKUZU
  6
CONTINUOUS
 62
     4
 10
-676.6099022667663
 20
3621.019092983591
 30
0.0
 11
-676.6099022667663
 21
3021.019092983591
 31
0.0
  0
LINE
  5
501
  8
SAKUZU
  6
CONTINUOUS
 62
     4
 10
-676.6099022667663
 20
3021.019092983591
 30
0.0
 11
223.3900977332338
 21
3021.019092983591
 31
0.0
  0
LINE
  5
502
  8
SAKUZU
  6
CONTINUOUS
 62
     4
 10
223.3900977332338
 20
3621.019092983591
 30
0.0
 11
-676.6099022667663
 21
3621.019092983591
 31
0.0
  0
LINE
  5
503
  8
SAKUZU
  6
CONTINUOUS
 62
     4
 10
223.3900977332338
 20
3621.019092983591
 30
0.0
 11
223.3900977332343
 21
3021.019092983591
 31
0.0
  0
LINE
  5
504
  8
SAKUZU
  6
CONTINUOUS
 62
     4
 10
223.3900977332338
 20
2595.579694741714
 30
0.0
 11
223.3900977332338
 21
2555.579694741714
 31
0.0
  0
LINE
  5
505
  8
SAKUZU
  6
CONTINUOUS
 62
     4
 10
223.3900977332338
 20
2595.579694741714
 30
0.0
 11
-676.6099022667663
 21
2595.579694741714
 31
0.0
  0
LINE
  5
506
  8
SAKUZU
  6
CONTINUOUS
 62
     4
 10
-676.6099022667663
 20
2595.579694741714
 30
0.0
 11
-676.6099022667663
 21
2555.579694741714
 31
0.0
  0
LINE
  5
507
  8
SAKUZU
  6
CONTINUOUS
 62
     4
 10
-676.6099022667663
 20
2555.579694741714
 30
0.0
 11
223.3900977332338
 21
2555.579694741714
 31
0.0
  0
LINE
  5
508
  8
SAKUZU
  6
CONTINUOUS
 62
     4
 10
-666.6099022667663
 20
2555.579694741714
 30
0.0
 11
-666.6099022667663
 21
1895.579694741714
 31
0.0
  0
LINE
  5
509
  8
SAKUZU
  6
CONTINUOUS
 62
     4
 10
213.3900977332338
 20
1895.579694741714
 30
0.0
 11
213.3900977332338
 21
2555.579694741714
 31
0.0
  0
LINE
  5
50A
  8
SAKUZU
  6
CONTINUOUS
 62
     4
 10
-666.6099022667663
 20
1895.579694741714
 30
0.0
 11
213.3900977332338
 21
1895.579694741714
 31
0.0
  0
LINE
  5
50B
  8
SAKUZU
  6
CONTINUOUS
 62
     4
 10
-647.6099022667663
 20
1885.579694741714
 30
0.0
 11
-575.6099022667663
 21
1885.579694741714
 31
0.0
  0
ARC
  5
50C
  8
SAKUZU
  6
CONTINUOUS
 62
     4
 10
-575.6099022667663
 20
1890.579694741714
 30
0.0
 40
5.000000000000028
 50
269.9999938590621
 51
0.0
  0
ARC
  5
50D
  8
SAKUZU
  6
CONTINUOUS
 62
     4
 10
-647.6099022667663
 20
1890.579694741714
 30
0.0
 40
5.0
 50
180.0
 51
269.9999938590621
  0
LINE
  5
50E
  8
SAKUZU
  6
CONTINUOUS
 62
     4
 10
-570.6099022667663
 20
1890.579694741714
 30
0.0
 11
-570.6099022667663
 21
1895.579694741714
 31
0.0
  0
LINE
  5
50F
  8
SAKUZU
  6
CONTINUOUS
 62
     4
 10
-652.6099022667663
 20
1895.579694741714
 30
0.0
 11
-652.6099022667663
 21
1890.579694741714
 31
0.0
  0
LINE
  5
510
  8
SAKUZU
  6
CONTINUOUS
 62
     4
 10
-630.6099022667663
 20
1745.579694741714
 30
0.0
 11
-592.6099022667663
 21
1745.579694741714
 31
0.0
  0
LINE
  5
511
  8
SAKUZU
  6
CONTINUOUS
 62
     4
 10
-592.6099022667663
 20
1745.579694741714
 30
0.0
 11
-592.6099022667663
 21
1765.579694741714
 31
0.0
  0
LINE
  5
512
  8
SAKUZU
  6
CONTINUOUS
 62
     4
 10
-630.6099022667663
 20
1765.579694741714
 30
0.0
 11
-630.6099022667663
 21
1745.579694741714
 31
0.0
  0
LINE
  5
513
  8
SAKUZU
  6
CONTINUOUS
 62
     4
 10
-636.6099022667663
 20
1765.579694741714
 30
0.0
 11
-586.6099022667663
 21
1765.579694741714
 31
0.0
  0
LINE
  5
514
  8
SAKUZU
  6
CONTINUOUS
 62
     4
 10
-643.6099022667663
 20
1885.579694741714
 30
0.0
 11
-636.6099022667663
 21
1765.579694741714
 31
0.0
  0
LINE
  5
515
  8
SAKUZU
  6
CONTINUOUS
 62
     4
 10
-579.6099022667663
 20
1885.579694741714
 30
0.0
 11
-586.6099022667663
 21
1765.579694741714
 31
0.0
  0
LINE
  5
516
  8
SAKUZU
  6
CONTINUOUS
 62
     4
 10
122.3900977332338
 20
1885.579694741714
 30
0.0
 11
194.3900977332338
 21
1885.579694741714
 31
0.0
  0
ARC
  5
517
  8
SAKUZU
  6
CONTINUOUS
 62
     4
 10
194.3900977332338
 20
1890.579694741714
 30
0.0
 40
5.000000000000028
 50
269.9999938590621
 51
0.0
  0
ARC
  5
518
  8
SAKUZU
  6
CONTINUOUS
 62
     4
 10
122.3900977332338
 20
1890.579694741714
 30
0.0
 40
5.0
 50
180.0
 51
269.9999938590621
  0
LINE
  5
519
  8
SAKUZU
  6
CONTINUOUS
 62
     4
 10
199.3900977332338
 20
1890.579694741714
 30
0.0
 11
199.3900977332338
 21
1895.579694741714
 31
0.0
  0
LINE
  5
51A
  8
SAKUZU
  6
CONTINUOUS
 62
     4
 10
117.3900977332338
 20
1895.579694741714
 30
0.0
 11
117.3900977332338
 21
1890.579694741714
 31
0.0
  0
LINE
  5
51B
  8
SAKUZU
  6
CONTINUOUS
 62
     4
 10
139.3900977332338
 20
1745.579694741714
 30
0.0
 11
177.3900977332338
 21
1745.579694741714
 31
0.0
  0
LINE
  5
51C
  8
SAKUZU
  6
CONTINUOUS
 62
     4
 10
177.3900977332338
 20
1745.579694741714
 30
0.0
 11
177.3900977332338
 21
1765.579694741714
 31
0.0
  0
LINE
  5
51D
  8
SAKUZU
  6
CONTINUOUS
 62
     4
 10
139.3900977332338
 20
1765.579694741714
 30
0.0
 11
139.3900977332338
 21
1745.579694741714
 31
0.0
  0
LINE
  5
51E
  8
SAKUZU
  6
CONTINUOUS
 62
     4
 10
133.3900977332338
 20
1765.579694741714
 30
0.0
 11
183.3900977332338
 21
1765.579694741714
 31
0.0
  0
LINE
  5
51F
  8
SAKUZU
  6
CONTINUOUS
 62
     4
 10
126.3900977332338
 20
1885.579694741714
 30
0.0
 11
133.3900977332338
 21
1765.579694741714
 31
0.0
  0
LINE
  5
520
  8
SAKUZU
  6
CONTINUOUS
 62
     4
 10
190.3900977332338
 20
1885.579694741714
 30
0.0
 11
183.3900977332338
 21
1765.579694741714
 31
0.0
  0
LINE
  5
521
  8
SAKUZU
  6
CONTINUOUS
 62
     4
 10
-614.6099022667663
 20
2555.579694741714
 30
0.0
 11
-614.6099022667663
 21
1895.579694741714
 31
0.0
  0
LINE
  5
522
  8
SAKUZU
  6
CONTINUOUS
 62
     4
 10
161.3900977332338
 20
2555.579694741714
 30
0.0
 11
161.3900977332338
 21
1895.579694741714
 31
0.0
  0
LINE
  5
523
  8
SAKUZU
  6
CONTINUOUS
 62
     4
 10
-614.6099022667663
 20
1945.579694741714
 30
0.0
 11
161.3900977332338
 21
1945.579694741714
 31
0.0
  0
LINE
  5
524
  8
SAKUZU
  6
CONTINUOUS
 62
     4
 10
-238.6099022667668
 20
1945.579694741714
 30
0.0
 11
-238.6099022667668
 21
2365.579694741714
 31
0.0
  0
LINE
  5
525
  8
SAKUZU
  6
ISO-02___
 62
     4
 10
-214.6099022667668
 20
2365.579694741714
 30
0.0
 11
-214.6099022667668
 21
1945.579694741714
 31
0.0
  0
LINE
  5
526
  8
SAKUZU
  6
CONTINUOUS
 62
     4
 10
-614.6099022667663
 20
2535.579694741714
 30
0.0
 11
161.3900977332336
 21
2535.579694741714
 31
0.0
  0
LINE
  5
527
  8
SAKUZU
  6
CONTINUOUS
 62
     4
 10
-614.6099022667663
 20
2415.579694741714
 30
0.0
 11
161.3900977332336
 21
2415.579694741714
 31
0.0
  0
LINE
  5
528
  8
SAKUZU
  6
CONTINUOUS
 62
     4
 10
-614.6099022667663
 20
2365.579694741714
 30
0.0
 11
161.3900977332336
 21
2365.579694741714
 31
0.0
  0
LINE
  5
529
  8
SAKUZU
  6
CONTINUOUS
 62
     4
 10
1998.213797747212
 20
2595.579694741714
 30
0.0
 11
1998.213797747212
 21
2555.579694741714
 31
0.0
  0
LINE
  5
52A
  8
SAKUZU
  6
CONTINUOUS
 62
     4
 10
1998.213797747212
 20
2555.579694741714
 30
0.0
 11
1398.213797747212
 21
2555.579694741714
 31
0.0
  0
LINE
  5
52B
  8
SAKUZU
  6
CONTINUOUS
 62
     4
 10
1398.213797747212
 20
2555.579694741714
 30
0.0
 11
1398.213797747212
 21
2590.579694741714
 31
0.0
  0
ARC
  5
52C
  8
SAKUZU
  6
CONTINUOUS
 62
     4
 10
1403.213797747212
 20
2590.579694741714
 30
0.0
 40
5.0
 50
90.0
 51
180.0
  0
LINE
  5
52D
  8
SAKUZU
  6
CONTINUOUS
 62
     4
 10
1403.213797747212
 20
2595.579694741714
 30
0.0
 11
1998.213797747211
 21
2595.579694741714
 31
0.0
  0
LINE
  5
52E
  8
SAKUZU
  6
CONTINUOUS
 62
     4
 10
1408.213797747212
 20
2555.579694741714
 30
0.0
 11
1408.213797747212
 21
1895.579694741714
 31
0.0
  0
LINE
  5
52F
  8
SAKUZU
  6
CONTINUOUS
 62
     4
 10
1938.213797747212
 20
1895.579694741714
 30
0.0
 11
1938.213797747212
 21
2555.579694741714
 31
0.0
  0
LINE
  5
530
  8
SAKUZU
  6
CONTINUOUS
 62
     4
 10
1408.213797747212
 20
1895.579694741714
 30
0.0
 11
1938.213797747212
 21
1895.579694741714
 31
0.0
  0
LINE
  5
531
  8
SAKUZU
  6
CONTINUOUS
 62
     4
 10
1427.213797747212
 20
1885.579694741714
 30
0.0
 11
1499.213797747212
 21
1885.579694741714
 31
0.0
  0
ARC
  5
532
  8
SAKUZU
  6
CONTINUOUS
 62
     4
 10
1499.213797747212
 20
1890.579694741714
 30
0.0
 40
5.000000000000028
 50
269.9999938590621
 51
0.0
  0
ARC
  5
533
  8
SAKUZU
  6
CONTINUOUS
 62
     4
 10
1427.213797747212
 20
1890.579694741714
 30
0.0
 40
5.0
 50
180.0
 51
269.9999938590621
  0
LINE
  5
534
  8
SAKUZU
  6
CONTINUOUS
 62
     4
 10
1504.213797747212
 20
1890.579694741714
 30
0.0
 11
1504.213797747212
 21
1895.579694741714
 31
0.0
  0
LINE
  5
535
  8
SAKUZU
  6
CONTINUOUS
 62
     4
 10
1422.213797747212
 20
1895.579694741714
 30
0.0
 11
1422.213797747212
 21
1890.579694741714
 31
0.0
  0
LINE
  5
536
  8
SAKUZU
  6
CONTINUOUS
 62
     4
 10
1444.213797747212
 20
1745.579694741714
 30
0.0
 11
1482.213797747212
 21
1745.579694741714
 31
0.0
  0
LINE
  5
537
  8
SAKUZU
  6
CONTINUOUS
 62
     4
 10
1482.213797747212
 20
1745.579694741714
 30
0.0
 11
1482.213797747212
 21
1765.579694741714
 31
0.0
  0
LINE
  5
538
  8
SAKUZU
  6
CONTINUOUS
 62
     4
 10
1444.213797747212
 20
1765.579694741714
 30
0.0
 11
1444.213797747212
 21
1745.579694741714
 31
0.0
  0
LINE
  5
539
  8
SAKUZU
  6
CONTINUOUS
 62
     4
 10
1438.213797747212
 20
1765.579694741714
 30
0.0
 11
1488.213797747212
 21
1765.579694741714
 31
0.0
  0
LINE
  5
53A
  8
SAKUZU
  6
CONTINUOUS
 62
     4
 10
1431.213797747212
 20
1885.579694741714
 30
0.0
 11
1438.213797747212
 21
1765.579694741714
 31
0.0
  0
LINE
  5
53B
  8
SAKUZU
  6
CONTINUOUS
 62
     4
 10
1495.213797747212
 20
1885.579694741714
 30
0.0
 11
1488.213797747212
 21
1765.579694741714
 31
0.0
  0
LINE
  5
53C
  8
SAKUZU
  6
CONTINUOUS
 62
     4
 10
1847.213797747211
 20
1885.579694741714
 30
0.0
 11
1919.213797747212
 21
1885.579694741714
 31
0.0
  0
ARC
  5
53D
  8
SAKUZU
  6
CONTINUOUS
 62
     4
 10
1919.213797747212
 20
1890.579694741714
 30
0.0
 40
5.000000000000028
 50
269.9999938590621
 51
0.0
  0
ARC
  5
53E
  8
SAKUZU
  6
CONTINUOUS
 62
     4
 10
1847.213797747211
 20
1890.579694741714
 30
0.0
 40
5.0
 50
180.0
 51
269.9999938590621
  0
LINE
  5
53F
  8
SAKUZU
  6
CONTINUOUS
 62
     4
 10
1924.213797747212
 20
1890.579694741714
 30
0.0
 11
1924.213797747212
 21
1895.579694741714
 31
0.0
  0
LINE
  5
540
  8
SAKUZU
  6
CONTINUOUS
 62
     4
 10
1842.213797747211
 20
1895.579694741714
 30
0.0
 11
1842.213797747211
 21
1890.579694741714
 31
0.0
  0
LINE
  5
541
  8
SAKUZU
  6
CONTINUOUS
 62
     4
 10
1864.213797747211
 20
1745.579694741714
 30
0.0
 11
1902.213797747211
 21
1745.579694741714
 31
0.0
  0
LINE
  5
542
  8
SAKUZU
  6
CONTINUOUS
 62
     4
 10
1902.213797747211
 20
1745.579694741714
 30
0.0
 11
1902.213797747211
 21
1765.579694741714
 31
0.0
  0
LINE
  5
543
  8
SAKUZU
  6
CONTINUOUS
 62
     4
 10
1864.213797747211
 20
1765.579694741714
 30
0.0
 11
1864.213797747211
 21
1745.579694741714
 31
0.0
  0
LINE
  5
544
  8
SAKUZU
  6
CONTINUOUS
 62
     4
 10
1858.213797747211
 20
1765.579694741714
 30
0.0
 11
1908.213797747211
 21
1765.579694741714
 31
0.0
  0
LINE
  5
545
  8
SAKUZU
  6
CONTINUOUS
 62
     4
 10
1851.213797747211
 20
1885.579694741714
 30
0.0
 11
1858.213797747211
 21
1765.579694741714
 31
0.0
  0
LINE
  5
546
  8
SAKUZU
  6
CONTINUOUS
 62
     4
 10
1915.213797747212
 20
1885.579694741714
 30
0.0
 11
1908.213797747211
 21
1765.579694741714
 31
0.0
  0
LINE
  5
547
  8
SAKUZU
  6
ISO-02___
 62
     4
 10
1408.213797747212
 20
1945.579694741714
 30
0.0
 11
1478.213797747212
 21
1945.579694741714
 31
0.0
  0
LINE
  5
548
  8
SAKUZU
  6
ISO-02___
 62
     4
 10
1478.213797747212
 20
1965.579694741714
 30
0.0
 11
1938.213797747212
 21
1965.579694741714
 31
0.0
  0
LINE
  5
549
  8
SAKUZU
  6
ISO-02___
 62
     4
 10
1478.213797747212
 20
1945.579694741714
 30
0.0
 11
1478.213797747212
 21
1965.579694741714
 31
0.0
  0
LINE
  5
54A
  8
SAKUZU
  6
ISO-02___
 62
     4
 10
1468.213797747212
 20
1955.579694741714
 30
0.0
 11
1448.213797747212
 21
1955.579694741714
 31
0.0
  0
LINE
  5
54B
  8
SAKUZU
  6
ISO-02___
 62
     4
 10
1438.213797747212
 20
1955.579694741714
 30
0.0
 11
1418.213797747212
 21
1955.579694741714
 31
0.0
  0
LINE
  5
54C
  8
SAKUZU
  6
ISO-02___
 62
     4
 10
1418.213797747212
 20
1955.579694741714
 30
0.0
 11
1418.213797747212
 21
2375.579694741714
 31
0.0
  0
LINE
  5
54D
  8
SAKUZU
  6
ISO-02___
 62
     4
 10
1418.213797747212
 20
2375.579694741714
 30
0.0
 11
1438.213797747212
 21
2375.579694741714
 31
0.0
  0
LINE
  5
54E
  8
SAKUZU
  6
ISO-02___
 62
     4
 10
1438.213797747212
 20
2375.579694741714
 30
0.0
 11
1438.213797747212
 21
1955.579694741714
 31
0.0
  0
LINE
  5
54F
  8
SAKUZU
  6
ISO-02___
 62
     4
 10
1448.213797747212
 20
1955.579694741714
 30
0.0
 11
1448.213797747212
 21
2375.579694741714
 31
0.0
  0
LINE
  5
550
  8
SAKUZU
  6
ISO-02___
 62
     4
 10
1448.213797747212
 20
2375.579694741714
 30
0.0
 11
1468.213797747212
 21
2375.579694741714
 31
0.0
  0
LINE
  5
551
  8
SAKUZU
  6
ISO-02___
 62
     4
 10
1468.213797747212
 20
2375.579694741714
 30
0.0
 11
1468.213797747212
 21
1955.579694741714
 31
0.0
  0
LINE
  5
552
  8
SAKUZU
  6
ISO-02___
 62
     4
 10
1428.21382826479
 20
2524.079694741714
 30
0.0
 11
1818.213797747211
 21
2524.079694741714
 31
0.0
  0
LINE
  5
553
  8
SAKUZU
  6
ISO-02___
 62
     4
 10
1818.213797747211
 20
2524.079694741714
 30
0.0
 11
1818.213797747211
 21
2430.079694741714
 31
0.0
  0
LINE
  5
554
  8
SAKUZU
  6
ISO-02___
 62
     4
 10
1818.213797747211
 20
2430.079694741714
 30
0.0
 11
1428.21382826479
 21
2430.079694741714
 31
0.0
  0
LINE
  5
555
  8
SAKUZU
  6
ISO-02___
 62
     4
 10
1428.21382826479
 20
2430.079694741714
 30
0.0
 11
1428.21382826479
 21
2524.079694741714
 31
0.0
  0
LINE
  5
556
  8
SAKUZU
  6
ISO-02___
 62
     4
 10
1428.21382826479
 20
2534.079694741714
 30
0.0
 11
1428.21382826479
 21
2524.079694741714
 31
0.0
  0
LINE
  5
557
  8
SAKUZU
  6
ISO-02___
 62
     4
 10
1428.21382826479
 20
2430.079694741714
 30
0.0
 11
1428.21382826479
 21
2417.079694741714
 31
0.0
  0
LINE
  5
558
  8
SAKUZU
  6
ISO-02___
 62
     4
 10
1408.21382826479
 20
2417.079694741714
 30
0.0
 11
1415.21382826479
 21
2417.079694741714
 31
0.0
  0
LINE
  5
559
  8
SAKUZU
  6
ISO-02___
 62
     4
 10
1421.21382826479
 20
2417.079694741714
 30
0.0
 11
1428.21382826479
 21
2417.079694741714
 31
0.0
  0
LINE
  5
55A
  8
SAKUZU
  6
ISO-02___
 62
     4
 10
1408.21382826479
 20
2534.079694741714
 30
0.0
 11
1415.21382826479
 21
2534.079694741714
 31
0.0
  0
LINE
  5
55B
  8
SAKUZU
  6
ISO-02___
 62
     4
 10
1421.21382826479
 20
2534.079694741714
 30
0.0
 11
1428.21382826479
 21
2534.079694741714
 31
0.0
  0
LINE
  5
55C
  8
SAKUZU
  6
CONTINUOUS
 62
    17
 10
-598.6099022667663
 20
2182.246381753433
 30
0.0
 11
-540.6099022667663
 21
2182.246381753433
 31
0.0
  0
LINE
  5
55D
  8
SAKUZU
  6
CONTINUOUS
 62
    17
 10
-539.6099022667663
 20
2183.246381753433
 30
0.0
 11
-539.6099022667663
 21
2301.246381753433
 31
0.0
  0
LINE
  5
55E
  8
SAKUZU
  6
CONTINUOUS
 62
    17
 10
-540.6099022667663
 20
2302.246381753433
 30
0.0
 11
-598.6099022667663
 21
2302.246381753433
 31
0.0
  0
LINE
  5
55F
  8
SAKUZU
  6
CONTINUOUS
 62
    17
 10
-599.6099022667663
 20
2301.246381753433
 30
0.0
 11
-599.6099022667663
 21
2183.246381753433
 31
0.0
  0
LINE
  5
560
  8
SAKUZU
  6
CONTINUOUS
 62
    17
 10
-578.1099022667663
 20
2199.246381753433
 30
0.0
 11
-561.1099022667663
 21
2199.246381753433
 31
0.0
  0
LINE
  5
561
  8
SAKUZU
  6
CONTINUOUS
 62
    17
 10
-558.6099022667663
 20
2201.746381753433
 30
0.0
 11
-558.6099022667663
 21
2282.746381753433
 31
0.0
  0
LINE
  5
562
  8
SAKUZU
  6
CONTINUOUS
 62
    17
 10
-561.1099022667663
 20
2285.246381753433
 30
0.0
 11
-578.1099022667663
 21
2285.246381753433
 31
0.0
  0
LINE
  5
563
  8
SAKUZU
  6
CONTINUOUS
 62
    17
 10
-580.6099022667663
 20
2282.746381753433
 30
0.0
 11
-580.6099022667663
 21
2201.746381753433
 31
0.0
  0
ARC
  5
564
  8
SAKUZU
  6
CONTINUOUS
 62
    17
 10
-578.1099022667663
 20
2282.746381753433
 30
0.0
 40
2.5
 50
90.0
 51
180.0
  0
ARC
  5
565
  8
SAKUZU
  6
CONTINUOUS
 62
    17
 10
-561.1099022667663
 20
2282.746381753433
 30
0.0
 40
2.500000000000014
 50
359.9999938590621
 51
90.0
  0
ARC
  5
566
  8
SAKUZU
  6
CONTINUOUS
 62
    17
 10
-561.1099022667663
 20
2201.746381753433
 30
0.0
 40
2.500000000000014
 50
269.9999938590621
 51
359.9999938590621
  0
ARC
  5
567
  8
SAKUZU
  6
CONTINUOUS
 62
    17
 10
-578.1099022667663
 20
2201.746381753433
 30
0.0
 40
2.5
 50
180.0
 51
269.9999938590621
  0
ARC
  5
568
  8
SAKUZU
  6
CONTINUOUS
 62
    17
 10
-540.6099022667663
 20
2301.246381753433
 30
0.0
 40
1.0
 50
0.0
 51
90.0
  0
ARC
  5
569
  8
SAKUZU
  6
CONTINUOUS
 62
    17
 10
-540.6099022667663
 20
2183.246381753433
 30
0.0
 40
1.000000000000006
 50
269.9999938590465
 51
0.0
  0
ARC
  5
56A
  8
SAKUZU
  6
CONTINUOUS
 62
    17
 10
-598.6099022667663
 20
2183.246381753433
 30
0.0
 40
1.0
 50
180.0
 51
269.9999938590465
  0
ARC
  5
56B
  8
SAKUZU
  6
CONTINUOUS
 62
    17
 10
-598.6099022667663
 20
2301.246381753433
 30
0.0
 40
1.0
 50
90.0
 51
180.0
  0
LINE
  5
56C
  8
SAKUZU
  6
CONTINUOUS
 62
    17
 10
87.39009010383927
 20
2182.246381753433
 30
0.0
 11
145.3900901038393
 21
2182.246381753433
 31
0.0
  0
LINE
  5
56D
  8
SAKUZU
  6
CONTINUOUS
 62
    17
 10
146.3900901038393
 20
2183.246381753433
 30
0.0
 11
146.3900901038393
 21
2301.246381753433
 31
0.0
  0
LINE
  5
56E
  8
SAKUZU
  6
CONTINUOUS
 62
    17
 10
145.3900901038393
 20
2302.246381753433
 30
0.0
 11
87.39009010383927
 21
2302.246381753433
 31
0.0
  0
LINE
  5
56F
  8
SAKUZU
  6
CONTINUOUS
 62
    17
 10
86.39009010383927
 20
2301.246381753433
 30
0.0
 11
86.39009010383927
 21
2183.246381753433
 31
0.0
  0
LINE
  5
570
  8
SAKUZU
  6
CONTINUOUS
 62
    17
 10
107.8900901038393
 20
2199.246381753433
 30
0.0
 11
124.8900901038393
 21
2199.246381753433
 31
0.0
  0
LINE
  5
571
  8
SAKUZU
  6
CONTINUOUS
 62
    17
 10
127.3900901038393
 20
2201.746381753433
 30
0.0
 11
127.3900901038393
 21
2282.746381753433
 31
0.0
  0
LINE
  5
572
  8
SAKUZU
  6
CONTINUOUS
 62
    17
 10
124.8900901038393
 20
2285.246381753433
 30
0.0
 11
107.8900901038393
 21
2285.246381753433
 31
0.0
  0
LINE
  5
573
  8
SAKUZU
  6
CONTINUOUS
 62
    17
 10
105.3900901038393
 20
2282.746381753433
 30
0.0
 11
105.3900901038393
 21
2201.746381753433
 31
0.0
  0
ARC
  5
574
  8
SAKUZU
  6
CONTINUOUS
 62
    17
 10
107.8900901038393
 20
2282.746381753433
 30
0.0
 40
2.5
 50
90.0
 51
180.0
  0
ARC
  5
575
  8
SAKUZU
  6
CONTINUOUS
 62
    17
 10
124.8900901038393
 20
2282.746381753433
 30
0.0
 40
2.500000000000014
 50
359.9999938590621
 51
90.0
  0
ARC
  5
576
  8
SAKUZU
  6
CONTINUOUS
 62
    17
 10
124.8900901038393
 20
2201.746381753433
 30
0.0
 40
2.500000000000014
 50
269.9999938590621
 51
359.9999938590621
  0
ARC
  5
577
  8
SAKUZU
  6
CONTINUOUS
 62
    17
 10
107.8900901038393
 20
2201.746381753433
 30
0.0
 40
2.5
 50
180.0
 51
269.9999938590621
  0
ARC
  5
578
  8
SAKUZU
  6
CONTINUOUS
 62
    17
 10
145.3900901038393
 20
2301.246381753433
 30
0.0
 40
1.0
 50
0.0
 51
90.0
  0
ARC
  5
579
  8
SAKUZU
  6
CONTINUOUS
 62
    17
 10
145.3900901038393
 20
2183.246381753433
 30
0.0
 40
1.000000000000006
 50
269.9999938590595
 51
0.0
  0
ARC
  5
57A
  8
SAKUZU
  6
CONTINUOUS
 62
    17
 10
87.39009010383927
 20
2183.246381753433
 30
0.0
 40
1.0
 50
180.0
 51
269.9999938590595
  0
ARC
  5
57B
  8
SAKUZU
  6
CONTINUOUS
 62
    17
 10
87.39009010383927
 20
2301.246381753433
 30
0.0
 40
1.0
 50
90.0
 51
180.0
  0
DIMENSION
  5
57C
  8
SAKUZU
  6
CONTINUOUS
 62
     2
  2
*D7
 10
-676.6099022667663
 20
3721.019092983591
 30
0.0
 11
-226.6099022667663
 21
3737.098213861967
 31
0.0
 70
    32
  3
SPEAC
 13
223.3900977332338
 23
3621.019092983591
 33
0.0
 14
-676.6099022667663
 24
3621.019092983591
 34
0.0
  0
DIMENSION
  5
57D
  8
SAKUZU
  6
CONTINUOUS
 62
     2
  2
*D8
 10
323.3900977332339
 20
3621.019092983591
 30
0.0
 11
307.3109768548582
 21
3321.019092983591
 31
0.0
 70
    32
  3
SPEAC
 13
223.3900977332338
 23
3021.019092983591
 33
0.0
 14
223.3900977332338
 24
3621.019092983591
 34
0.0
 50
-90.0
  0
DIMENSION
  5
57E
  8
SAKUZU
  6
CONTINUOUS
 62
     2
  2
*D9
 10
323.3900977332338
 20
2595.579694741714
 30
0.0
 11
307.310976854858
 21
2565.579694741714
 31
0.0
 70
    32
  3
SPEAC
 13
213.3900977332338
 23
2535.579694741714
 33
0.0
 14
223.3900977332343
 24
2595.579694741714
 34
0.0
 50
-90.0
  0
DIMENSION
  5
57F
  8
SAKUZU
  6
CONTINUOUS
 62
     2
  2
*D10
 10
323.3900977332338
 20
2535.579694741714
 30
0.0
 11
307.310976854858
 21
2475.579694741714
 31
0.0
 70
    32
  3
SPEAC
 13
213.3900977332338
 23
2415.579694741714
 33
0.0
 14
213.3900977332338
 24
2535.579694741714
 34
0.0
 50
-90.0
  0
DIMENSION
  5
580
  8
SAKUZU
  6
CONTINUOUS
 62
     2
  2
*D11
 10
323.3900977332338
 20
2415.579694741714
 30
0.0
 11
307.310976854858
 21
2390.579694741714
 31
0.0
 70
    32
  3
SPEAC
 13
213.3900977332338
 23
2365.579694741714
 33
0.0
 14
213.3900977332338
 24
2415.579694741714
 34
0.0
 50
-90.0
  0
DIMENSION
  5
583
  8
SAKUZU
  6
CONTINUOUS
 62
     2
  2
*D12
 10
323.3900977332338
 20
2365.579694741714
 30
0.0
 11
307.310976854858
 21
2155.579694741714
 31
0.0
 70
    32
  3
SPEAC
 13
213.3900977332338
 23
1945.579694741714
 33
0.0
 14
213.3900977332338
 24
2365.579694741714
 34
0.0
 50
-90.0
  0
DIMENSION
  5
584
  8
SAKUZU
  6
CONTINUOUS
 62
     2
  2
*D13
 10
323.3900977332338
 20
1945.579694741714
 30
0.0
 11
307.310976854858
 21
1920.579694741714
 31
0.0
 70
    32
  3
SPEAC
 13
213.3900977332338
 23
1895.579694741714
 33
0.0
 14
213.3900977332338
 24
1945.579694741714
 34
0.0
 50
-90.0
  0
DIMENSION
  5
587
  8
SAKUZU
  6
CONTINUOUS
 62
     2
  2
*D14
 10
1198.213797747212
 20
2595.579694741714
 30
0.0
 11
1182.134676868836
 21
2170.579694741714
 31
0.0
 70
    32
  3
SPEAC
 13
1444.213797747212
 23
1745.579694741714
 33
0.0
 14
1403.213797747212
 24
2595.579694741714
 34
0.0
 50
-90.0
  0
DIMENSION
  5
588
  8
SAKUZU
  6
CONTINUOUS
 62
     2
  2
*D15
 10
1298.213797747212
 20
2595.579694741714
 30
0.0
 11
1282.134676868836
 21
2575.579694741714
 31
0.0
 70
    32
  3
SPEAC
 13
1398.213797747212
 23
2555.579694741714
 33
0.0
 14
1403.213797747212
 24
2595.579694741714
 34
0.0
 50
-90.0
  0
DIMENSION
  5
58B
  8
SAKUZU
  6
CONTINUOUS
 62
     2
  2
*D16
 10
1298.213797747212
 20
1745.579694741714
 30
0.0
 11
1282.134676868836
 21
1820.579694741714
 31
0.0
 70
    32
  3
SPEAC
 13
1408.213797747212
 23
1895.579694741714
 33
0.0
 14
1444.213797747212
 24
1745.579694741714
 34
0.0
 50
-90.0
  0
DIMENSION
  5
58C
  8
SAKUZU
  6
CONTINUOUS
 62
     2
  2
*D17
 10
1398.213797747212
 20
2695.579694741714
 30
0.0
 11
1608.213797747212
 21
2711.65881562009
 31
0.0
 70
    32
  3
SPEAC
 13
1818.213797747211
 23
2524.079694741714
 33
0.0
 14
1398.213797747212
 24
2590.579694741714
 34
0.0
  0
LINE
  5
58D
  8
SAKUZU
  6
CONTINUOUS
 62
     2
 10
1399.67826384128
 20
2594.115228647647
 30
0.0
 11
1359.451522605754
 21
2695.579694741714
 31
0.0
  0
LINE
  5
58E
  8
SAKUZU
  6
CONTINUOUS
 62
     4
 10
1399.67826384128
 20
2594.115228647647
 30
0.0
 11
1385.565472946916
 21
2614.75085641062
 31
0.0
  0
LINE
  5
58F
  8
SAKUZU
  6
CONTINUOUS
 62
     2
 10
1399.67826384128
 20
2594.115228647647
 30
0.0
 11
1395.178853789148
 21
2618.707001848918
 31
0.0
  0
LINE
  5
590
  8
SAKUZU
  6
CONTINUOUS
 62
     2
 10
1359.451522605754
 20
2695.579694741714
 30
0.0
 11
1283.451522605754
 21
2695.579694741714
 31
0.0
  0
TEXT
  5
591
  8
SAKUZU
 62
     2
 10
1296.451522605754
 20
2708.533540895561
 30
0.0
 40
31.75824175824177
  1
R5
  7
YUGOTHIC_MEDIUM
 11
1296.451522605754
 21
2740.291782653802
 31
0.0
 73
     3
  0
LINE
  5
592
  8
SAKUZU
  6
CONTINUOUS
 62
     4
 10
-264.6099022667663
 20
2535.579694741714
 30
0.0
 11
-264.6099022667663
 21
2415.579694741714
 31
0.0
  0
LINE
  5
593
  8
SAKUZU
  6
CONTINUOUS
 62
     4
 10
-188.609963301923
 20
2535.579694741714
 30
0.0
 11
-188.609963301923
 21
2415.579694741714
 31
0.0
  0
LINE
  5
594
  8
SAKUZU
  6
CONTINUOUS
 62
     4
 10
-613.1099022667663
 20
2534.079694741714
 30
0.0
 11
-266.1099022667663
 21
2534.079694741714
 31
0.0
  0
LINE
  5
595
  8
SAKUZU
  6
CONTINUOUS
 62
     4
 10
-266.1099022667663
 20
2534.079694741714
 30
0.0
 11
-266.1099022667663
 21
2417.079694741714
 31
0.0
  0
LINE
  5
596
  8
SAKUZU
  6
CONTINUOUS
 62
     4
 10
-266.1099022667663
 20
2417.079694741714
 30
0.0
 11
-613.1099022667663
 21
2417.079694741714
 31
0.0
  0
LINE
  5
597
  8
SAKUZU
  6
CONTINUOUS
 62
     4
 10
-613.1099022667663
 20
2417.079694741714
 30
0.0
 11
-613.1099022667663
 21
2534.079694741714
 31
0.0
  0
LINE
  5
598
  8
SAKUZU
  6
CONTINUOUS
 62
    17
 10
-499.6099022667663
 20
2504.579694741714
 30
0.0
 11
-499.6099022667663
 21
2446.579694741714
 31
0.0
  0
LINE
  5
599
  8
SAKUZU
  6
CONTINUOUS
 62
    17
 10
-498.6099022667663
 20
2445.579694741714
 30
0.0
 11
-380.6099022667663
 21
2445.579694741714
 31
0.0
  0
LINE
  5
59A
  8
SAKUZU
  6
CONTINUOUS
 62
    17
 10
-379.6099022667663
 20
2446.579694741714
 30
0.0
 11
-379.6099022667663
 21
2504.579694741714
 31
0.0
  0
LINE
  5
59B
  8
SAKUZU
  6
CONTINUOUS
 62
    17
 10
-380.6099022667663
 20
2505.579694741714
 30
0.0
 11
-498.6099022667663
 21
2505.579694741714
 31
0.0
  0
LINE
  5
59C
  8
SAKUZU
  6
CONTINUOUS
 62
    17
 10
-382.9099022667656
 20
2503.379694741714
 30
0.0
 11
-496.3099022667661
 21
2503.379694741714
 31
0.0
  0
LINE
  5
59D
  8
SAKUZU
  6
CONTINUOUS
 62
    17
 10
-382.9099022667656
 20
2447.779694741714
 30
0.0
 11
-496.3099022667661
 21
2447.779694741714
 31
0.0
  0
LINE
  5
59E
  8
SAKUZU
  6
CONTINUOUS
 62
    17
 10
-382.4099022667656
 20
2502.879694741714
 30
0.0
 11
-382.4099022667656
 21
2448.279694741714
 31
0.0
  0
LINE
  5
59F
  8
SAKUZU
  6
CONTINUOUS
 62
    17
 10
-496.8099022667661
 20
2502.879694741714
 30
0.0
 11
-496.8099022667661
 21
2448.279694741714
 31
0.0
  0
LINE
  5
5A0
  8
SAKUZU
  6
CONTINUOUS
 62
    17
 10
-482.6099022667663
 20
2488.241395651831
 30
0.0
 11
-482.6099022667663
 21
2462.079694741714
 31
0.0
  0
LINE
  5
5A1
  8
SAKUZU
  6
CONTINUOUS
 62
    17
 10
-396.6099022667663
 20
2488.241395651831
 30
0.0
 11
-396.6099022667663
 21
2462.079694741714
 31
0.0
  0
LINE
  5
5A2
  8
SAKUZU
  6
CONTINUOUS
 62
    17
 10
-477.6099022667663
 20
2457.079694741714
 30
0.0
 11
-401.6099022667663
 21
2457.079694741714
 31
0.0
  0
ARC
  5
5A3
  8
SAKUZU
  6
CONTINUOUS
 62
    17
 10
-439.6099022667663
 20
3109.163028075047
 30
0.0
 40
617.0833333333334
 50
266.4978972696409
 51
273.5020904484849
  0
LINE
  5
5A4
  8
SAKUZU
  6
CONTINUOUS
 62
    17
 10
-474.6099022667663
 20
2472.579694741714
 30
0.0
 11
-404.6099022667663
 21
2472.579694741714
 31
0.0
  0
LINE
  5
5A5
  8
SAKUZU
  6
CONTINUOUS
 62
    17
 10
-474.6099022667663
 20
2472.579694741714
 30
0.0
 11
-474.6099022667663
 21
2493.073066886117
 31
0.0
  0
LINE
  5
5A6
  8
SAKUZU
  6
CONTINUOUS
 62
    17
 10
-404.6099022667663
 20
2493.073066886117
 30
0.0
 11
-404.6099022667663
 21
2472.579694741714
 31
0.0
  0
ARC
  5
5A7
  8
SAKUZU
  6
CONTINUOUS
 62
    17
 10
-467.7651799912742
 20
2459.232418728558
 30
0.0
 40
15.00000000000001
 50
117.1495639128208
 51
171.06329586608
  0
ARC
  5
5A8
  8
SAKUZU
  6
CONTINUOUS
 62
    17
 10
-477.6099022667663
 20
2488.241395651831
 30
0.0
 40
4.999999999999703
 50
86.4979034105789
 51
180.0
  0
ARC
  5
5A9
  8
SAKUZU
  6
CONTINUOUS
 62
    17
 10
-401.6099022667663
 20
2488.241395651831
 30
0.0
 40
5.0
 50
0.0
 51
93.50209658942636
  0
ARC
  5
5AA
  8
SAKUZU
  6
CONTINUOUS
 62
    17
 10
-401.6099022667663
 20
2462.079694741714
 30
0.0
 40
5.000000000000028
 50
269.9999938590621
 51
0.0
  0
ARC
  5
5AB
  8
SAKUZU
  6
CONTINUOUS
 62
    17
 10
-477.6099022667663
 20
2462.079694741714
 30
0.0
 40
5.0
 50
180.0
 51
269.9999938590621
  0
ARC
  5
5AC
  8
SAKUZU
  6
CONTINUOUS
 62
    17
 10
-411.4546245422575
 20
2459.232418728558
 30
0.0
 40
14.99999999999978
 50
8.936704133920271
 51
62.85043608718078
  0
ARC
  5
5AD
  8
SAKUZU
  6
CONTINUOUS
 62
    17
 10
-498.6099022667663
 20
2504.579694741714
 30
0.0
 40
1.0
 50
90.0
 51
180.0
  0
ARC
  5
5AE
  8
SAKUZU
  6
CONTINUOUS
 62
    17
 10
-498.6099022667663
 20
2446.579694741714
 30
0.0
 40
1.0
 50
180.0
 51
269.9999938590465
  0
ARC
  5
5AF
  8
SAKUZU
  6
CONTINUOUS
 62
    17
 10
-380.6099022667663
 20
2446.579694741714
 30
0.0
 40
1.000000000000006
 50
269.9999938590465
 51
0.0
  0
ARC
  5
5B0
  8
SAKUZU
  6
CONTINUOUS
 62
    17
 10
-380.6099022667663
 20
2504.579694741714
 30
0.0
 40
1.0
 50
0.0
 51
90.0
  0
ARC
  5
5B1
  8
SAKUZU
  6
CONTINUOUS
 62
    17
 10
-496.3099022667661
 20
2502.879694741714
 30
0.0
 40
0.5
 50
90.0
 51
180.0
  0
ARC
  5
5B2
  8
SAKUZU
  6
CONTINUOUS
 62
    17
 10
-382.9099022667656
 20
2502.879694741714
 30
0.0
 40
0.5
 50
0.0
 51
90.0
  0
ARC
  5
5B3
  8
SAKUZU
  6
CONTINUOUS
 62
    17
 10
-382.9099022667656
 20
2448.279694741714
 30
0.0
 40
0.5000000000000029
 50
269.9999938590204
 51
0.0
  0
ARC
  5
5B4
  8
SAKUZU
  6
CONTINUOUS
 62
    17
 10
-496.3099022667661
 20
2448.279694741714
 30
0.0
 40
0.5
 50
180.0
 51
269.9999938590204
  0
LINE
  5
5B5
  8
SAKUZU
  6
CONTINUOUS
 62
     4
 10
-187.109963301923
 20
2534.079694741714
 30
0.0
 11
159.8900366980776
 21
2534.079694741714
 31
0.0
  0
LINE
  5
5B6
  8
SAKUZU
  6
CONTINUOUS
 62
     4
 10
159.8900366980776
 20
2534.079694741714
 30
0.0
 11
159.8900366980776
 21
2417.079694741714
 31
0.0
  0
LINE
  5
5B7
  8
SAKUZU
  6
CONTINUOUS
 62
     4
 10
159.8900366980776
 20
2417.079694741714
 30
0.0
 11
-187.109963301923
 21
2417.079694741714
 31
0.0
  0
LINE
  5
5B8
  8
SAKUZU
  6
CONTINUOUS
 62
     4
 10
-187.109963301923
 20
2417.079694741714
 30
0.0
 11
-187.109963301923
 21
2534.079694741714
 31
0.0
  0
LINE
  5
5B9
  8
SAKUZU
  6
CONTINUOUS
 62
    17
 10
-73.60996330192245
 20
2504.579694741714
 30
0.0
 11
-73.60996330192245
 21
2446.579694741714
 31
0.0
  0
LINE
  5
5BA
  8
SAKUZU
  6
CONTINUOUS
 62
    17
 10
-72.60996330192245
 20
2445.579694741714
 30
0.0
 11
45.39003669807755
 21
2445.579694741714
 31
0.0
  0
LINE
  5
5BB
  8
SAKUZU
  6
CONTINUOUS
 62
    17
 10
46.39003669807755
 20
2446.579694741714
 30
0.0
 11
46.39003669807755
 21
2504.579694741714
 31
0.0
  0
LINE
  5
5BC
  8
SAKUZU
  6
CONTINUOUS
 62
    17
 10
45.39003669807755
 20
2505.579694741714
 30
0.0
 11
-72.60996330192245
 21
2505.579694741714
 31
0.0
  0
LINE
  5
5BD
  8
SAKUZU
  6
CONTINUOUS
 62
    17
 10
43.09003669807782
 20
2503.379694741714
 30
0.0
 11
-70.30996330192272
 21
2503.379694741714
 31
0.0
  0
LINE
  5
5BE
  8
SAKUZU
  6
CONTINUOUS
 62
    17
 10
43.09003669807782
 20
2447.779694741714
 30
0.0
 11
-70.30996330192272
 21
2447.779694741714
 31
0.0
  0
LINE
  5
5BF
  8
SAKUZU
  6
CONTINUOUS
 62
    17
 10
43.59003669807782
 20
2502.879694741714
 30
0.0
 11
43.59003669807782
 21
2448.279694741714
 31
0.0
  0
LINE
  5
5C0
  8
SAKUZU
  6
CONTINUOUS
 62
    17
 10
-70.80996330192272
 20
2502.879694741714
 30
0.0
 11
-70.80996330192272
 21
2448.279694741714
 31
0.0
  0
LINE
  5
5C1
  8
SAKUZU
  6
CONTINUOUS
 62
    17
 10
-56.60996330192245
 20
2488.241395651831
 30
0.0
 11
-56.60996330192245
 21
2462.079694741714
 31
0.0
  0
LINE
  5
5C2
  8
SAKUZU
  6
CONTINUOUS
 62
    17
 10
29.39003669807755
 20
2488.241395651831
 30
0.0
 11
29.39003669807755
 21
2462.079694741714
 31
0.0
  0
LINE
  5
5C3
  8
SAKUZU
  6
CONTINUOUS
 62
    17
 10
-51.60996330192245
 20
2457.079694741714
 30
0.0
 11
24.39003669807755
 21
2457.079694741714
 31
0.0
  0
ARC
  5
5C4
  8
SAKUZU
  6
CONTINUOUS
 62
    17
 10
-13.60996330192245
 20
3109.163028075047
 30
0.0
 40
617.0833333333334
 50
266.4978972696409
 51
273.5020904484849
  0
LINE
  5
5C5
  8
SAKUZU
  6
CONTINUOUS
 62
    17
 10
-48.60996330192245
 20
2472.579694741714
 30
0.0
 11
21.39003669807755
 21
2472.579694741714
 31
0.0
  0
LINE
  5
5C6
  8
SAKUZU
  6
CONTINUOUS
 62
    17
 10
-48.60996330192245
 20
2472.579694741714
 30
0.0
 11
-48.60996330192245
 21
2493.073066886117
 31
0.0
  0
LINE
  5
5C7
  8
SAKUZU
  6
CONTINUOUS
 62
    17
 10
21.39003669807755
 20
2493.073066886117
 30
0.0
 11
21.39003669807755
 21
2472.579694741714
 31
0.0
  0
ARC
  5
5C8
  8
SAKUZU
  6
CONTINUOUS
 62
    17
 10
-41.76524102643077
 20
2459.232418728558
 30
0.0
 40
15.00000000000001
 50
117.1495639128208
 51
171.0632958660799
  0
ARC
  5
5C9
  8
SAKUZU
  6
CONTINUOUS
 62
    17
 10
-51.60996330192245
 20
2488.241395651831
 30
0.0
 40
4.999999999999703
 50
86.4979034105789
 51
180.0
  0
ARC
  5
5CA
  8
SAKUZU
  6
CONTINUOUS
 62
    17
 10
24.39003669807755
 20
2488.241395651831
 30
0.0
 40
5.0
 50
0.0
 51
93.50209658942113
  0
ARC
  5
5CB
  8
SAKUZU
  6
CONTINUOUS
 62
    17
 10
24.39003669807755
 20
2462.079694741714
 30
0.0
 40
5.000000000000028
 50
269.9999938590621
 51
0.0
  0
ARC
  5
5CC
  8
SAKUZU
  6
CONTINUOUS
 62
    17
 10
-51.60996330192245
 20
2462.079694741714
 30
0.0
 40
5.0
 50
180.0
 51
269.9999938590621
  0
ARC
  5
5CD
  8
SAKUZU
  6
CONTINUOUS
 62
    17
 10
14.54531442258633
 20
2459.232418728558
 30
0.0
 40
15.0
 50
8.936704133920136
 51
62.85043608717921
  0
ARC
  5
5CE
  8
SAKUZU
  6
CONTINUOUS
 62
    17
 10
-72.60996330192245
 20
2504.579694741714
 30
0.0
 40
1.0
 50
90.0
 51
180.0
  0
ARC
  5
5CF
  8
SAKUZU
  6
CONTINUOUS
 62
    17
 10
-72.60996330192245
 20
2446.579694741714
 30
0.0
 40
1.0
 50
180.0
 51
269.9999938590595
  0
ARC
  5
5D0
  8
SAKUZU
  6
CONTINUOUS
 62
    17
 10
45.39003669807755
 20
2446.579694741714
 30
0.0
 40
1.000000000000006
 50
269.9999938590595
 51
0.0
  0
ARC
  5
5D1
  8
SAKUZU
  6
CONTINUOUS
 62
    17
 10
45.39003669807755
 20
2504.579694741714
 30
0.0
 40
1.0
 50
0.0
 51
90.0
  0
ARC
  5
5D2
  8
SAKUZU
  6
CONTINUOUS
 62
    17
 10
-70.30996330192272
 20
2502.879694741714
 30
0.0
 40
0.5
 50
90.0
 51
180.0
  0
ARC
  5
5D3
  8
SAKUZU
  6
CONTINUOUS
 62
    17
 10
43.09003669807782
 20
2502.879694741714
 30
0.0
 40
0.5
 50
0.0
 51
90.0
  0
ARC
  5
5D4
  8
SAKUZU
  6
CONTINUOUS
 62
    17
 10
43.09003669807782
 20
2448.279694741714
 30
0.0
 40
0.5000000000000029
 50
269.9999938590726
 51
0.0
  0
ARC
  5
5D5
  8
SAKUZU
  6
CONTINUOUS
 62
    17
 10
-70.30996330192272
 20
2448.279694741714
 30
0.0
 40
0.5
 50
180.0
 51
269.9999938590726
  0
DIMENSION
  5
5D6
  8
SAKUZU
  6
CONTINUOUS
 62
     2
  2
*D18
 10
-188.609963301923
 20
2695.579694741714
 30
0.0
 11
-13.60993278434461
 21
2711.65881562009
 31
0.0
 70
    32
  3
SPEAC
 13
161.3900977332338
 23
2595.579694741714
 33
0.0
 14
-188.609963301923
 24
2595.579694741714
 34
0.0
  0
LINE
  5
5D7
  8
SAKUZU
  6
CONTINUOUS
 62
     1
 10
-676.6099022667663
 20
6639.439398241877
 30
0.0
 11
-676.6099022667663
 21
6039.439398241877
 31
0.0
  0
LINE
  5
5D8
  8
SAKUZU
  6
CONTINUOUS
 62
     1
 10
-676.6099022667663
 20
6039.439398241877
 30
0.0
 11
223.3900977332343
 21
6039.439398241877
 31
0.0
  0
LINE
  5
5D9
  8
SAKUZU
  6
CONTINUOUS
 62
     1
 10
223.3900977332343
 20
6639.439398241877
 30
0.0
 11
-676.6099022667663
 21
6639.439398241877
 31
0.0
  0
LINE
  5
5DA
  8
SAKUZU
  6
CONTINUOUS
 62
     1
 10
223.3900977332343
 20
6639.439398241877
 30
0.0
 11
223.3900977332347
 21
6039.439398241877
 31
0.0
  0
LINE
  5
5DB
  8
SAKUZU
  6
CONTINUOUS
 62
     1
 10
-676.6099022667663
 20
6579.439398241877
 30
0.0
 11
223.3900977332343
 21
6579.439398241877
 31
0.0
  0
LINE
  5
5DC
  8
SAKUZU
  6
CONTINUOUS
 62
     4
 10
223.3900977332343
 20
5764.0
 30
0.0
 11
223.3900977332343
 21
5574.0
 31
0.0
  0
LINE
  5
5DD
  8
SAKUZU
  6
CONTINUOUS
 62
     4
 10
223.3900977332343
 20
5614.0
 30
0.0
 11
-676.6099022667663
 21
5614.0
 31
0.0
  0
LINE
  5
5DE
  8
SAKUZU
  6
CONTINUOUS
 62
     4
 10
-676.6099022667663
 20
5764.0
 30
0.0
 11
-676.6099022667663
 21
5574.0
 31
0.0
  0
LINE
  5
5DF
  8
SAKUZU
  6
CONTINUOUS
 62
     4
 10
-676.6099022667663
 20
5574.0
 30
0.0
 11
223.3900977332343
 21
5574.0
 31
0.0
  0
LINE
  5
5E0
  8
SAKUZU
  6
CONTINUOUS
 62
     4
 10
-666.6099022667663
 20
5574.0
 30
0.0
 11
-666.6099022667663
 21
4914.0
 31
0.0
  0
LINE
  5
5E1
  8
SAKUZU
  6
CONTINUOUS
 62
     4
 10
213.3900977332343
 20
4914.0
 30
0.0
 11
213.3900977332343
 21
5574.0
 31
0.0
  0
LINE
  5
5E2
  8
SAKUZU
  6
CONTINUOUS
 62
     4
 10
-676.6099022667663
 20
5764.0
 30
0.0
 11
223.3900977332343
 21
5764.0
 31
0.0
  0
LINE
  5
5E3
  8
SAKUZU
  6
CONTINUOUS
 62
     4
 10
-666.6099022667663
 20
4914.0
 30
0.0
 11
213.3900977332343
 21
4914.0
 31
0.0
  0
LINE
  5
5E4
  8
SAKUZU
  6
CONTINUOUS
 62
     4
 10
-647.6099022667663
 20
4904.0
 30
0.0
 11
-575.6099022667663
 21
4904.0
 31
0.0
  0
ARC
  5
5E5
  8
SAKUZU
  6
CONTINUOUS
 62
     4
 10
-575.6099022667663
 20
4909.0
 30
0.0
 40
5.000000000000028
 50
269.9999938590621
 51
0.0
  0
ARC
  5
5E6
  8
SAKUZU
  6
CONTINUOUS
 62
     4
 10
-647.6099022667663
 20
4909.0
 30
0.0
 40
5.0
 50
180.0
 51
269.9999938590621
  0
LINE
  5
5E7
  8
SAKUZU
  6
CONTINUOUS
 62
     4
 10
-570.6099022667663
 20
4909.0
 30
0.0
 11
-570.6099022667663
 21
4914.0
 31
0.0
  0
LINE
  5
5E8
  8
SAKUZU
  6
CONTINUOUS
 62
     4
 10
-652.6099022667663
 20
4914.0
 30
0.0
 11
-652.6099022667663
 21
4909.0
 31
0.0
  0
LINE
  5
5E9
  8
SAKUZU
  6
CONTINUOUS
 62
     4
 10
-630.6099022667663
 20
4764.0
 30
0.0
 11
-592.6099022667663
 21
4764.0
 31
0.0
  0
LINE
  5
5EA
  8
SAKUZU
  6
CONTINUOUS
 62
     4
 10
-592.6099022667663
 20
4764.0
 30
0.0
 11
-592.6099022667663
 21
4784.0
 31
0.0
  0
LINE
  5
5EB
  8
SAKUZU
  6
CONTINUOUS
 62
     4
 10
-630.6099022667663
 20
4784.0
 30
0.0
 11
-630.6099022667663
 21
4764.0
 31
0.0
  0
LINE
  5
5EC
  8
SAKUZU
  6
CONTINUOUS
 62
     4
 10
-636.6099022667663
 20
4784.0
 30
0.0
 11
-586.6099022667663
 21
4784.0
 31
0.0
  0
LINE
  5
5ED
  8
SAKUZU
  6
CONTINUOUS
 62
     4
 10
-643.6099022667663
 20
4904.0
 30
0.0
 11
-636.6099022667663
 21
4784.0
 31
0.0
  0
LINE
  5
5EE
  8
SAKUZU
  6
CONTINUOUS
 62
     4
 10
-579.6099022667663
 20
4904.0
 30
0.0
 11
-586.6099022667663
 21
4784.0
 31
0.0
  0
LINE
  5
5EF
  8
SAKUZU
  6
CONTINUOUS
 62
     4
 10
122.3900977332343
 20
4904.0
 30
0.0
 11
194.3900977332343
 21
4904.0
 31
0.0
  0
ARC
  5
5F0
  8
SAKUZU
  6
CONTINUOUS
 62
     4
 10
194.3900977332343
 20
4909.0
 30
0.0
 40
5.000000000000028
 50
269.9999938590621
 51
0.0
  0
ARC
  5
5F1
  8
SAKUZU
  6
CONTINUOUS
 62
     4
 10
122.3900977332343
 20
4909.0
 30
0.0
 40
5.0
 50
180.0
 51
269.9999938590621
  0
LINE
  5
5F2
  8
SAKUZU
  6
CONTINUOUS
 62
     4
 10
199.3900977332343
 20
4909.0
 30
0.0
 11
199.3900977332343
 21
4914.0
 31
0.0
  0
LINE
  5
5F3
  8
SAKUZU
  6
CONTINUOUS
 62
     4
 10
117.3900977332343
 20
4914.0
 30
0.0
 11
117.3900977332343
 21
4909.0
 31
0.0
  0
LINE
  5
5F4
  8
SAKUZU
  6
CONTINUOUS
 62
     4
 10
139.3900977332343
 20
4764.0
 30
0.0
 11
177.3900977332343
 21
4764.0
 31
0.0
  0
LINE
  5
5F5
  8
SAKUZU
  6
CONTINUOUS
 62
     4
 10
177.3900977332343
 20
4764.0
 30
0.0
 11
177.3900977332343
 21
4784.0
 31
0.0
  0
LINE
  5
5F6
  8
SAKUZU
  6
CONTINUOUS
 62
     4
 10
139.3900977332343
 20
4784.0
 30
0.0
 11
139.3900977332343
 21
4764.0
 31
0.0
  0
LINE
  5
5F7
  8
SAKUZU
  6
CONTINUOUS
 62
     4
 10
133.3900977332343
 20
4784.0
 30
0.0
 11
183.3900977332343
 21
4784.0
 31
0.0
  0
LINE
  5
5F8
  8
SAKUZU
  6
CONTINUOUS
 62
     4
 10
126.3900977332343
 20
4904.0
 30
0.0
 11
133.3900977332343
 21
4784.0
 31
0.0
  0
LINE
  5
5F9
  8
SAKUZU
  6
CONTINUOUS
 62
     4
 10
190.3900977332343
 20
4904.0
 30
0.0
 11
183.3900977332343
 21
4784.0
 31
0.0
  0
LINE
  5
5FA
  8
SAKUZU
  6
CONTINUOUS
 62
     4
 10
-614.6099022667663
 20
5574.0
 30
0.0
 11
-614.6099022667663
 21
4914.0
 31
0.0
  0
LINE
  5
5FB
  8
SAKUZU
  6
CONTINUOUS
 62
     4
 10
161.3900977332343
 20
5574.0
 30
0.0
 11
161.3900977332343
 21
4914.0
 31
0.0
  0
LINE
  5
5FC
  8
SAKUZU
  6
CONTINUOUS
 62
     4
 10
-614.6099022667663
 20
4964.0
 30
0.0
 11
161.3900977332343
 21
4964.0
 31
0.0
  0
LINE
  5
5FD
  8
SAKUZU
  6
CONTINUOUS
 62
     4
 10
-238.6099022667663
 20
4964.0
 30
0.0
 11
-238.6099022667663
 21
5384.0
 31
0.0
  0
LINE
  5
5FE
  8
SAKUZU
  6
ISO-02___
 62
     4
 10
-214.6099022667663
 20
5384.0
 30
0.0
 11
-214.6099022667663
 21
4964.0
 31
0.0
  0
LINE
  5
5FF
  8
SAKUZU
  6
CONTINUOUS
 62
     4
 10
-614.6099022667663
 20
5554.0
 30
0.0
 11
161.390097733234
 21
5554.0
 31
0.0
  0
LINE
  5
600
  8
SAKUZU
  6
CONTINUOUS
 62
     4
 10
-614.6099022667663
 20
5434.0
 30
0.0
 11
161.390097733234
 21
5434.0
 31
0.0
  0
LINE
  5
601
  8
SAKUZU
  6
CONTINUOUS
 62
     4
 10
-614.6099022667663
 20
5384.0
 30
0.0
 11
161.390097733234
 21
5384.0
 31
0.0
  0
LINE
  5
602
  8
SAKUZU
  6
CONTINUOUS
 62
     4
 10
1998.213797747212
 20
5764.0
 30
0.0
 11
1998.213797747212
 21
5574.0
 31
0.0
  0
LINE
  5
603
  8
SAKUZU
  6
CONTINUOUS
 62
     4
 10
1998.213797747212
 20
5574.0
 30
0.0
 11
1398.213797747212
 21
5574.0
 31
0.0
  0
LINE
  5
604
  8
SAKUZU
  6
CONTINUOUS
 62
     4
 10
1398.213797747212
 20
5574.0
 30
0.0
 11
1398.213797747212
 21
5609.0
 31
0.0
  0
ARC
  5
605
  8
SAKUZU
  6
CONTINUOUS
 62
     4
 10
1403.213797747212
 20
5609.0
 30
0.0
 40
5.0
 50
90.0
 51
180.0
  0
LINE
  5
606
  8
SAKUZU
  6
CONTINUOUS
 62
     4
 10
1403.213797747212
 20
5614.0
 30
0.0
 11
1933.213797747212
 21
5614.0
 31
0.0
  0
ARC
  5
607
  8
SAKUZU
  6
CONTINUOUS
 62
     4
 10
1933.213797747212
 20
5619.0
 30
0.0
 40
5.000000000000028
 50
269.9999938590621
 51
0.0
  0
LINE
  5
608
  8
SAKUZU
  6
CONTINUOUS
 62
     4
 10
1938.213797747212
 20
5619.0
 30
0.0
 11
1938.213797747212
 21
5759.0
 31
0.0
  0
ARC
  5
609
  8
SAKUZU
  6
CONTINUOUS
 62
     4
 10
1943.213797747212
 20
5759.0
 30
0.0
 40
5.0
 50
90.0
 51
180.0
  0
LINE
  5
60A
  8
SAKUZU
  6
CONTINUOUS
 62
     4
 10
1943.213797747212
 20
5764.0
 30
0.0
 11
1998.213797747212
 21
5764.0
 31
0.0
  0
LINE
  5
60B
  8
SAKUZU
  6
CONTINUOUS
 62
     4
 10
1408.213797747212
 20
5574.0
 30
0.0
 11
1408.213797747212
 21
4914.0
 31
0.0
  0
LINE
  5
60C
  8
SAKUZU
  6
CONTINUOUS
 62
     4
 10
1938.213797747212
 20
4914.0
 30
0.0
 11
1938.213797747212
 21
5574.0
 31
0.0
  0
LINE
  5
60D
  8
SAKUZU
  6
CONTINUOUS
 62
     4
 10
1408.213797747212
 20
4914.0
 30
0.0
 11
1938.213797747212
 21
4914.0
 31
0.0
  0
LINE
  5
60E
  8
SAKUZU
  6
CONTINUOUS
 62
     4
 10
1427.213797747212
 20
4904.0
 30
0.0
 11
1499.213797747212
 21
4904.0
 31
0.0
  0
ARC
  5
60F
  8
SAKUZU
  6
CONTINUOUS
 62
     4
 10
1499.213797747212
 20
4909.0
 30
0.0
 40
5.000000000000028
 50
269.9999938590621
 51
0.0
  0
ARC
  5
610
  8
SAKUZU
  6
CONTINUOUS
 62
     4
 10
1427.213797747212
 20
4909.0
 30
0.0
 40
5.0
 50
180.0
 51
269.9999938590621
  0
LINE
  5
611
  8
SAKUZU
  6
CONTINUOUS
 62
     4
 10
1504.213797747212
 20
4909.0
 30
0.0
 11
1504.213797747212
 21
4914.0
 31
0.0
  0
LINE
  5
612
  8
SAKUZU
  6
CONTINUOUS
 62
     4
 10
1422.213797747212
 20
4914.0
 30
0.0
 11
1422.213797747212
 21
4909.0
 31
0.0
  0
LINE
  5
613
  8
SAKUZU
  6
CONTINUOUS
 62
     4
 10
1444.213797747212
 20
4764.0
 30
0.0
 11
1482.213797747212
 21
4764.0
 31
0.0
  0
LINE
  5
614
  8
SAKUZU
  6
CONTINUOUS
 62
     4
 10
1482.213797747212
 20
4764.0
 30
0.0
 11
1482.213797747212
 21
4784.0
 31
0.0
  0
LINE
  5
615
  8
SAKUZU
  6
CONTINUOUS
 62
     4
 10
1444.213797747212
 20
4784.0
 30
0.0
 11
1444.213797747212
 21
4764.0
 31
0.0
  0
LINE
  5
616
  8
SAKUZU
  6
CONTINUOUS
 62
     4
 10
1438.213797747212
 20
4784.0
 30
0.0
 11
1488.213797747212
 21
4784.0
 31
0.0
  0
LINE
  5
617
  8
SAKUZU
  6
CONTINUOUS
 62
     4
 10
1431.213797747212
 20
4904.0
 30
0.0
 11
1438.213797747212
 21
4784.0
 31
0.0
  0
LINE
  5
618
  8
SAKUZU
  6
CONTINUOUS
 62
     4
 10
1495.213797747212
 20
4904.0
 30
0.0
 11
1488.213797747212
 21
4784.0
 31
0.0
  0
LINE
  5
619
  8
SAKUZU
  6
CONTINUOUS
 62
     4
 10
1847.213797747212
 20
4904.0
 30
0.0
 11
1919.213797747212
 21
4904.0
 31
0.0
  0
ARC
  5
61A
  8
SAKUZU
  6
CONTINUOUS
 62
     4
 10
1919.213797747212
 20
4909.0
 30
0.0
 40
5.000000000000028
 50
269.9999938590621
 51
0.0
  0
ARC
  5
61B
  8
SAKUZU
  6
CONTINUOUS
 62
     4
 10
1847.213797747212
 20
4909.0
 30
0.0
 40
5.0
 50
180.0
 51
269.9999938590621
  0
LINE
  5
61C
  8
SAKUZU
  6
CONTINUOUS
 62
     4
 10
1924.213797747212
 20
4909.0
 30
0.0
 11
1924.213797747212
 21
4914.0
 31
0.0
  0
LINE
  5
61D
  8
SAKUZU
  6
CONTINUOUS
 62
     4
 10
1842.213797747212
 20
4914.0
 30
0.0
 11
1842.213797747212
 21
4909.0
 31
0.0
  0
LINE
  5
61E
  8
SAKUZU
  6
CONTINUOUS
 62
     4
 10
1864.213797747212
 20
4764.0
 30
0.0
 11
1902.213797747212
 21
4764.0
 31
0.0
  0
LINE
  5
61F
  8
SAKUZU
  6
CONTINUOUS
 62
     4
 10
1902.213797747212
 20
4764.0
 30
0.0
 11
1902.213797747212
 21
4784.0
 31
0.0
  0
LINE
  5
620
  8
SAKUZU
  6
CONTINUOUS
 62
     4
 10
1864.213797747212
 20
4784.0
 30
0.0
 11
1864.213797747212
 21
4764.0
 31
0.0
  0
LINE
  5
621
  8
SAKUZU
  6
CONTINUOUS
 62
     4
 10
1858.213797747212
 20
4784.0
 30
0.0
 11
1908.213797747212
 21
4784.0
 31
0.0
  0
LINE
  5
622
  8
SAKUZU
  6
CONTINUOUS
 62
     4
 10
1851.213797747212
 20
4904.0
 30
0.0
 11
1858.213797747212
 21
4784.0
 31
0.0
  0
LINE
  5
623
  8
SAKUZU
  6
CONTINUOUS
 62
     4
 10
1915.213797747212
 20
4904.0
 30
0.0
 11
1908.213797747212
 21
4784.0
 31
0.0
  0
LINE
  5
624
  8
SAKUZU
  6
ISO-02___
 62
     4
 10
1408.213797747212
 20
4964.0
 30
0.0
 11
1478.213797747212
 21
4964.0
 31
0.0
  0
LINE
  5
625
  8
SAKUZU
  6
ISO-02___
 62
     4
 10
1478.213797747212
 20
4984.0
 30
0.0
 11
1938.213797747212
 21
4984.0
 31
0.0
  0
LINE
  5
626
  8
SAKUZU
  6
ISO-02___
 62
     4
 10
1478.213797747212
 20
4964.0
 30
0.0
 11
1478.213797747212
 21
4984.0
 31
0.0
  0
LINE
  5
627
  8
SAKUZU
  6
ISO-02___
 62
     4
 10
1468.213797747212
 20
4974.0
 30
0.0
 11
1448.213797747212
 21
4974.0
 31
0.0
  0
LINE
  5
628
  8
SAKUZU
  6
ISO-02___
 62
     4
 10
1438.213797747212
 20
4974.0
 30
0.0
 11
1418.213797747212
 21
4974.0
 31
0.0
  0
LINE
  5
629
  8
SAKUZU
  6
ISO-02___
 62
     4
 10
1418.213797747212
 20
4974.0
 30
0.0
 11
1418.213797747212
 21
5394.0
 31
0.0
  0
LINE
  5
62A
  8
SAKUZU
  6
ISO-02___
 62
     4
 10
1418.213797747212
 20
5394.0
 30
0.0
 11
1438.213797747212
 21
5394.0
 31
0.0
  0
LINE
  5
62B
  8
SAKUZU
  6
ISO-02___
 62
     4
 10
1438.213797747212
 20
5394.0
 30
0.0
 11
1438.213797747212
 21
4974.0
 31
0.0
  0
LINE
  5
62C
  8
SAKUZU
  6
ISO-02___
 62
     4
 10
1448.213797747212
 20
4974.0
 30
0.0
 11
1448.213797747212
 21
5394.0
 31
0.0
  0
LINE
  5
62D
  8
SAKUZU
  6
ISO-02___
 62
     4
 10
1448.213797747212
 20
5394.0
 30
0.0
 11
1468.213797747212
 21
5394.0
 31
0.0
  0
LINE
  5
62E
  8
SAKUZU
  6
ISO-02___
 62
     4
 10
1468.213797747212
 20
5394.0
 30
0.0
 11
1468.213797747212
 21
4974.0
 31
0.0
  0
LINE
  5
62F
  8
SAKUZU
  6
ISO-02___
 62
     4
 10
1428.21382826479
 20
5542.5
 30
0.0
 11
1818.213797747212
 21
5542.5
 31
0.0
  0
LINE
  5
630
  8
SAKUZU
  6
ISO-02___
 62
     4
 10
1818.213797747212
 20
5542.5
 30
0.0
 11
1818.213797747212
 21
5448.5
 31
0.0
  0
LINE
  5
631
  8
SAKUZU
  6
ISO-02___
 62
     4
 10
1818.213797747212
 20
5448.5
 30
0.0
 11
1428.21382826479
 21
5448.5
 31
0.0
  0
LINE
  5
632
  8
SAKUZU
  6
ISO-02___
 62
     4
 10
1428.21382826479
 20
5448.5
 30
0.0
 11
1428.21382826479
 21
5542.5
 31
0.0
  0
LINE
  5
633
  8
SAKUZU
  6
ISO-02___
 62
     4
 10
1428.21382826479
 20
5552.5
 30
0.0
 11
1428.21382826479
 21
5542.5
 31
0.0
  0
LINE
  5
634
  8
SAKUZU
  6
ISO-02___
 62
     4
 10
1428.21382826479
 20
5448.5
 30
0.0
 11
1428.21382826479
 21
5435.5
 31
0.0
  0
LINE
  5
635
  8
SAKUZU
  6
ISO-02___
 62
     4
 10
1408.21382826479
 20
5435.5
 30
0.0
 11
1415.21382826479
 21
5435.5
 31
0.0
  0
LINE
  5
636
  8
SAKUZU
  6
ISO-02___
 62
     4
 10
1421.21382826479
 20
5435.5
 30
0.0
 11
1428.21382826479
 21
5435.5
 31
0.0
  0
LINE
  5
637
  8
SAKUZU
  6
ISO-02___
 62
     4
 10
1408.21382826479
 20
5552.5
 30
0.0
 11
1415.21382826479
 21
5552.5
 31
0.0
  0
LINE
  5
638
  8
SAKUZU
  6
ISO-02___
 62
     4
 10
1421.21382826479
 20
5552.5
 30
0.0
 11
1428.21382826479
 21
5552.5
 31
0.0
  0
LINE
  5
639
  8
SAKUZU
  6
CONTINUOUS
 62
    17
 10
-598.6099022667663
 20
5200.666687011719
 30
0.0
 11
-540.6099022667663
 21
5200.666687011719
 31
0.0
  0
LINE
  5
63A
  8
SAKUZU
  6
CONTINUOUS
 62
    17
 10
-539.6099022667663
 20
5201.666687011719
 30
0.0
 11
-539.6099022667663
 21
5319.666687011719
 31
0.0
  0
LINE
  5
63B
  8
SAKUZU
  6
CONTINUOUS
 62
    17
 10
-540.6099022667663
 20
5320.666687011719
 30
0.0
 11
-598.6099022667663
 21
5320.666687011719
 31
0.0
  0
LINE
  5
63C
  8
SAKUZU
  6
CONTINUOUS
 62
    17
 10
-599.6099022667663
 20
5319.666687011719
 30
0.0
 11
-599.6099022667663
 21
5201.666687011719
 31
0.0
  0
LINE
  5
63D
  8
SAKUZU
  6
CONTINUOUS
 62
    17
 10
-578.1099022667663
 20
5217.666687011719
 30
0.0
 11
-561.1099022667663
 21
5217.666687011719
 31
0.0
  0
LINE
  5
63E
  8
SAKUZU
  6
CONTINUOUS
 62
    17
 10
-558.6099022667663
 20
5220.166687011719
 30
0.0
 11
-558.6099022667663
 21
5301.166687011719
 31
0.0
  0
LINE
  5
63F
  8
SAKUZU
  6
CONTINUOUS
 62
    17
 10
-561.1099022667663
 20
5303.666687011719
 30
0.0
 11
-578.1099022667663
 21
5303.666687011719
 31
0.0
  0
LINE
  5
640
  8
SAKUZU
  6
CONTINUOUS
 62
    17
 10
-580.6099022667663
 20
5301.166687011719
 30
0.0
 11
-580.6099022667663
 21
5220.166687011719
 31
0.0
  0
ARC
  5
641
  8
SAKUZU
  6
CONTINUOUS
 62
    17
 10
-578.1099022667663
 20
5301.166687011719
 30
0.0
 40
2.5
 50
90.0
 51
180.0
  0
ARC
  5
642
  8
SAKUZU
  6
CONTINUOUS
 62
    17
 10
-561.1099022667663
 20
5301.166687011719
 30
0.0
 40
2.500000000000014
 50
359.9999938590621
 51
90.0
  0
ARC
  5
643
  8
SAKUZU
  6
CONTINUOUS
 62
    17
 10
-561.1099022667663
 20
5220.166687011719
 30
0.0
 40
2.500000000000014
 50
269.9999938590621
 51
359.9999938590621
  0
ARC
  5
644
  8
SAKUZU
  6
CONTINUOUS
 62
    17
 10
-578.1099022667663
 20
5220.166687011719
 30
0.0
 40
2.5
 50
180.0
 51
269.9999938590621
  0
ARC
  5
645
  8
SAKUZU
  6
CONTINUOUS
 62
    17
 10
-540.6099022667663
 20
5319.666687011719
 30
0.0
 40
1.0
 50
0.0
 51
90.0
  0
ARC
  5
646
  8
SAKUZU
  6
CONTINUOUS
 62
    17
 10
-540.6099022667663
 20
5201.666687011719
 30
0.0
 40
1.000000000000006
 50
269.9999938590726
 51
0.0
  0
ARC
  5
647
  8
SAKUZU
  6
CONTINUOUS
 62
    17
 10
-598.6099022667663
 20
5201.666687011719
 30
0.0
 40
1.0
 50
180.0
 51
269.9999938590726
  0
ARC
  5
648
  8
SAKUZU
  6
CONTINUOUS
 62
    17
 10
-598.6099022667663
 20
5319.666687011719
 30
0.0
 40
1.0
 50
90.0
 51
180.0
  0
LINE
  5
649
  8
SAKUZU
  6
CONTINUOUS
 62
    17
 10
87.39009010383973
 20
5200.666687011719
 30
0.0
 11
145.3900901038397
 21
5200.666687011719
 31
0.0
  0
LINE
  5
64A
  8
SAKUZU
  6
CONTINUOUS
 62
    17
 10
146.3900901038397
 20
5201.666687011719
 30
0.0
 11
146.3900901038397
 21
5319.666687011719
 31
0.0
  0
LINE
  5
64B
  8
SAKUZU
  6
CONTINUOUS
 62
    17
 10
145.3900901038397
 20
5320.666687011719
 30
0.0
 11
87.39009010383973
 21
5320.666687011719
 31
0.0
  0
LINE
  5
64C
  8
SAKUZU
  6
CONTINUOUS
 62
    17
 10
86.39009010383973
 20
5319.666687011719
 30
0.0
 11
86.39009010383973
 21
5201.666687011719
 31
0.0
  0
LINE
  5
64D
  8
SAKUZU
  6
CONTINUOUS
 62
    17
 10
107.8900901038397
 20
5217.666687011719
 30
0.0
 11
124.8900901038397
 21
5217.666687011719
 31
0.0
  0
LINE
  5
64E
  8
SAKUZU
  6
CONTINUOUS
 62
    17
 10
127.3900901038397
 20
5220.166687011719
 30
0.0
 11
127.3900901038397
 21
5301.166687011719
 31
0.0
  0
LINE
  5
64F
  8
SAKUZU
  6
CONTINUOUS
 62
    17
 10
124.8900901038397
 20
5303.666687011719
 30
0.0
 11
107.8900901038397
 21
5303.666687011719
 31
0.0
  0
LINE
  5
650
  8
SAKUZU
  6
CONTINUOUS
 62
    17
 10
105.3900901038397
 20
5301.166687011719
 30
0.0
 11
105.3900901038397
 21
5220.166687011719
 31
0.0
  0
ARC
  5
651
  8
SAKUZU
  6
CONTINUOUS
 62
    17
 10
107.8900901038397
 20
5301.166687011719
 30
0.0
 40
2.5
 50
90.0
 51
180.0
  0
ARC
  5
652
  8
SAKUZU
  6
CONTINUOUS
 62
    17
 10
124.8900901038397
 20
5301.166687011719
 30
0.0
 40
2.500000000000014
 50
359.9999938590621
 51
90.0
  0
ARC
  5
653
  8
SAKUZU
  6
CONTINUOUS
 62
    17
 10
124.8900901038397
 20
5220.166687011719
 30
0.0
 40
2.500000000000014
 50
269.9999938590621
 51
359.9999938590621
  0
ARC
  5
654
  8
SAKUZU
  6
CONTINUOUS
 62
    17
 10
107.8900901038397
 20
5220.166687011719
 30
0.0
 40
2.5
 50
180.0
 51
269.9999938590621
  0
ARC
  5
655
  8
SAKUZU
  6
CONTINUOUS
 62
    17
 10
145.3900901038397
 20
5319.666687011719
 30
0.0
 40
1.0
 50
0.0
 51
90.0
  0
ARC
  5
656
  8
SAKUZU
  6
CONTINUOUS
 62
    17
 10
145.3900901038397
 20
5201.666687011719
 30
0.0
 40
1.000000000000006
 50
269.9999938590595
 51
0.0
  0
ARC
  5
657
  8
SAKUZU
  6
CONTINUOUS
 62
    17
 10
87.39009010383973
 20
5201.666687011719
 30
0.0
 40
1.0
 50
180.0
 51
269.9999938590595
  0
ARC
  5
658
  8
SAKUZU
  6
CONTINUOUS
 62
    17
 10
87.39009010383973
 20
5319.666687011719
 30
0.0
 40
1.0
 50
90.0
 51
180.0
  0
DIMENSION
  5
659
  8
SAKUZU
  6
CONTINUOUS
 62
     2
  2
*D19
 10
-676.6099022667663
 20
6839.439398241877
 30
0.0
 11
-226.609902266766
 21
6855.518519120253
 31
0.0
 70
    32
  3
SPEAC
 13
223.3900977332343
 23
6639.439398241877
 33
0.0
 14
-676.6099022667663
 24
6639.439398241877
 34
0.0
  0
DIMENSION
  5
65A
  8
SAKUZU
  6
CONTINUOUS
 62
     2
  2
*D20
 10
423.3900977332343
 20
6639.439398241877
 30
0.0
 11
407.3109768548585
 21
6339.439398241877
 31
0.0
 70
    32
  3
SPEAC
 13
223.3900977332343
 23
6039.439398241877
 33
0.0
 14
223.3900977332343
 24
6639.439398241877
 34
0.0
 50
-90.0
  0
DIMENSION
  5
65B
  8
SAKUZU
  6
CONTINUOUS
 62
     2
  2
*D21
 10
323.3900977332343
 20
6639.439398241877
 30
0.0
 11
307.3109768548585
 21
6609.439398241877
 31
0.0
 70
    32
  3
SPEAC
 13
223.3900977332343
 23
6579.439398241877
 33
0.0
 14
223.3900977332343
 24
6639.439398241877
 34
0.0
 50
-90.0
  0
DIMENSION
  5
65C
  8
SAKUZU
  6
CONTINUOUS
 62
     2
  2
*D22
 10
323.3900977332343
 20
6579.439398241877
 30
0.0
 11
307.3109768548585
 21
6309.439398241877
 31
0.0
 70
    32
  3
SPEAC
 13
223.3900977332347
 23
6039.439398241877
 33
0.0
 14
223.3900977332343
 24
6579.439398241877
 34
0.0
 50
-90.0
  0
DIMENSION
  5
65D
  8
SAKUZU
  6
CONTINUOUS
 62
     2
  2
*D23
 10
423.3900977332343
 20
5614.0
 30
0.0
 11
407.3109768548585
 21
5584.0
 31
0.0
 70
    32
  3
SPEAC
 13
213.3900977332343
 23
5554.0
 33
0.0
 14
223.3900977332347
 24
5614.0
 34
0.0
 50
-90.0
  0
DIMENSION
  5
65E
  8
SAKUZU
  6
CONTINUOUS
 62
     2
  2
*D24
 10
423.3900977332343
 20
5554.0
 30
0.0
 11
407.3109768548585
 21
5494.0
 31
0.0
 70
    32
  3
SPEAC
 13
213.3900977332343
 23
5434.0
 33
0.0
 14
213.3900977332343
 24
5554.0
 34
0.0
 50
-90.0
  0
DIMENSION
  5
65F
  8
SAKUZU
  6
CONTINUOUS
 62
     2
  2
*D25
 10
423.3900977332343
 20
5434.0
 30
0.0
 11
407.3109768548585
 21
5409.0
 31
0.0
 70
    32
  3
SPEAC
 13
213.3900977332343
 23
5384.0
 33
0.0
 14
213.3900977332343
 24
5434.0
 34
0.0
 50
-90.0
  0
DIMENSION
  5
662
  8
SAKUZU
  6
CONTINUOUS
 62
     2
  2
*D26
 10
423.3900977332343
 20
5384.0
 30
0.0
 11
407.3109768548585
 21
5174.0
 31
0.0
 70
    32
  3
SPEAC
 13
213.3900977332343
 23
4964.0
 33
0.0
 14
213.3900977332343
 24
5384.0
 34
0.0
 50
-90.0
  0
DIMENSION
  5
663
  8
SAKUZU
  6
CONTINUOUS
 62
     2
  2
*D27
 10
423.3900977332343
 20
4964.0
 30
0.0
 11
407.3109768548585
 21
4939.0
 31
0.0
 70
    32
  3
SPEAC
 13
213.3900977332343
 23
4914.0
 33
0.0
 14
213.3900977332343
 24
4964.0
 34
0.0
 50
-90.0
  0
DIMENSION
  5
666
  8
SAKUZU
  6
CONTINUOUS
 62
     2
  2
*D28
 10
1198.213797747212
 20
5614.0
 30
0.0
 11
1182.134676868836
 21
5189.0
 31
0.0
 70
    32
  3
SPEAC
 13
1444.213797747212
 23
4764.0
 33
0.0
 14
1403.213797747212
 24
5614.0
 34
0.0
 50
-90.0
  0
DIMENSION
  5
667
  8
SAKUZU
  6
CONTINUOUS
 62
     2
  2
*D29
 10
1298.213797747212
 20
5614.0
 30
0.0
 11
1282.134676868836
 21
5594.0
 31
0.0
 70
    32
  3
SPEAC
 13
1398.213797747212
 23
5574.0
 33
0.0
 14
1403.213797747212
 24
5614.0
 34
0.0
 50
-90.0
  0
DIMENSION
  5
66A
  8
SAKUZU
  6
CONTINUOUS
 62
     2
  2
*D30
 10
1298.213797747212
 20
4764.0
 30
0.0
 11
1282.134676868836
 21
4839.0
 31
0.0
 70
    32
  3
SPEAC
 13
1408.213797747212
 23
4914.0
 33
0.0
 14
1444.213797747212
 24
4764.0
 34
0.0
 50
-90.0
  0
DIMENSION
  5
66B
  8
SAKUZU
  6
CONTINUOUS
 62
     2
  2
*D31
 10
1198.213797747213
 20
5614.0
 30
0.0
 11
1182.134676868837
 21
5689.0
 31
0.0
 70
    32
  3
SPEAC
 13
1943.213797747212
 23
5764.0
 33
0.0
 14
1403.213797747212
 24
5614.0
 34
0.0
 50
-90.0
  0
DIMENSION
  5
66C
  8
SAKUZU
  6
CONTINUOUS
 62
     2
  2
*D32
 10
1398.213797747212
 20
5863.985637488755
 30
0.0
 11
1608.213797747212
 21
5880.064758367131
 31
0.0
 70
    32
  3
SPEAC
 13
1818.213797747212
 23
5542.5
 33
0.0
 14
1398.213797747212
 24
5609.0
 34
0.0
  0
LINE
  5
66D
  8
SAKUZU
  6
CONTINUOUS
 62
     2
 10
1399.678263841281
 20
5612.535533905933
 30
0.0
 11
1299.982317103457
 21
5864.0
 31
0.0
  0
LINE
  5
66E
  8
SAKUZU
  6
CONTINUOUS
 62
     2
 10
1399.678263841281
 20
5612.535533905933
 30
0.0
 11
1385.565472946916
 21
5633.171161668906
 31
0.0
  0
LINE
  5
66F
  8
SAKUZU
  6
CONTINUOUS
 62
     2
 10
1399.678263841281
 20
5612.535533905933
 30
0.0
 11
1395.178853789148
 21
5637.127307107205
 31
0.0
  0
LINE
  5
670
  8
SAKUZU
  6
CONTINUOUS
 62
     2
 10
1936.749331653145
 20
5615.464466094067
 30
0.0
 11
1838.213797747212
 21
5864.0
 31
0.0
  0
LINE
  5
671
  8
SAKUZU
  6
CONTINUOUS
 62
     2
 10
1939.678263841281
 20
5762.535533905933
 30
0.0
 11
1838.2137977571
 21
5863.999999990112
 31
0.0
  0
LINE
  5
672
  8
SAKUZU
  6
CONTINUOUS
 62
     2
 10
1939.678263841281
 20
5762.535533905933
 30
0.0
 11
1918.711499642644
 21
5776.151509781308
 31
0.0
  0
LINE
  5
673
  8
SAKUZU
  6
CONTINUOUS
 62
     2
 10
1939.678263841281
 20
5762.535533905933
 30
0.0
 11
1926.062287965904
 21
5783.502298104568
 31
0.0
  0
LINE
  5
674
  8
SAKUZU
  6
CONTINUOUS
 62
     2
 10
1936.749331646302
 20
5615.464466100449
 30
0.0
 11
1922.645311195983
 21
5636.106089271532
 31
0.0
  0
LINE
  5
675
  8
SAKUZU
  6
CONTINUOUS
 62
     2
 10
1936.749331646302
 20
5615.464466100449
 30
0.0
 11
1932.260372345656
 21
5640.058149118597
 31
0.0
  0
LINE
  5
676
  8
SAKUZU
  6
CONTINUOUS
 62
     2
 10
1299.982317103457
 20
5864.0
 30
0.0
 11
1223.982317103457
 21
5864.0
 31
0.0
  0
TEXT
  5
677
  8
SAKUZU
 62
     2
 10
1236.982317103457
 20
5876.953846153847
 30
0.0
 40
31.75824175824177
  1
R5
  7
YUGOTHIC_MEDIUM
 11
1236.982317103457
 21
5908.712087912088
 31
0.0
 73
     3
  0
LINE
  5
678
  8
SAKUZU
  6
CONTINUOUS
 62
     2
 10
1914.2137977571
 20
5863.999999990112
 30
0.0
 11
1838.2137977571
 21
5863.999999990112
 31
0.0
  0
TEXT
  5
679
  8
SAKUZU
 62
     2
 10
1851.2137977571
 20
5876.953846143959
 30
0.0
 40
31.75824175824177
  1
R5
  7
YUGOTHIC_MEDIUM
 11
1851.2137977571
 21
5908.7120879022
 31
0.0
 73
     3
  0
LINE
  5
67A
  8
SAKUZU
  6
CONTINUOUS
 62
     4
 10
-264.6099022667663
 20
5554.0
 30
0.0
 11
-264.6099022667663
 21
5434.0
 31
0.0
  0
LINE
  5
67B
  8
SAKUZU
  6
CONTINUOUS
 62
     4
 10
-188.6099633019226
 20
5554.0
 30
0.0
 11
-188.6099633019226
 21
5434.0
 31
0.0
  0
LINE
  5
67C
  8
SAKUZU
  6
CONTINUOUS
 62
     4
 10
-613.1099022667663
 20
5552.5
 30
0.0
 11
-266.1099022667663
 21
5552.5
 31
0.0
  0
LINE
  5
67D
  8
SAKUZU
  6
CONTINUOUS
 62
     4
 10
-266.1099022667663
 20
5552.5
 30
0.0
 11
-266.1099022667663
 21
5435.5
 31
0.0
  0
LINE
  5
67E
  8
SAKUZU
  6
CONTINUOUS
 62
     4
 10
-266.1099022667663
 20
5435.5
 30
0.0
 11
-613.1099022667663
 21
5435.5
 31
0.0
  0
LINE
  5
67F
  8
SAKUZU
  6
CONTINUOUS
 62
     4
 10
-613.1099022667663
 20
5435.5
 30
0.0
 11
-613.1099022667663
 21
5552.5
 31
0.0
  0
LINE
  5
680
  8
SAKUZU
  6
CONTINUOUS
 62
    17
 10
-499.6099022667663
 20
5523.0
 30
0.0
 11
-499.6099022667663
 21
5465.0
 31
0.0
  0
LINE
  5
681
  8
SAKUZU
  6
CONTINUOUS
 62
    17
 10
-498.6099022667663
 20
5464.0
 30
0.0
 11
-380.6099022667663
 21
5464.0
 31
0.0
  0
LINE
  5
682
  8
SAKUZU
  6
CONTINUOUS
 62
    17
 10
-379.6099022667663
 20
5465.0
 30
0.0
 11
-379.6099022667663
 21
5523.0
 31
0.0
  0
LINE
  5
683
  8
SAKUZU
  6
CONTINUOUS
 62
    17
 10
-380.6099022667663
 20
5524.0
 30
0.0
 11
-498.6099022667663
 21
5524.0
 31
0.0
  0
LINE
  5
684
  8
SAKUZU
  6
CONTINUOUS
 62
    17
 10
-382.9099022667656
 20
5521.8
 30
0.0
 11
-496.3099022667661
 21
5521.8
 31
0.0
  0
LINE
  5
685
  8
SAKUZU
  6
CONTINUOUS
 62
    17
 10
-382.9099022667656
 20
5466.2
 30
0.0
 11
-496.3099022667661
 21
5466.2
 31
0.0
  0
LINE
  5
686
  8
SAKUZU
  6
CONTINUOUS
 62
    17
 10
-382.4099022667656
 20
5521.3
 30
0.0
 11
-382.4099022667656
 21
5466.7
 31
0.0
  0
LINE
  5
687
  8
SAKUZU
  6
CONTINUOUS
 62
    17
 10
-496.8099022667661
 20
5521.3
 30
0.0
 11
-496.8099022667661
 21
5466.7
 31
0.0
  0
LINE
  5
688
  8
SAKUZU
  6
CONTINUOUS
 62
    17
 10
-482.6099022667663
 20
5506.661700910117
 30
0.0
 11
-482.6099022667663
 21
5480.5
 31
0.0
  0
LINE
  5
689
  8
SAKUZU
  6
CONTINUOUS
 62
    17
 10
-396.6099022667663
 20
5506.661700910117
 30
0.0
 11
-396.6099022667663
 21
5480.5
 31
0.0
  0
LINE
  5
68A
  8
SAKUZU
  6
CONTINUOUS
 62
    17
 10
-477.6099022667663
 20
5475.5
 30
0.0
 11
-401.6099022667663
 21
5475.5
 31
0.0
  0
ARC
  5
68B
  8
SAKUZU
  6
CONTINUOUS
 62
    17
 10
-439.6099022667663
 20
6127.583333333333
 30
0.0
 40
617.0833333333334
 50
266.4978972696409
 51
273.5020904484849
  0
LINE
  5
68C
  8
SAKUZU
  6
CONTINUOUS
 62
    17
 10
-474.6099022667663
 20
5491.0
 30
0.0
 11
-404.6099022667663
 21
5491.0
 31
0.0
  0
LINE
  5
68D
  8
SAKUZU
  6
CONTINUOUS
 62
    17
 10
-474.6099022667663
 20
5491.0
 30
0.0
 11
-474.6099022667663
 21
5511.493372144403
 31
0.0
  0
LINE
  5
68E
  8
SAKUZU
  6
CONTINUOUS
 62
    17
 10
-404.6099022667663
 20
5511.493372144403
 30
0.0
 11
-404.6099022667663
 21
5491.0
 31
0.0
  0
ARC
  5
68F
  8
SAKUZU
  6
CONTINUOUS
 62
    17
 10
-467.7651799912742
 20
5477.652723986844
 30
0.0
 40
14.9999999999998
 50
117.1495639128193
 51
171.0632958660797
  0
ARC
  5
690
  8
SAKUZU
  6
CONTINUOUS
 62
    17
 10
-477.6099022667663
 20
5506.661700910117
 30
0.0
 40
4.999999999999731
 50
86.4979034105737
 51
180.0
  0
ARC
  5
691
  8
SAKUZU
  6
CONTINUOUS
 62
    17
 10
-401.6099022667663
 20
5506.661700910117
 30
0.0
 40
5.0
 50
0.0
 51
93.50209658942113
  0
ARC
  5
692
  8
SAKUZU
  6
CONTINUOUS
 62
    17
 10
-401.6099022667663
 20
5480.5
 30
0.0
 40
5.000000000000028
 50
269.9999938590621
 51
0.0
  0
ARC
  5
693
  8
SAKUZU
  6
CONTINUOUS
 62
    17
 10
-477.6099022667663
 20
5480.5
 30
0.0
 40
5.0
 50
180.0
 51
269.9999938590621
  0
ARC
  5
694
  8
SAKUZU
  6
CONTINUOUS
 62
    17
 10
-411.4546245422575
 20
5477.652723986844
 30
0.0
 40
15.00000000000023
 50
8.936704133920001
 51
62.85043608717921
  0
ARC
  5
695
  8
SAKUZU
  6
CONTINUOUS
 62
    17
 10
-498.6099022667663
 20
5523.0
 30
0.0
 40
1.0
 50
90.0
 51
180.0
  0
ARC
  5
696
  8
SAKUZU
  6
CONTINUOUS
 62
    17
 10
-498.6099022667663
 20
5465.0
 30
0.0
 40
1.0
 50
180.0
 51
269.9999938590726
  0
ARC
  5
697
  8
SAKUZU
  6
CONTINUOUS
 62
    17
 10
-380.6099022667663
 20
5465.0
 30
0.0
 40
1.000000000000006
 50
269.9999938590726
 51
0.0
  0
ARC
  5
698
  8
SAKUZU
  6
CONTINUOUS
 62
    17
 10
-380.6099022667663
 20
5523.0
 30
0.0
 40
1.0
 50
0.0
 51
90.0
  0
ARC
  5
699
  8
SAKUZU
  6
CONTINUOUS
 62
    17
 10
-496.3099022667661
 20
5521.3
 30
0.0
 40
0.5
 50
90.0
 51
180.0
  0
ARC
  5
69A
  8
SAKUZU
  6
CONTINUOUS
 62
    17
 10
-382.9099022667656
 20
5521.3
 30
0.0
 40
0.5
 50
0.0
 51
90.0
  0
ARC
  5
69B
  8
SAKUZU
  6
CONTINUOUS
 62
    17
 10
-382.9099022667656
 20
5466.7
 30
0.0
 40
0.5000000000000029
 50
269.9999938590726
 51
0.0
  0
ARC
  5
69C
  8
SAKUZU
  6
CONTINUOUS
 62
    17
 10
-496.3099022667661
 20
5466.7
 30
0.0
 40
0.5
 50
180.0
 51
269.9999938590726
  0
LINE
  5
69D
  8
SAKUZU
  6
CONTINUOUS
 62
     4
 10
-187.1099633019226
 20
5552.5
 30
0.0
 11
159.890036698078
 21
5552.5
 31
0.0
  0
LINE
  5
69E
  8
SAKUZU
  6
CONTINUOUS
 62
     4
 10
159.890036698078
 20
5552.5
 30
0.0
 11
159.890036698078
 21
5435.5
 31
0.0
  0
LINE
  5
69F
  8
SAKUZU
  6
CONTINUOUS
 62
     4
 10
159.890036698078
 20
5435.5
 30
0.0
 11
-187.1099633019226
 21
5435.5
 31
0.0
  0
LINE
  5
6A0
  8
SAKUZU
  6
CONTINUOUS
 62
     4
 10
-187.1099633019226
 20
5435.5
 30
0.0
 11
-187.1099633019226
 21
5552.5
 31
0.0
  0
LINE
  5
6A1
  8
SAKUZU
  6
CONTINUOUS
 62
    17
 10
-73.609963301922
 20
5523.0
 30
0.0
 11
-73.609963301922
 21
5465.0
 31
0.0
  0
LINE
  5
6A2
  8
SAKUZU
  6
CONTINUOUS
 62
    17
 10
-72.609963301922
 20
5464.0
 30
0.0
 11
45.39003669807801
 21
5464.0
 31
0.0
  0
LINE
  5
6A3
  8
SAKUZU
  6
CONTINUOUS
 62
    17
 10
46.39003669807801
 20
5465.0
 30
0.0
 11
46.39003669807801
 21
5523.0
 31
0.0
  0
LINE
  5
6A4
  8
SAKUZU
  6
CONTINUOUS
 62
    17
 10
45.39003669807801
 20
5524.0
 30
0.0
 11
-72.609963301922
 21
5524.0
 31
0.0
  0
LINE
  5
6A5
  8
SAKUZU
  6
CONTINUOUS
 62
    17
 10
43.09003669807828
 20
5521.8
 30
0.0
 11
-70.30996330192227
 21
5521.8
 31
0.0
  0
LINE
  5
6A6
  8
SAKUZU
  6
CONTINUOUS
 62
    17
 10
43.09003669807828
 20
5466.2
 30
0.0
 11
-70.30996330192227
 21
5466.2
 31
0.0
  0
LINE
  5
6A7
  8
SAKUZU
  6
CONTINUOUS
 62
    17
 10
43.59003669807828
 20
5521.3
 30
0.0
 11
43.59003669807828
 21
5466.7
 31
0.0
  0
LINE
  5
6A8
  8
SAKUZU
  6
CONTINUOUS
 62
    17
 10
-70.80996330192227
 20
5521.3
 30
0.0
 11
-70.80996330192227
 21
5466.7
 31
0.0
  0
LINE
  5
6A9
  8
SAKUZU
  6
CONTINUOUS
 62
    17
 10
-56.60996330192199
 20
5506.661700910117
 30
0.0
 11
-56.60996330192199
 21
5480.5
 31
0.0
  0
LINE
  5
6AA
  8
SAKUZU
  6
CONTINUOUS
 62
    17
 10
29.39003669807801
 20
5506.661700910117
 30
0.0
 11
29.39003669807801
 21
5480.5
 31
0.0
  0
LINE
  5
6AB
  8
SAKUZU
  6
CONTINUOUS
 62
    17
 10
-51.60996330192199
 20
5475.5
 30
0.0
 11
24.39003669807801
 21
5475.5
 31
0.0
  0
ARC
  5
6AC
  8
SAKUZU
  6
CONTINUOUS
 62
    17
 10
-13.60996330192199
 20
6127.583333333333
 30
0.0
 40
617.0833333333334
 50
266.4978972696409
 51
273.5020904484849
  0
LINE
  5
6AD
  8
SAKUZU
  6
CONTINUOUS
 62
    17
 10
-48.60996330192199
 20
5491.0
 30
0.0
 11
21.39003669807801
 21
5491.0
 31
0.0
  0
LINE
  5
6AE
  8
SAKUZU
  6
CONTINUOUS
 62
    17
 10
-48.60996330192199
 20
5491.0
 30
0.0
 11
-48.60996330192199
 21
5511.493372144403
 31
0.0
  0
LINE
  5
6AF
  8
SAKUZU
  6
CONTINUOUS
 62
    17
 10
21.39003669807801
 20
5511.493372144403
 30
0.0
 11
21.39003669807801
 21
5491.0
 31
0.0
  0
ARC
  5
6B0
  8
SAKUZU
  6
CONTINUOUS
 62
    17
 10
-41.76524102643032
 20
5477.652723986844
 30
0.0
 40
15.00000000000001
 50
117.1495639128208
 51
171.0632958660799
  0
ARC
  5
6B1
  8
SAKUZU
  6
CONTINUOUS
 62
    17
 10
-51.60996330192199
 20
5506.661700910117
 30
0.0
 40
4.999999999999703
 50
86.4979034105789
 51
180.0
  0
ARC
  5
6B2
  8
SAKUZU
  6
CONTINUOUS
 62
    17
 10
24.39003669807801
 20
5506.661700910117
 30
0.0
 40
5.0
 50
0.0
 51
93.50209658942113
  0
ARC
  5
6B3
  8
SAKUZU
  6
CONTINUOUS
 62
    17
 10
24.39003669807801
 20
5480.5
 30
0.0
 40
5.000000000000028
 50
269.9999938590621
 51
0.0
  0
ARC
  5
6B4
  8
SAKUZU
  6
CONTINUOUS
 62
    17
 10
-51.60996330192199
 20
5480.5
 30
0.0
 40
5.0
 50
180.0
 51
269.9999938590621
  0
ARC
  5
6B5
  8
SAKUZU
  6
CONTINUOUS
 62
    17
 10
14.54531442258678
 20
5477.652723986844
 30
0.0
 40
15.0
 50
8.936704133920136
 51
62.85043608717921
  0
ARC
  5
6B6
  8
SAKUZU
  6
CONTINUOUS
 62
    17
 10
-72.609963301922
 20
5523.0
 30
0.0
 40
1.0
 50
90.0
 51
180.0
  0
ARC
  5
6B7
  8
SAKUZU
  6
CONTINUOUS
 62
    17
 10
-72.609963301922
 20
5465.0
 30
0.0
 40
1.0
 50
180.0
 51
269.9999938590595
  0
ARC
  5
6B8
  8
SAKUZU
  6
CONTINUOUS
 62
    17
 10
45.39003669807801
 20
5465.0
 30
0.0
 40
1.000000000000006
 50
269.9999938590595
 51
0.0
  0
ARC
  5
6B9
  8
SAKUZU
  6
CONTINUOUS
 62
    17
 10
45.39003669807801
 20
5523.0
 30
0.0
 40
1.0
 50
0.0
 51
90.0
  0
ARC
  5
6BA
  8
SAKUZU
  6
CONTINUOUS
 62
    17
 10
-70.30996330192227
 20
5521.3
 30
0.0
 40
0.5
 50
90.0
 51
180.0
  0
ARC
  5
6BB
  8
SAKUZU
  6
CONTINUOUS
 62
    17
 10
43.09003669807828
 20
5521.3
 30
0.0
 40
0.5
 50
0.0
 51
90.0
  0
ARC
  5
6BC
  8
SAKUZU
  6
CONTINUOUS
 62
    17
 10
43.09003669807828
 20
5466.7
 30
0.0
 40
0.5000000000000029
 50
269.9999938590726
 51
0.0
  0
ARC
  5
6BD
  8
SAKUZU
  6
CONTINUOUS
 62
    17
 10
-70.30996330192227
 20
5466.7
 30
0.0
 40
0.5
 50
180.0
 51
269.9999938590726
  0
DIMENSION
  5
6BE
  8
SAKUZU
  6
CONTINUOUS
 62
     2
  2
*D33
 10
-188.6099633019226
 20
5864.0
 30
0.0
 11
-13.60993278434415
 21
5880.079120878376
 31
0.0
 70
    32
  3
SPEAC
 13
161.3900977332343
 23
5614.0
 33
0.0
 14
-188.6099633019226
 24
5614.0
 34
0.0
  0
DIMENSION
  5
6BF
  8
SAKUZU
  6
CONTINUOUS
 62
     2
  2
*D34
 10
1298.213797747212
 20
5574.0
 30
0.0
 11
1282.134676868836
 21
5244.0
 31
0.0
 70
    32
  3
SPEAC
 13
1408.213797747212
 23
4914.0
 33
0.0
 14
1398.213797747212
 24
5574.0
 34
0.0
 50
-90.0
  0
DIMENSION
  5
6C0
  8
SAKUZU
  6
CONTINUOUS
 62
     2
  2
*D35
 10
1298.213797747212
 20
2555.579694741714
 30
0.0
 11
1282.134676868836
 21
2225.579694741714
 31
0.0
 70
    32
  3
SPEAC
 13
1408.213797747212
 23
1895.579694741714
 33
0.0
 14
1408.213797747212
 24
2555.579694741714
 34
0.0
 50
-90.0
  0
VIEWPORT
  5
6C1
 67
     1
  8
0
 10
128.5
 20
97.5
 30
0.0
 40
314.226
 41
222.18
 68
     1
 69
     1
1001
ACAD
1000
MVIEW
1002
{
1070
    16
1010
0.0
1020
0.0
1030
0.0
1010
0.0
1020
0.0
1030
1.0
1040
0.0
1040
222.18
1040
128.5
1040
97.5
1040
50.0
1040
0.0
1040
0.0
1070
     0
1070
   100
1070
     0
1070
     3
1070
     0
1070
     0
1070
     0
1070
     0
1040
0.0
1040
0.0
1040
0.0
1040
10.0
1040
10.0
1040
10.0
1040
10.0
1070
     0
1002
{
1002
}
1002
}
  0
ENDSEC
  0
EOF
