  0
SECTION
  2
HEADER
  9
$ACADVER
  1
AC1009
  9
$DWGCODEPAGE
  3
dos932
  9
$INSBASE
 10
0.0
 20
0.0
 30
0.0
  9
$EXTMIN
 10
-427.3263288984908
 20
-45.346540875306
 30
0.0
  9
$EXTMAX
 10
2002.633804099863
 20
6906.305341146961
 30
0.0
  9
$LIMMIN
 10
0.0
 20
0.0
  9
$LIMMAX
 10
12.0
 20
9.0
  9
$ORTHOMODE
 70
     0
  9
$REGENMODE
 70
     1
  9
$FILLMODE
 70
     1
  9
$QTEXTMODE
 70
     0
  9
$MIRRTEXT
 70
     1
  9
$DRAGMODE
 70
     2
  9
$LTSCALE
 40
12.7
  9
$OSMODE
 70
    37
  9
$ATTMODE
 70
     1
  9
$TEXTSIZE
 40
0.2
  9
$TRACEWID
 40
1.0
  9
$TEXTSTYLE
  7
STANDARD
  9
$CLAYER
  8
020
  9
$CELTYPE
  6
BYLAYER
  9
$CECOLOR
 62
   256
  9
$DIMSCALE
 40
1.0
  9
$DIMASZ
 40
0.5007446289062499
  9
$DIMEXO
 40
3.0
  9
$DIMDLI
 40
10.16
  9
$DIMRND
 40
0.0
  9
$DIMDLE
 40
0.0
  9
$DIMEXE
 40
0.0
  9
$DIMTP
 40
0.0
  9
$DIMTM
 40
0.0
  9
$DIMTXT
 40
31.75824175824177
  9
$DIMCEN
 40
0.0
  9
$DIMTSZ
 40
0.0
  9
$DIMTOL
 70
     0
  9
$DIMLIM
 70
     0
  9
$DIMTIH
 70
     0
  9
$DIMTOH
 70
     0
  9
$DIMSE1
 70
     0
  9
$DIMSE2
 70
     0
  9
$DIMTAD
 70
     1
  9
$DIMZIN
 70
     8
  9
$DIMBLK
  1
DOT
  9
$DIMASO
 70
     1
  9
$DIMSHO
 70
     1
  9
$DIMPOST
  1
<>
  9
$DIMAPOST
  1
[]
  9
$DIMALT
 70
     0
  9
$DIMALTD
 70
     3
  9
$DIMALTF
 40
0.0393700787401575
  9
$DIMLFAC
 40
1.0
  9
$DIMTOFL
 70
     1
  9
$DIMTVP
 40
0.0
  9
$DIMTIX
 70
     1
  9
$DIMSOXD
 70
     0
  9
$DIMSAH
 70
     0
  9
$DIMBLK1
  1
DOT
  9
$DIMBLK2
  1
DOT
  9
$DIMSTYLE
  2
SPEAC
  9
$DIMCLRD
 70
     0
  9
$DIMCLRE
 70
     0
  9
$DIMCLRT
 70
     0
  9
$DIMTFAC
 40
1.0
  9
$DIMGAP
 40
0.1999999992549419
  9
$LUNITS
 70
     2
  9
$LUPREC
 70
     1
  9
$SKETCHINC
 40
0.1
  9
$FILLETRAD
 40
0.5
  9
$AUNITS
 70
     0
  9
$AUPREC
 70
     2
  9
$MENU
  1
.
  9
$ELEVATION
 40
0.0
  9
$PELEVATION
 40
0.0
  9
$THICKNESS
 40
0.0
  9
$LIMCHECK
 70
     0
  9
$CHAMFERA
 40
0.0
  9
$CHAMFERB
 40
0.0
  9
$SKPOLY
 70
     0
  9
$TDCREATE
 40
2459829.599549097
  9
$TDUPDATE
 40
2459829.599560753
  9
$TDINDWG
 40
0.0000000116
  9
$TDUSRTIMER
 40
0.0000000116
  9
$USRTIMER
 70
     1
  9
$ANGBASE
 50
0.0
  9
$ANGDIR
 70
     0
  9
$PDMODE
 70
     1
  9
$PDSIZE
 40
-2.0
  9
$PLINEWID
 40
0.0
  9
$COORDS
 70
     1
  9
$SPLFRAME
 70
     0
  9
$SPLINETYPE
 70
     6
  9
$SPLINESEGS
 70
     8
  9
$ATTDIA
 70
     0
  9
$ATTREQ
 70
     1
  9
$HANDLING
 70
     1
  9
$HANDSEED
  5
57C
  9
$SURFTAB1
 70
     6
  9
$SURFTAB2
 70
     6
  9
$SURFTYPE
 70
     6
  9
$SURFU
 70
     6
  9
$SURFV
 70
     6
  9
$UCSNAME
  2

  9
$UCSORG
 10
0.0
 20
0.0
 30
0.0
  9
$UCSXDIR
 10
1.0
 20
0.0
 30
0.0
  9
$UCSYDIR
 10
0.0
 20
1.0
 30
0.0
  9
$PUCSNAME
  2

  9
$PUCSORG
 10
0.0
 20
0.0
 30
0.0
  9
$PUCSXDIR
 10
1.0
 20
0.0
 30
0.0
  9
$PUCSYDIR
 10
0.0
 20
1.0
 30
0.0
  9
$USERI1
 70
     0
  9
$USERI2
 70
     0
  9
$USERI3
 70
     0
  9
$USERI4
 70
     0
  9
$USERI5
 70
     0
  9
$USERR1
 40
0.0
  9
$USERR2
 40
0.0
  9
$USERR3
 40
0.0
  9
$USERR4
 40
0.0
  9
$USERR5
 40
0.0
  9
$WORLDVIEW
 70
     1
  9
$SHADEDGE
 70
     3
  9
$SHADEDIF
 70
    70
  9
$TILEMODE
 70
     1
  9
$MAXACTVP
 70
    64
  9
$PLIMCHECK
 70
     0
  9
$PEXTMIN
 10
1.000000000000000E+20
 20
1.000000000000000E+20
 30
1.000000000000000E+20
  9
$PEXTMAX
 10
-1.000000000000000E+20
 20
-1.000000000000000E+20
 30
-1.000000000000000E+20
  9
$PLIMMIN
 10
-20.0
 20
-7.5
  9
$PLIMMAX
 10
277.0
 20
202.5
  9
$UNITMODE
 70
     0
  9
$VISRETAIN
 70
     1
  9
$PLINEGEN
 70
     0
  9
$PSLTSCALE
 70
     1
  0
ENDSEC
  0
SECTION
  2
TABLES
  0
TABLE
  2
VPORT
 70
     1
  0
VPORT
  2
*ACTIVE
 70
     0
 10
0.0
 20
0.0
 11
1.0
 21
1.0
 12
787.6537376006859
 22
3430.479400135828
 13
0.0
 23
0.0
 14
0.5
 24
0.5
 15
0.5
 25
0.5
 16
0.0
 26
0.0
 36
1.0
 17
0.0
 27
0.0
 37
0.0
 40
6951.651882022267
 41
0.349551469814318
 42
2000.0
 43
0.0
 44
0.0
 50
0.0
 51
0.0
 71
     0
 72
   100
 73
     1
 74
     3
 75
     0
 76
     0
 77
     0
 78
     0
  0
ENDTAB
  0
TABLE
  2
LTYPE
 70
   198
  0
LTYPE
  2
CONTINUOUS
 70
     0
  3
Solid line
 72
    65
 73
     0
 40
0.0
  0
LTYPE
  2
ISO-04______
 70
     0
  3

 72
    65
 73
     4
 40
0.48
 49
0.48
 49
-0.0600000000000001
 49
0.01
 49
-0.0600000000000001
  0
LTYPE
  2
ISO-02___
 70
     0
  3

 72
    65
 73
     2
 40
0.24
 49
0.24
 49
-0.06
  0
LTYPE
  2
AI-LINETYPE-180
 70
     0
  3

 72
    65
 73
     2
 40
2.462962962847222
 49
0.462962962847222
 49
-2.222222309969844
  0
LTYPE
  2
AI-LINETYPE-179
 70
     0
  3

 72
    65
 73
     2
 40
2.462962962847222
 49
0.462962962847222
 49
-2.222222309969844
  0
LTYPE
  2
AI-LINETYPE-178
 70
     0
  3

 72
    65
 73
     2
 40
2.462962962847222
 49
0.462962962847222
 49
-2.222222309969844
  0
LTYPE
  2
AI-LINETYPE-177
 70
     0
  3

 72
    65
 73
     2
 40
2.462962962847222
 49
0.462962962847222
 49
-2.222222309969844
  0
LTYPE
  2
AI-LINETYPE-176
 70
     0
  3

 72
    65
 73
     2
 40
2.462962962847222
 49
0.462962962847222
 49
-2.222222309969844
  0
LTYPE
  2
AI-LINETYPE-175
 70
     0
  3

 72
    65
 73
     2
 40
2.462962962847222
 49
0.462962962847222
 49
-2.222222309969844
  0
LTYPE
  2
AI-LINETYPE-174
 70
     0
  3

 72
    65
 73
     2
 40
2.462962962847222
 49
0.462962962847222
 49
-2.222222309969844
  0
LTYPE
  2
AI-LINETYPE-173
 70
     0
  3

 72
    65
 73
     2
 40
2.462962962847222
 49
0.462962962847222
 49
-2.222222309969844
  0
LTYPE
  2
AI-LINETYPE-172
 70
     0
  3

 72
    65
 73
     2
 40
0.462962962847222
 49
0.462962962847222
 49
-1.851851851388889
  0
LTYPE
  2
AI-LINETYPE-171
 70
     0
  3

 72
    65
 73
     2
 40
2.462962962847222
 49
0.462962962847222
 49
-2.222222309969844
  0
LTYPE
  2
AI-LINETYPE-170
 70
     0
  3

 72
    65
 73
     2
 40
2.462962962847222
 49
0.462962962847222
 49
-2.222222309969844
  0
LTYPE
  2
AI-LINETYPE-169
 70
     0
  3

 72
    65
 73
     2
 40
2.462962962847222
 49
0.462962962847222
 49
-2.222222309969844
  0
LTYPE
  2
AI-LINETYPE-168
 70
     0
  3

 72
    65
 73
     2
 40
2.462962962847222
 49
0.462962962847222
 49
-2.222222309969844
  0
LTYPE
  2
AI-LINETYPE-167
 70
     0
  3

 72
    65
 73
     2
 40
2.462962962847222
 49
0.462962962847222
 49
-2.222222309969844
  0
LTYPE
  2
AI-LINETYPE-166
 70
     0
  3

 72
    65
 73
     2
 40
2.462962962847222
 49
0.462962962847222
 49
-2.222222309969844
  0
LTYPE
  2
AI-LINETYPE-165
 70
     0
  3

 72
    65
 73
     2
 40
2.462962962847222
 49
0.462962962847222
 49
-2.222222309969844
  0
LTYPE
  2
AI-LINETYPE-164
 70
     0
  3

 72
    65
 73
     2
 40
2.462962962847222
 49
0.462962962847222
 49
-2.222222309969844
  0
LTYPE
  2
AI-LINETYPE-163
 70
     0
  3

 72
    65
 73
     2
 40
2.462962962847222
 49
0.462962962847222
 49
-2.222222309969844
  0
LTYPE
  2
AI-LINETYPE-162
 70
     0
  3

 72
    65
 73
     2
 40
2.462962962847222
 49
0.462962962847222
 49
-2.222222309969844
  0
LTYPE
  2
AI-LINETYPE-161
 70
     0
  3

 72
    65
 73
     2
 40
2.462962962847222
 49
0.462962962847222
 49
-2.222222309969844
  0
LTYPE
  2
AI-LINETYPE-160
 70
     0
  3

 72
    65
 73
     2
 40
2.462962962847222
 49
0.462962962847222
 49
-2.222222309969844
  0
LTYPE
  2
AI-LINETYPE-159
 70
     0
  3

 72
    65
 73
     2
 40
2.462962962847222
 49
0.462962962847222
 49
-2.222222309969844
  0
LTYPE
  2
AI-LINETYPE-158
 70
     0
  3

 72
    65
 73
     2
 40
0.462962962847222
 49
0.462962962847222
 49
-1.851851851388889
  0
LTYPE
  2
AI-LINETYPE-157
 70
     0
  3

 72
    65
 73
     2
 40
2.462962962847222
 49
0.462962962847222
 49
-2.222222309969844
  0
LTYPE
  2
AI-LINETYPE-156
 70
     0
  3

 72
    65
 73
     2
 40
2.462962962847222
 49
0.462962962847222
 49
-2.222222309969844
  0
LTYPE
  2
AI-LINETYPE-155
 70
     0
  3

 72
    65
 73
     2
 40
2.462962962847222
 49
0.462962962847222
 49
-2.222222309969844
  0
LTYPE
  2
AI-LINETYPE-154
 70
     0
  3

 72
    65
 73
     2
 40
2.462962962847222
 49
0.462962962847222
 49
-2.222222309969844
  0
LTYPE
  2
AI-LINETYPE-153
 70
     0
  3

 72
    65
 73
     2
 40
2.462962962847222
 49
0.462962962847222
 49
-2.222222309969844
  0
LTYPE
  2
ISO-08_____
 70
     0
  3

 72
    65
 73
     4
 40
0.48
 49
0.48
 49
-0.0600000000000001
 49
0.12
 49
-0.0599999999999999
  0
LTYPE
  2
ISO-10______
 70
     0
  3

 72
    65
 73
     4
 40
0.24
 49
0.24
 49
-0.06
 49
0.01
 49
-0.06
  0
LTYPE
  2
VW-01____
 70
     0
  3

 72
    65
 73
     2
 40
0.083312
 49
0.083312
 49
-0.083312
  0
LTYPE
  2
AI-LINETYPE-152
 70
     0
  3

 72
    65
 73
     2
 40
1.333333385981906
 49
1.333333385981906
 49
-1.333333385981906
  0
LTYPE
  2
AI-LINETYPE-151
 70
     0
  3

 72
    65
 73
     2
 40
1.333333385981906
 49
1.333333385981906
 49
-1.333333385981906
  0
LTYPE
  2
AI-LINETYPE-150
 70
     0
  3

 72
    65
 73
     2
 40
1.333333385981906
 49
1.333333385981906
 49
-1.333333385981906
  0
LTYPE
  2
AI-LINETYPE-149
 70
     0
  3

 72
    65
 73
     2
 40
1.333333385981906
 49
1.333333385981906
 49
-1.333333385981906
  0
LTYPE
  2
AI-LINETYPE-148
 70
     0
  3

 72
    65
 73
     2
 40
1.333333385981906
 49
1.333333385981906
 49
-1.333333385981906
  0
LTYPE
  2
AI-LINETYPE-147
 70
     0
  3

 72
    65
 73
     2
 40
1.333333385981906
 49
1.333333385981906
 49
-1.333333385981906
  0
LTYPE
  2
AI-LINETYPE-146
 70
     0
  3

 72
    65
 73
     2
 40
1.333333385981906
 49
1.333333385981906
 49
-1.333333385981906
  0
LTYPE
  2
AI-LINETYPE-145
 70
     0
  3

 72
    65
 73
     2
 40
1.333333385981906
 49
1.333333385981906
 49
-1.333333385981906
  0
LTYPE
  2
AI-LINETYPE-144
 70
     0
  3

 72
    65
 73
     2
 40
5.333333332500001
 49
3.3333333325
 49
-3.3333333325
  0
LTYPE
  2
AI-LINETYPE-143
 70
     0
  3

 72
    65
 73
     2
 40
5.333333332500001
 49
3.3333333325
 49
-3.3333333325
  0
LTYPE
  2
AI-LINETYPE-142
 70
     0
  3

 72
    65
 73
     2
 40
5.333333332500001
 49
3.3333333325
 49
-3.3333333325
  0
LTYPE
  2
AI-LINETYPE-141
 70
     0
  3

 72
    65
 73
     2
 40
5.333333332500001
 49
3.3333333325
 49
-3.3333333325
  0
LTYPE
  2
AI-LINETYPE-140
 70
     0
  3

 72
    65
 73
     2
 40
5.333333332500001
 49
3.3333333325
 49
-3.3333333325
  0
LTYPE
  2
AI-LINETYPE-139
 70
     0
  3

 72
    65
 73
     2
 40
5.333333332500001
 49
3.3333333325
 49
-3.3333333325
  0
LTYPE
  2
AI-LINETYPE-138
 70
     0
  3

 72
    65
 73
     2
 40
5.333333332500001
 49
3.3333333325
 49
-3.3333333325
  0
LTYPE
  2
AI-LINETYPE-137
 70
     0
  3

 72
    65
 73
     2
 40
5.333333332500001
 49
3.3333333325
 49
-3.3333333325
  0
LTYPE
  2
AI-LINETYPE-136
 70
     0
  3

 72
    65
 73
     2
 40
5.333333332500001
 49
3.3333333325
 49
-3.3333333325
  0
LTYPE
  2
AI-LINETYPE-135
 70
     0
  3

 72
    65
 73
     2
 40
5.333333332500001
 49
3.3333333325
 49
-3.3333333325
  0
LTYPE
  2
AI-LINETYPE-134
 70
     0
  3

 72
    65
 73
     2
 40
5.333333332500001
 49
3.3333333325
 49
-3.3333333325
  0
LTYPE
  2
AI-LINETYPE-133
 70
     0
  3

 72
    65
 73
     2
 40
5.333333332500001
 49
3.3333333325
 49
-3.3333333325
  0
LTYPE
  2
AI-LINETYPE-132
 70
     0
  3

 72
    65
 73
     2
 40
5.333333332500001
 49
3.3333333325
 49
-3.3333333325
  0
LTYPE
  2
AI-LINETYPE-131
 70
     0
  3

 72
    65
 73
     2
 40
5.333333332500001
 49
3.3333333325
 49
-3.3333333325
  0
LTYPE
  2
AI-LINETYPE-130
 70
     0
  3

 72
    65
 73
     2
 40
5.333333332500001
 49
3.3333333325
 49
-3.3333333325
  0
LTYPE
  2
AI-LINETYPE-129
 70
     0
  3

 72
    65
 73
     2
 40
5.333333332500001
 49
3.3333333325
 49
-3.3333333325
  0
LTYPE
  2
AI-LINETYPE-128
 70
     0
  3

 72
    65
 73
     2
 40
5.333333332500001
 49
3.3333333325
 49
-3.3333333325
  0
LTYPE
  2
AI-LINETYPE-127
 70
     0
  3

 72
    65
 73
     2
 40
5.333333332500001
 49
3.3333333325
 49
-3.3333333325
  0
LTYPE
  2
AI-LINETYPE-126
 70
     0
  3

 72
    65
 73
     2
 40
5.333333332500001
 49
3.3333333325
 49
-3.3333333325
  0
LTYPE
  2
AI-LINETYPE-125
 70
     0
  3

 72
    65
 73
     2
 40
5.333333332500001
 49
3.3333333325
 49
-3.3333333325
  0
LTYPE
  2
AI-LINETYPE-124
 70
     0
  3

 72
    65
 73
     2
 40
5.333333332500001
 49
3.3333333325
 49
-3.3333333325
  0
LTYPE
  2
AI-LINETYPE-123
 70
     0
  3

 72
    65
 73
     2
 40
5.333333332500001
 49
3.3333333325
 49
-3.3333333325
  0
LTYPE
  2
AI-LINETYPE-122
 70
     0
  3

 72
    65
 73
     2
 40
5.333333332500001
 49
3.3333333325
 49
-3.3333333325
  0
LTYPE
  2
AI-LINETYPE-121
 70
     0
  3

 72
    65
 73
     2
 40
5.333333332500001
 49
3.3333333325
 49
-3.3333333325
  0
LTYPE
  2
AI-LINETYPE-120
 70
     0
  3

 72
    65
 73
     2
 40
5.333333332500001
 49
3.3333333325
 49
-3.3333333325
  0
LTYPE
  2
AI-LINETYPE-119
 70
     0
  3

 72
    65
 73
     2
 40
5.333333332500001
 49
3.3333333325
 49
-3.3333333325
  0
LTYPE
  2
AI-LINETYPE-118
 70
     0
  3

 72
    65
 73
     2
 40
5.333333332500001
 49
3.3333333325
 49
-3.3333333325
  0
LTYPE
  2
AI-LINETYPE-117
 70
     0
  3

 72
    65
 73
     2
 40
5.333333332500001
 49
3.3333333325
 49
-3.3333333325
  0
LTYPE
  2
AI-LINETYPE-116
 70
     0
  3

 72
    65
 73
     2
 40
5.333333332500001
 49
3.3333333325
 49
-3.3333333325
  0
LTYPE
  2
AI-LINETYPE-115
 70
     0
  3

 72
    65
 73
     2
 40
5.333333332500001
 49
3.3333333325
 49
-3.3333333325
  0
LTYPE
  2
AI-LINETYPE-114
 70
     0
  3

 72
    65
 73
     2
 40
5.333333332500001
 49
3.3333333325
 49
-3.3333333325
  0
LTYPE
  2
AI-LINETYPE-113
 70
     0
  3

 72
    65
 73
     2
 40
5.333333332500001
 49
3.3333333325
 49
-3.3333333325
  0
LTYPE
  2
AI-LINETYPE-112
 70
     0
  3

 72
    65
 73
     2
 40
5.333333332500001
 49
3.3333333325
 49
-3.3333333325
  0
LTYPE
  2
AI-LINETYPE-111
 70
     0
  3

 72
    65
 73
     2
 40
5.333333332500001
 49
3.3333333325
 49
-3.3333333325
  0
LTYPE
  2
AI-LINETYPE-110
 70
     0
  3

 72
    65
 73
     2
 40
5.333333332500001
 49
3.3333333325
 49
-3.3333333325
  0
LTYPE
  2
AI-LINETYPE-109
 70
     0
  3

 72
    65
 73
     2
 40
5.333333332500001
 49
3.3333333325
 49
-3.3333333325
  0
LTYPE
  2
AI-LINETYPE-108
 70
     0
  3

 72
    65
 73
     2
 40
5.333333332500001
 49
3.3333333325
 49
-3.3333333325
  0
LTYPE
  2
AI-LINETYPE-107
 70
     0
  3

 72
    65
 73
     2
 40
5.333333332500001
 49
3.3333333325
 49
-3.3333333325
  0
LTYPE
  2
AI-LINETYPE-106
 70
     0
  3

 72
    65
 73
     2
 40
5.333333332500001
 49
3.3333333325
 49
-3.3333333325
  0
LTYPE
  2
AI-LINETYPE-105
 70
     0
  3

 72
    65
 73
     2
 40
5.333333332500001
 49
3.3333333325
 49
-3.3333333325
  0
LTYPE
  2
AI-LINETYPE-104
 70
     0
  3

 72
    65
 73
     2
 40
5.333333332500001
 49
3.3333333325
 49
-3.3333333325
  0
LTYPE
  2
AI-LINETYPE-103
 70
     0
  3

 72
    65
 73
     2
 40
5.333333332500001
 49
3.3333333325
 49
-3.3333333325
  0
LTYPE
  2
AI-LINETYPE-102
 70
     0
  3

 72
    65
 73
     2
 40
5.333333332500001
 49
3.3333333325
 49
-3.3333333325
  0
LTYPE
  2
AI-LINETYPE-101
 70
     0
  3

 72
    65
 73
     2
 40
5.333333332500001
 49
3.3333333325
 49
-3.3333333325
  0
LTYPE
  2
AI-LINETYPE-100
 70
     0
  3

 72
    65
 73
     2
 40
5.333333332500001
 49
3.3333333325
 49
-3.3333333325
  0
LTYPE
  2
AI-LINETYPE-99
 70
     0
  3

 72
    65
 73
     2
 40
5.333333332500001
 49
3.3333333325
 49
-3.3333333325
  0
LTYPE
  2
AI-LINETYPE-98
 70
     0
  3

 72
    65
 73
     2
 40
5.333333332500001
 49
3.3333333325
 49
-3.3333333325
  0
LTYPE
  2
AI-LINETYPE-97
 70
     0
  3

 72
    65
 73
     2
 40
5.333333332500001
 49
3.3333333325
 49
-3.3333333325
  0
LTYPE
  2
AI-LINETYPE-96
 70
     0
  3

 72
    65
 73
     2
 40
5.333333332500001
 49
3.3333333325
 49
-3.3333333325
  0
LTYPE
  2
AI-LINETYPE-95
 70
     0
  3

 72
    65
 73
     2
 40
5.333333332500001
 49
3.3333333325
 49
-3.3333333325
  0
LTYPE
  2
AI-LINETYPE-94
 70
     0
  3

 72
    65
 73
     2
 40
5.333333332500001
 49
3.3333333325
 49
-3.3333333325
  0
LTYPE
  2
AI-LINETYPE-93
 70
     0
  3

 72
    65
 73
     2
 40
5.333333332500001
 49
3.3333333325
 49
-3.3333333325
  0
LTYPE
  2
AI-LINETYPE-92
 70
     0
  3

 72
    65
 73
     2
 40
5.333333332500001
 49
3.3333333325
 49
-3.3333333325
  0
LTYPE
  2
AI-LINETYPE-91
 70
     0
  3

 72
    65
 73
     2
 40
5.333333332500001
 49
3.3333333325
 49
-3.3333333325
  0
LTYPE
  2
AI-LINETYPE-90
 70
     0
  3

 72
    65
 73
     2
 40
5.333333332500001
 49
3.3333333325
 49
-3.3333333325
  0
LTYPE
  2
AI-LINETYPE-89
 70
     0
  3

 72
    65
 73
     2
 40
5.333333332500001
 49
3.3333333325
 49
-3.3333333325
  0
LTYPE
  2
AI-LINETYPE-88
 70
     0
  3

 72
    65
 73
     2
 40
5.333333332500001
 49
3.3333333325
 49
-3.3333333325
  0
LTYPE
  2
AI-LINETYPE-87
 70
     0
  3

 72
    65
 73
     2
 40
5.333333332500001
 49
3.3333333325
 49
-3.3333333325
  0
LTYPE
  2
AI-LINETYPE-86
 70
     0
  3

 72
    65
 73
     2
 40
5.333333332500001
 49
3.3333333325
 49
-3.3333333325
  0
LTYPE
  2
AI-LINETYPE-85
 70
     0
  3

 72
    65
 73
     2
 40
5.333333332500001
 49
3.3333333325
 49
-3.3333333325
  0
LTYPE
  2
AI-LINETYPE-84
 70
     0
  3

 72
    65
 73
     2
 40
5.333333332500001
 49
3.3333333325
 49
-3.3333333325
  0
LTYPE
  2
AI-LINETYPE-83
 70
     0
  3

 72
    65
 73
     2
 40
5.333333332500001
 49
3.3333333325
 49
-3.3333333325
  0
LTYPE
  2
AI-LINETYPE-82
 70
     0
  3

 72
    65
 73
     2
 40
5.333333332500001
 49
3.3333333325
 49
-3.3333333325
  0
LTYPE
  2
AI-LINETYPE-81
 70
     0
  3

 72
    65
 73
     2
 40
5.333333332500001
 49
3.3333333325
 49
-3.3333333325
  0
LTYPE
  2
AI-LINETYPE-80
 70
     0
  3

 72
    65
 73
     2
 40
5.333333332500001
 49
3.3333333325
 49
-3.3333333325
  0
LTYPE
  2
AI-LINETYPE-79
 70
     0
  3

 72
    65
 73
     2
 40
5.333333332500001
 49
3.3333333325
 49
-3.3333333325
  0
LTYPE
  2
AI-LINETYPE-78
 70
     0
  3

 72
    65
 73
     2
 40
5.333333332500001
 49
3.3333333325
 49
-3.3333333325
  0
LTYPE
  2
AI-LINETYPE-77
 70
     0
  3

 72
    65
 73
     2
 40
5.333333332500001
 49
3.3333333325
 49
-3.3333333325
  0
LTYPE
  2
AI-LINETYPE-76
 70
     0
  3

 72
    65
 73
     2
 40
5.333333332500001
 49
3.3333333325
 49
-3.3333333325
  0
LTYPE
  2
AI-LINETYPE-75
 70
     0
  3

 72
    65
 73
     2
 40
5.333333332500001
 49
3.3333333325
 49
-3.3333333325
  0
LTYPE
  2
AI-LINETYPE-74
 70
     0
  3

 72
    65
 73
     2
 40
5.333333332500001
 49
3.3333333325
 49
-3.3333333325
  0
LTYPE
  2
AI-LINETYPE-73
 70
     0
  3

 72
    65
 73
     2
 40
5.333333332500001
 49
3.3333333325
 49
-3.3333333325
  0
LTYPE
  2
AI-LINETYPE-72
 70
     0
  3

 72
    65
 73
     2
 40
5.333333332500001
 49
3.3333333325
 49
-3.3333333325
  0
LTYPE
  2
AI-LINETYPE-71
 70
     0
  3

 72
    65
 73
     2
 40
5.333333332500001
 49
3.3333333325
 49
-3.3333333325
  0
LTYPE
  2
AI-LINETYPE-70
 70
     0
  3

 72
    65
 73
     2
 40
5.333333332500001
 49
3.3333333325
 49
-3.3333333325
  0
LTYPE
  2
AI-LINETYPE-69
 70
     0
  3

 72
    65
 73
     2
 40
5.333333332500001
 49
3.3333333325
 49
-3.3333333325
  0
LTYPE
  2
AI-LINETYPE-68
 70
     0
  3

 72
    65
 73
     2
 40
5.333333332500001
 49
3.3333333325
 49
-3.3333333325
  0
LTYPE
  2
AI-LINETYPE-67
 70
     0
  3

 72
    65
 73
     2
 40
5.333333332500001
 49
3.3333333325
 49
-3.3333333325
  0
LTYPE
  2
AI-LINETYPE-66
 70
     0
  3

 72
    65
 73
     2
 40
5.333333332500001
 49
3.3333333325
 49
-3.3333333325
  0
LTYPE
  2
AI-LINETYPE-65
 70
     0
  3

 72
    65
 73
     2
 40
5.333333332500001
 49
3.3333333325
 49
-3.3333333325
  0
LTYPE
  2
AI-LINETYPE-64
 70
     0
  3

 72
    65
 73
     2
 40
5.333333332500001
 49
3.3333333325
 49
-3.3333333325
  0
LTYPE
  2
AI-LINETYPE-63
 70
     0
  3

 72
    65
 73
     2
 40
5.333333332500001
 49
3.3333333325
 49
-3.3333333325
  0
LTYPE
  2
AI-LINETYPE-62
 70
     0
  3

 72
    65
 73
     2
 40
5.333333332500001
 49
3.3333333325
 49
-3.3333333325
  0
LTYPE
  2
AI-LINETYPE-61
 70
     0
  3

 72
    65
 73
     2
 40
5.333333332500001
 49
3.3333333325
 49
-3.3333333325
  0
LTYPE
  2
AI-LINETYPE-60
 70
     0
  3

 72
    65
 73
     2
 40
5.333333332500001
 49
3.3333333325
 49
-3.3333333325
  0
LTYPE
  2
AI-LINETYPE-59
 70
     0
  3

 72
    65
 73
     2
 40
5.333333332500001
 49
3.3333333325
 49
-3.3333333325
  0
LTYPE
  2
AI-LINETYPE-58
 70
     0
  3

 72
    65
 73
     2
 40
5.333333332500001
 49
3.3333333325
 49
-3.3333333325
  0
LTYPE
  2
AI-LINETYPE-57
 70
     0
  3

 72
    65
 73
     2
 40
5.333333332500001
 49
3.3333333325
 49
-3.3333333325
  0
LTYPE
  2
AI-LINETYPE-56
 70
     0
  3

 72
    65
 73
     2
 40
5.333333332500001
 49
3.3333333325
 49
-3.3333333325
  0
LTYPE
  2
AI-LINETYPE-55
 70
     0
  3

 72
    65
 73
     2
 40
5.333333332500001
 49
3.3333333325
 49
-3.3333333325
  0
LTYPE
  2
AI-LINETYPE-54
 70
     0
  3

 72
    65
 73
     2
 40
5.333333332500001
 49
3.3333333325
 49
-3.3333333325
  0
LTYPE
  2
AI-LINETYPE-53
 70
     0
  3

 72
    65
 73
     2
 40
5.333333332500001
 49
3.3333333325
 49
-3.3333333325
  0
LTYPE
  2
AI-LINETYPE-52
 70
     0
  3

 72
    65
 73
     2
 40
5.333333332500001
 49
3.3333333325
 49
-3.3333333325
  0
LTYPE
  2
AI-LINETYPE-51
 70
     0
  3

 72
    65
 73
     2
 40
5.333333332500001
 49
3.3333333325
 49
-3.3333333325
  0
LTYPE
  2
AI-LINETYPE-50
 70
     0
  3

 72
    65
 73
     2
 40
5.333333332500001
 49
3.3333333325
 49
-3.3333333325
  0
LTYPE
  2
AI-LINETYPE-49
 70
     0
  3

 72
    65
 73
     2
 40
5.333333332500001
 49
3.3333333325
 49
-3.3333333325
  0
LTYPE
  2
AI-LINETYPE-48
 70
     0
  3

 72
    65
 73
     2
 40
5.333333332500001
 49
3.3333333325
 49
-3.3333333325
  0
LTYPE
  2
AI-LINETYPE-47
 70
     0
  3

 72
    65
 73
     2
 40
5.333333332500001
 49
3.3333333325
 49
-3.3333333325
  0
LTYPE
  2
AI-LINETYPE-46
 70
     0
  3

 72
    65
 73
     2
 40
5.333333332500001
 49
3.3333333325
 49
-3.3333333325
  0
LTYPE
  2
AI-LINETYPE-45
 70
     0
  3

 72
    65
 73
     2
 40
5.333333332500001
 49
3.3333333325
 49
-3.3333333325
  0
LTYPE
  2
AI-LINETYPE-44
 70
     0
  3

 72
    65
 73
     2
 40
5.333333332500001
 49
3.3333333325
 49
-3.3333333325
  0
LTYPE
  2
AI-LINETYPE-43
 70
     0
  3

 72
    65
 73
     2
 40
5.333333332500001
 49
3.3333333325
 49
-3.3333333325
  0
LTYPE
  2
AI-LINETYPE-42
 70
     0
  3

 72
    65
 73
     2
 40
5.333333332500001
 49
3.3333333325
 49
-3.3333333325
  0
LTYPE
  2
AI-LINETYPE-41
 70
     0
  3

 72
    65
 73
     2
 40
5.333333332500001
 49
3.3333333325
 49
-3.3333333325
  0
LTYPE
  2
AI-LINETYPE-40
 70
     0
  3

 72
    65
 73
     2
 40
5.333333332500001
 49
3.3333333325
 49
-3.3333333325
  0
LTYPE
  2
AI-LINETYPE-39
 70
     0
  3

 72
    65
 73
     2
 40
5.333333332500001
 49
3.3333333325
 49
-3.3333333325
  0
LTYPE
  2
AI-LINETYPE-38
 70
     0
  3

 72
    65
 73
     2
 40
5.333333332500001
 49
3.3333333325
 49
-3.3333333325
  0
LTYPE
  2
AI-LINETYPE-37
 70
     0
  3

 72
    65
 73
     2
 40
5.333333332500001
 49
3.3333333325
 49
-3.3333333325
  0
LTYPE
  2
AI-LINETYPE-36
 70
     0
  3

 72
    65
 73
     2
 40
5.333333332500001
 49
3.3333333325
 49
-3.3333333325
  0
LTYPE
  2
AI-LINETYPE-35
 70
     0
  3

 72
    65
 73
     2
 40
5.333333332500001
 49
3.3333333325
 49
-3.3333333325
  0
LTYPE
  2
AI-LINETYPE-34
 70
     0
  3

 72
    65
 73
     2
 40
5.333333332500001
 49
3.3333333325
 49
-3.3333333325
  0
LTYPE
  2
AI-LINETYPE-33
 70
     0
  3

 72
    65
 73
     2
 40
5.333333332500001
 49
3.3333333325
 49
-3.3333333325
  0
LTYPE
  2
AI-LINETYPE-32
 70
     0
  3

 72
    65
 73
     2
 40
5.333333332500001
 49
3.3333333325
 49
-3.3333333325
  0
LTYPE
  2
AI-LINETYPE-31
 70
     0
  3

 72
    65
 73
     2
 40
5.333333332500001
 49
3.3333333325
 49
-3.3333333325
  0
LTYPE
  2
AI-LINETYPE-30
 70
     0
  3

 72
    65
 73
     2
 40
5.333333332500001
 49
3.3333333325
 49
-3.3333333325
  0
LTYPE
  2
AI-LINETYPE-29
 70
     0
  3

 72
    65
 73
     2
 40
5.333333332500001
 49
3.3333333325
 49
-3.3333333325
  0
LTYPE
  2
AI-LINETYPE-28
 70
     0
  3

 72
    65
 73
     2
 40
5.333333332500001
 49
3.3333333325
 49
-3.3333333325
  0
LTYPE
  2
AI-LINETYPE-27
 70
     0
  3

 72
    65
 73
     2
 40
5.333333332500001
 49
3.3333333325
 49
-3.3333333325
  0
LTYPE
  2
AI-LINETYPE-26
 70
     0
  3

 72
    65
 73
     2
 40
5.333333332500001
 49
3.3333333325
 49
-3.3333333325
  0
LTYPE
  2
AI-LINETYPE-25
 70
     0
  3

 72
    65
 73
     2
 40
5.333333332500001
 49
3.3333333325
 49
-3.3333333325
  0
LTYPE
  2
AI-LINETYPE-24
 70
     0
  3

 72
    65
 73
     2
 40
5.333333332500001
 49
3.3333333325
 49
-3.3333333325
  0
LTYPE
  2
AI-LINETYPE-23
 70
     0
  3

 72
    65
 73
     2
 40
5.333333332500001
 49
3.3333333325
 49
-3.3333333325
  0
LTYPE
  2
AI-LINETYPE-22
 70
     0
  3

 72
    65
 73
     2
 40
5.333333332500001
 49
3.3333333325
 49
-3.3333333325
  0
LTYPE
  2
AI-LINETYPE-21
 70
     0
  3

 72
    65
 73
     2
 40
5.333333332500001
 49
3.3333333325
 49
-3.3333333325
  0
LTYPE
  2
AI-LINETYPE-20
 70
     0
  3

 72
    65
 73
     2
 40
5.333333332500001
 49
3.3333333325
 49
-3.3333333325
  0
LTYPE
  2
AI-LINETYPE-19
 70
     0
  3

 72
    65
 73
     2
 40
5.333333332500001
 49
3.3333333325
 49
-3.3333333325
  0
LTYPE
  2
AI-LINETYPE-18
 70
     0
  3

 72
    65
 73
     2
 40
5.333333332500001
 49
3.3333333325
 49
-3.3333333325
  0
LTYPE
  2
AI-LINETYPE-17
 70
     0
  3

 72
    65
 73
     2
 40
5.333333332500001
 49
3.3333333325
 49
-3.3333333325
  0
LTYPE
  2
AI-LINETYPE-16
 70
     0
  3

 72
    65
 73
     2
 40
5.333333332500001
 49
3.3333333325
 49
-3.3333333325
  0
LTYPE
  2
AI-LINETYPE-15
 70
     0
  3

 72
    65
 73
     2
 40
5.333333332500001
 49
3.3333333325
 49
-3.3333333325
  0
LTYPE
  2
AI-LINETYPE-14
 70
     0
  3

 72
    65
 73
     2
 40
5.333333332500001
 49
3.3333333325
 49
-3.3333333325
  0
LTYPE
  2
AI-LINETYPE-13
 70
     0
  3

 72
    65
 73
     2
 40
5.333333332500001
 49
3.3333333325
 49
-3.3333333325
  0
LTYPE
  2
AI-LINETYPE-12
 70
     0
  3

 72
    65
 73
     2
 40
5.333333332500001
 49
3.3333333325
 49
-3.3333333325
  0
LTYPE
  2
AI-LINETYPE-11
 70
     0
  3

 72
    65
 73
     2
 40
5.333333332500001
 49
3.3333333325
 49
-3.3333333325
  0
LTYPE
  2
AI-LINETYPE-10
 70
     0
  3

 72
    65
 73
     2
 40
5.333333332500001
 49
3.3333333325
 49
-3.3333333325
  0
LTYPE
  2
AI-LINETYPE-9
 70
     0
  3

 72
    65
 73
     2
 40
5.333333332500001
 49
3.3333333325
 49
-3.3333333325
  0
LTYPE
  2
AI-LINETYPE-8
 70
     0
  3

 72
    65
 73
     2
 40
5.333333332500001
 49
3.3333333325
 49
-3.3333333325
  0
LTYPE
  2
AI-LINETYPE-7
 70
     0
  3

 72
    65
 73
     2
 40
5.333333332500001
 49
3.3333333325
 49
-3.3333333325
  0
LTYPE
  2
AI-LINETYPE-6
 70
     0
  3

 72
    65
 73
     2
 40
5.333333332500001
 49
3.3333333325
 49
-3.3333333325
  0
LTYPE
  2
AI-LINETYPE-5
 70
     0
  3

 72
    65
 73
     2
 40
5.333333332500001
 49
3.3333333325
 49
-3.3333333325
  0
LTYPE
  2
AI-LINETYPE-4
 70
     0
  3

 72
    65
 73
     2
 40
5.333333332500001
 49
3.3333333325
 49
-3.3333333325
  0
LTYPE
  2
AI-LINETYPE-3
 70
     0
  3

 72
    65
 73
     2
 40
5.333333332500001
 49
3.3333333325
 49
-3.3333333325
  0
LTYPE
  2
AI-LINETYPE-2
 70
     0
  3

 72
    65
 73
     2
 40
5.333333332500001
 49
3.3333333325
 49
-3.3333333325
  0
LTYPE
  2
AI-LINETYPE-1
 70
     0
  3

 72
    65
 73
     2
 40
5.333333332500001
 49
3.3333333325
 49
-3.3333333325
  0
LTYPE
  2
______-12
 70
     0
  3

 72
    65
 73
     2
 40
0.015748031496063
 49
0.015748031496063
 49
-0.031496062992126
  0
LTYPE
  2
______-11
 70
     0
  3

 72
    65
 73
     4
 40
0.1968503937007874
 49
0.1968503937007874
 49
-0.031496062992126
 49
0.015748031496063
 49
-0.031496062992126
  0
LTYPE
  2
______-10
 70
     0
  3

 72
    65
 73
     6
 40
1.5
 49
1.5
 49
-0.1111139999999999
 49
0.2777720000000001
 49
-0.1111139999999999
 49
0.25
 49
-0.125
  0
LTYPE
  2
______-9
 70
     0
  3

 72
    65
 73
     4
 40
1.5
 49
1.5
 49
-0.1111139999999999
 49
0.2777720000000001
 49
-0.1111139999999999
  0
LTYPE
  2
______-8
 70
     0
  3

 72
    65
 73
     6
 40
0.25
 49
0.25
 49
-0.083312
 49
0.027772
 49
-0.055572
 49
0.027772
 49
-0.055572
  0
LTYPE
  2
______-7
 70
     0
  3

 72
    65
 73
     6
 40
0.25
 49
0.25
 49
-0.083312
 49
0.2500000000000001
 49
-0.083344
 49
0.027772
 49
-0.055572
  0
LTYPE
  2
______-6
 70
     0
  3

 72
    65
 73
     4
 40
0.25
 49
0.25
 49
-0.083312
 49
0.027772
 49
-0.055572
  0
LTYPE
  2
______-5
 70
     0
  3

 72
    65
 73
     2
 40
0.02777
 49
0.02777
 49
-0.055542
  0
LTYPE
  2
______-4
 70
     0
  3

 72
    65
 73
     2
 40
0.52777
 49
0.52777
 49
-0.083314
  0
LTYPE
  2
______-3
 70
     0
  3

 72
    65
 73
     2
 40
0.416656
 49
0.416656
 49
-0.083344
  0
LTYPE
  2
______-2
 70
     0
  3

 72
    65
 73
     2
 40
0.194428
 49
0.194428
 49
-0.083342
  0
LTYPE
  2
______-1
 70
     0
  3

 72
    65
 73
     2
 40
0.083312
 49
0.083312
 49
-0.083344
  0
ENDTAB
  0
TABLE
  2
LAYER
 70
    35
  0
LAYER
  2
0
 70
     0
 62
     7
  6
CONTINUOUS
  0
LAYER
  2
020
 70
     0
 62
     1
  6
CONTINUOUS
  0
LAYER
  2
SAKUZU
 70
     0
 62
     7
  6
CONTINUOUS
  0
LAYER
  2
__-3
 70
     0
 62
     7
  6
CONTINUOUS
  0
LAYER
  2
LAYER0002
 70
     0
 62
     7
  6
CONTINUOUS
  0
LAYER
  2
DEFPOINTS
 70
     0
 62
     7
  6
CONTINUOUS
  0
ENDTAB
  0
TABLE
  2
STYLE
 70
     2
  0
STYLE
  2
STANDARD
 70
     0
 40
0.0
 41
1.0
 50
0.0
 71
     0
 42
0.2
  3
txt
  4
BIGFONT.SHX
  0
STYLE
  2
YUGOTHIC_MEDIUM
 70
     0
 40
0.0
 41
1.0
 50
0.0
 71
     0
 42
0.2
  3

  4
YuGothic Medium
  0
ENDTAB
  0
TABLE
  2
VIEW
 70
     0
  0
ENDTAB
  0
TABLE
  2
UCS
 70
     0
  0
ENDTAB
  0
TABLE
  2
APPID
 70
     3
  0
APPID
  2
ACAD
 70
     0
  0
APPID
  2
ACCMTRANSPARENCY
 70
     0
  0
APPID
  2
ACAECLAYERSTANDARD
 70
     0
  0
ENDTAB
  0
TABLE
  2
DIMSTYLE
 70
     2
  0
DIMSTYLE
  2
STANDARD
 70
     0
  3

  4

  5

  6

  7

 40
1.0
 41
0.18
 42
0.0625
 43
0.38
 44
0.18
 45
0.0
 46
0.0
 47
0.0
 48
0.0
140
0.18
141
0.09
142
0.0
143
25.4
144
1.0
145
0.0
146
1.0
147
0.09
 71
     0
 72
     0
 73
     1
 74
     1
 75
     0
 76
     0
 77
     0
 78
     0
170
     0
171
     2
172
     0
173
     0
174
     0
175
     0
176
     0
177
     0
178
     0
  0
DIMSTYLE
  2
SPEAC
 70
     0
  3
<>
  4
[]
  5
DOT
  6
DOT
  7
DOT
 40
1.0
 41
0.5007446289062499
 42
3.0
 43
10.16
 44
0.0
 45
0.0
 46
0.0
 47
0.0
 48
0.0
140
31.75824175824177
141
0.0
142
0.0
143
0.0393700787401575
144
1.0
145
0.0
146
1.0
147
0.1999999992549419
 71
     0
 72
     0
 73
     0
 74
     0
 75
     0
 76
     0
 77
     1
 78
     8
170
     0
171
     3
172
     1
173
     0
174
     1
175
     0
176
     0
177
     0
178
     0
  0
ENDTAB
  0
ENDSEC
  0
SECTION
  2
BLOCKS
  0
BLOCK
  8
0
  2
$MODEL_SPACE
 70
     0
 10
0.0
 20
0.0
 30
0.0
  3
$MODEL_SPACE
  1

  0
ENDBLK
  5
21
  8
0
  0
BLOCK
 67
     1
  8
0
  2
$PAPER_SPACE
 70
     0
 10
0.0
 20
0.0
 30
0.0
  3
$PAPER_SPACE
  1

  0
ENDBLK
  5
1D
 67
     1
  8
0
  0
BLOCK
  8
0
  2
____-1
 70
     0
 10
0.0
 20
0.0
 30
0.0
  3
____-1
  1

  0
ENDBLK
  5
71
  8
0
  0
BLOCK
  8
0
  2
____-2-1
 70
     0
 10
0.0
 20
0.0
 30
0.0
  3
____-2-1
  1

  0
LINE
  5
1A1
  8
__-3
  6
CONTINUOUS
 62
     7
 10
144.272
 20
310.5308544574551
 30
0.0
 11
-144.272
 21
310.5308544574551
 31
0.0
  0
TEXT
  5
1A2
  8
__-3
 62
     3
 10
94.48727566194626
 20
306.1956939473636
 30
0.0
 40
2.389518229166667
  1
2022.08.31
  7
YUGOTHIC_MEDIUM
 11
94.48727566194626
 21
307.390453061947
 31
0.0
 73
     2
  0
TEXT
  5
1A3
  8
__-3
 62
     3
 10
129.4375369899762
 20
306.1956939473636
 30
0.0
 40
2.389518229166667
  1
1:15(A4)
  7
YUGOTHIC_MEDIUM
 11
129.4375369899762
 21
307.390453061947
 31
0.0
 73
     2
  0
INSERT
  5
1A4
  8
__-3
 62
    17
  2
____-1
 10
0.0
 20
0.0
 30
0.0
  0
TEXT
  5
1A5
  8
__-3
 62
     3
 10
116.8075934565349
 20
306.9777030619469
 30
0.0
 40
2.389518229166667
  1
SCALE:
  7
YUGOTHIC_MEDIUM
 11
116.8075934565349
 21
309.3672212911135
 31
0.0
 73
     3
  0
TEXT
  5
1A6
  8
__-3
 62
     3
 10
-49.28778269347822
 20
306.9777030619469
 30
0.0
 40
2.389518229166667
  1
NAME:
  7
YUGOTHIC_MEDIUM
 11
-49.28778269347822
 21
309.3672212911135
 31
0.0
 73
     3
  0
TEXT
  5
1A7
  8
__-3
 62
     3
 10
83.83485407521394
 20
306.9777030619469
 30
0.0
 40
2.389518229166667
  1
DATE:
  7
YUGOTHIC_MEDIUM
 11
83.83485407521394
 21
309.3672212911135
 31
0.0
 73
     3
  0
TEXT
  5
1A8
  8
__-3
 62
     3
 10
49.94351325906834
 20
306.9777030619469
 30
0.0
 40
2.389518229166667
  1
ID:
  7
YUGOTHIC_MEDIUM
 11
49.94351325906834
 21
309.3672212911135
 31
0.0
 73
     3
  0
TEXT
  5
1A9
  8
__-3
 62
     3
 10
54.87692605681511
 20
306.1956939473636
 30
0.0
 40
2.389518229166667
  1
KB-KC025-07
  7
YUGOTHIC_MEDIUM
 11
54.87692605681511
 21
307.390453061947
 31
0.0
 73
     2
  0
TEXT
  5
1AA
  8
__-3
 62
     3
 10
-36.90650480634042
 20
306.1956939473636
 30
0.0
 40
2.389518229166667
  1
業務用キッチン  引き戸 バックガードあり
  7
YUGOTHIC_MEDIUM
 11
-36.90650480634042
 21
307.390453061947
 31
0.0
 73
     2
  0
ENDBLK
  5
74
  8
0
  0
BLOCK
  8
0
  2
____-3-1
 70
     0
 10
0.0
 20
0.0
 30
0.0
  3
____-3-1
  1

  0
ENDBLK
  5
77
  8
0
  0
BLOCK
  8
0
  2
____-4-1
 70
     0
 10
0.0
 20
0.0
 30
0.0
  3
____-4-1
  1

  0
LINE
  5
1AB
  8
__-3
  6
CONTINUOUS
 62
     7
 10
144.272
 20
109.2480892083655
 30
0.0
 11
-144.272
 21
109.2480892083655
 31
0.0
  0
TEXT
  5
1AC
  8
__-3
 62
     3
 10
94.48727566194626
 20
104.9129286982741
 30
0.0
 40
2.389518229166667
  1
2022.08.31
  7
YUGOTHIC_MEDIUM
 11
94.48727566194626
 21
106.1076878128574
 31
0.0
 73
     2
  0
TEXT
  5
1AD
  8
__-3
 62
     3
 10
129.4375369899762
 20
104.9129286982741
 30
0.0
 40
2.389518229166667
  1
1:15(A4)
  7
YUGOTHIC_MEDIUM
 11
129.4375369899762
 21
106.1076878128574
 31
0.0
 73
     2
  0
INSERT
  5
1AE
  8
__-3
 62
    17
  2
____-3-1
 10
0.0
 20
0.0
 30
0.0
  0
TEXT
  5
1AF
  8
__-3
 62
     3
 10
116.8075934565349
 20
105.6949378128574
 30
0.0
 40
2.389518229166667
  1
SCALE:
  7
YUGOTHIC_MEDIUM
 11
116.8075934565349
 21
108.084456042024
 31
0.0
 73
     3
  0
TEXT
  5
1B0
  8
__-3
 62
     3
 10
-49.28778269347822
 20
105.6949378128574
 30
0.0
 40
2.389518229166667
  1
NAME:
  7
YUGOTHIC_MEDIUM
 11
-49.28778269347822
 21
108.084456042024
 31
0.0
 73
     3
  0
TEXT
  5
1B1
  8
__-3
 62
     3
 10
83.83485407521394
 20
105.6949378128574
 30
0.0
 40
2.389518229166667
  1
DATE:
  7
YUGOTHIC_MEDIUM
 11
83.83485407521394
 21
108.084456042024
 31
0.0
 73
     3
  0
TEXT
  5
1B2
  8
__-3
 62
     3
 10
49.94351325906834
 20
105.6949378128574
 30
0.0
 40
2.389518229166667
  1
ID:
  7
YUGOTHIC_MEDIUM
 11
49.94351325906834
 21
108.084456042024
 31
0.0
 73
     3
  0
TEXT
  5
1B3
  8
__-3
 62
     3
 10
54.87692605681511
 20
104.9129286982741
 30
0.0
 40
2.389518229166667
  1
KB-KC025-07
  7
YUGOTHIC_MEDIUM
 11
54.87692605681511
 21
106.1076878128574
 31
0.0
 73
     2
  0
TEXT
  5
1B4
  8
__-3
 62
     3
 10
-36.90650480634042
 20
104.9129286982741
 30
0.0
 40
2.389518229166667
  1
業務用キッチン  引き戸 バックガードなし
  7
YUGOTHIC_MEDIUM
 11
-36.90650480634042
 21
106.1076878128574
 31
0.0
 73
     2
  0
ENDBLK
  5
7A
  8
0
  0
BLOCK
  8
0
  2
*D5
 70
     1
 10
0.0
 20
0.0
 30
0.0
  3
*D5
  1

  0
LINE
  5
1B5
  8
SAKUZU
  6
CONTINUOUS
 62
     0
 10
472.6736711015112
 20
6643.008637861433
 30
0.0
 11
472.6736711015112
 21
6840.008637861433
 31
0.0
  0
LINE
  5
1B6
  8
SAKUZU
  6
CONTINUOUS
 62
     0
 10
-427.3263288984908
 20
6643.008637861433
 30
0.0
 11
-427.3263288984908
 21
6840.008637861433
 31
0.0
  0
LINE
  5
1B7
  8
SAKUZU
  6
CONTINUOUS
 62
     0
 10
472.172926472605
 20
6840.008637861433
 30
0.0
 11
-426.8255842695846
 21
6840.008637861433
 31
0.0
  0
INSERT
  5
1B8
  8
SAKUZU
 62
     0
  2
_DOT
 10
472.6736711015112
 20
6840.008637861433
 30
0.0
 41
0.5007446289062499
 42
0.5007446289062499
 43
0.5007446289062499
  0
INSERT
  5
1B9
  8
SAKUZU
 62
     0
  2
_DOT
 10
-427.3263288984908
 20
6840.008637861433
 30
0.0
 41
0.5007446289062499
 42
0.5007446289062499
 43
0.5007446289062499
 50
180.0
  0
TEXT
  5
1BA
  8
SAKUZU
  6
CONTINUOUS
 62
     0
 10
-22.69524569597804
 20
6840.208637860688
 30
0.0
 40
31.75824175824177
  1
900
  7
YUGOTHIC_MEDIUM
  0
POINT
  5
1BB
  8
DEFPOINTS
 62
     0
 10
472.6736711015112
 20
6640.008637861433
 30
0.0
  0
POINT
  5
1BC
  8
DEFPOINTS
 62
     0
 10
-427.3263288984908
 20
6640.008637861433
 30
0.0
  0
POINT
  5
1BD
  8
DEFPOINTS
 62
     0
 10
-427.3263288984908
 20
6840.008637861433
 30
0.0
  0
ENDBLK
  5
7D
  8
0
  0
BLOCK
  8
0
  2
*D6
 70
     1
 10
0.0
 20
0.0
 30
0.0
  3
*D6
  1

  0
LINE
  5
1BE
  8
SAKUZU
  6
CONTINUOUS
 62
     0
 10
475.6736711015114
 20
6040.008637861433
 30
0.0
 11
672.6736711015112
 21
6040.008637861433
 31
0.0
  0
LINE
  5
1BF
  8
SAKUZU
  6
CONTINUOUS
 62
     0
 10
475.6736711015114
 20
6640.008637861433
 30
0.0
 11
672.6736711015112
 21
6640.008637861433
 31
0.0
  0
LINE
  5
1C0
  8
SAKUZU
  6
CONTINUOUS
 62
     0
 10
672.6736711015112
 20
6040.50938249034
 30
0.0
 11
672.6736711015112
 21
6639.507893232527
 31
0.0
  0
INSERT
  5
1C1
  8
SAKUZU
 62
     0
  2
_DOT
 10
672.6736711015112
 20
6040.008637861433
 30
0.0
 41
0.5007446289062499
 42
0.5007446289062499
 43
0.5007446289062499
 50
270.0
  0
INSERT
  5
1C2
  8
SAKUZU
 62
     0
  2
_DOT
 10
672.6736711015112
 20
6640.008637861433
 30
0.0
 41
0.5007446289062499
 42
0.5007446289062499
 43
0.5007446289062499
 50
90.0
  0
TEXT
  5
1C3
  8
SAKUZU
  6
CONTINUOUS
 62
     0
 10
672.473671102256
 20
6293.883572450653
 30
0.0
 40
31.75824175824177
  1
600
 50
90.0
  7
YUGOTHIC_MEDIUM
  0
POINT
  5
1C4
  8
DEFPOINTS
 62
     0
 10
472.6736711015114
 20
6040.008637861433
 30
0.0
  0
POINT
  5
1C5
  8
DEFPOINTS
 62
     0
 10
472.6736711015114
 20
6640.008637861433
 30
0.0
  0
POINT
  5
1C6
  8
DEFPOINTS
 62
     0
 10
672.6736711015112
 20
6640.008637861433
 30
0.0
  0
ENDBLK
  5
80
  8
0
  0
BLOCK
  8
0
  2
*D7
 70
     1
 10
0.0
 20
0.0
 30
0.0
  3
*D7
  1

  0
LINE
  5
1C7
  8
SAKUZU
  6
CONTINUOUS
 62
     0
 10
465.6736711015112
 20
5555.110090843061
 30
0.0
 11
572.6736711015112
 21
5555.110090843061
 31
0.0
  0
LINE
  5
1C8
  8
SAKUZU
  6
CONTINUOUS
 62
     0
 10
475.6736711015114
 20
5615.110090843061
 30
0.0
 11
572.6736711015112
 21
5615.110090843061
 31
0.0
  0
LINE
  5
1C9
  8
SAKUZU
  6
CONTINUOUS
 62
     0
 10
572.6736711015112
 20
5555.610835471967
 30
0.0
 11
572.6736711015112
 21
5614.609346214154
 31
0.0
  0
INSERT
  5
1CA
  8
SAKUZU
 62
     0
  2
_DOT
 10
572.6736711015112
 20
5555.110090843061
 30
0.0
 41
0.5007446289062499
 42
0.5007446289062499
 43
0.5007446289062499
 50
270.0
  0
INSERT
  5
1CB
  8
SAKUZU
 62
     0
  2
_DOT
 10
572.6736711015112
 20
5615.110090843061
 30
0.0
 41
0.5007446289062499
 42
0.5007446289062499
 43
0.5007446289062499
 50
90.0
  0
TEXT
  5
1CC
  8
SAKUZU
  6
CONTINUOUS
 62
     0
 10
572.473671102256
 20
5554.107997698111
 30
0.0
 40
31.75824175824177
  1
60
 50
90.0
  7
YUGOTHIC_MEDIUM
  0
POINT
  5
1CD
  8
DEFPOINTS
 62
     0
 10
462.6736711015112
 20
5555.110090843061
 30
0.0
  0
POINT
  5
1CE
  8
DEFPOINTS
 62
     0
 10
472.6736711015114
 20
5615.110090843061
 30
0.0
  0
POINT
  5
1CF
  8
DEFPOINTS
 62
     0
 10
572.6736711015112
 20
5615.110090843061
 30
0.0
  0
ENDBLK
  5
83
  8
0
  0
BLOCK
  8
0
  2
*D8
 70
     1
 10
0.0
 20
0.0
 30
0.0
  3
*D8
  1

  0
LINE
  5
1D0
  8
SAKUZU
  6
CONTINUOUS
 62
     0
 10
465.6736711015112
 20
4965.11009084306
 30
0.0
 11
572.6736711015112
 21
4965.11009084306
 31
0.0
  0
LINE
  5
1D1
  8
SAKUZU
  6
CONTINUOUS
 62
     0
 10
465.6736711015112
 20
5555.110090843061
 30
0.0
 11
572.6736711015112
 21
5555.110090843061
 31
0.0
  0
LINE
  5
1D2
  8
SAKUZU
  6
CONTINUOUS
 62
     0
 10
572.6736711015112
 20
4965.610835471966
 30
0.0
 11
572.6736711015112
 21
5554.609346214154
 31
0.0
  0
INSERT
  5
1D3
  8
SAKUZU
 62
     0
  2
_DOT
 10
572.6736711015112
 20
4965.11009084306
 30
0.0
 41
0.5007446289062499
 42
0.5007446289062499
 43
0.5007446289062499
 50
270.0
  0
INSERT
  5
1D4
  8
SAKUZU
 62
     0
  2
_DOT
 10
572.6736711015112
 20
5555.110090843061
 30
0.0
 41
0.5007446289062499
 42
0.5007446289062499
 43
0.5007446289062499
 50
90.0
  0
TEXT
  5
1D5
  8
SAKUZU
  6
CONTINUOUS
 62
     0
 10
572.473671102256
 20
5214.741174045572
 30
0.0
 40
31.75824175824177
  1
590
 50
90.0
  7
YUGOTHIC_MEDIUM
  0
POINT
  5
1D6
  8
DEFPOINTS
 62
     0
 10
462.6736711015112
 20
4965.11009084306
 30
0.0
  0
POINT
  5
1D7
  8
DEFPOINTS
 62
     0
 10
462.6736711015112
 20
5555.110090843061
 30
0.0
  0
POINT
  5
1D8
  8
DEFPOINTS
 62
     0
 10
572.6736711015112
 20
5555.110090843061
 30
0.0
  0
ENDBLK
  5
86
  8
0
  0
BLOCK
  8
0
  2
*D9
 70
     1
 10
0.0
 20
0.0
 30
0.0
  3
*D9
  1

  0
LINE
  5
1D9
  8
SAKUZU
  6
CONTINUOUS
 62
     0
 10
465.6736711015112
 20
4915.11009084306
 30
0.0
 11
572.6736711015112
 21
4915.11009084306
 31
0.0
  0
LINE
  5
1DA
  8
SAKUZU
  6
CONTINUOUS
 62
     0
 10
465.6736711015112
 20
4965.11009084306
 30
0.0
 11
572.6736711015112
 21
4965.11009084306
 31
0.0
  0
LINE
  5
1DB
  8
SAKUZU
  6
CONTINUOUS
 62
     0
 10
572.6736711015112
 20
4915.11009084306
 30
0.0
 11
572.6736711015112
 21
4965.11009084306
 31
0.0
  0
LINE
  5
1DC
  8
SAKUZU
  6
CONTINUOUS
 62
     0
 10
572.6736711015112
 20
4914.609346214153
 30
0.0
 11
572.6736711015112
 21
4914.108601585247
 31
0.0
  0
LINE
  5
1DD
  8
SAKUZU
  6
CONTINUOUS
 62
     0
 10
572.6736711015112
 20
4965.610835471966
 30
0.0
 11
572.6736711015112
 21
4966.111580100873
 31
0.0
  0
INSERT
  5
1DE
  8
SAKUZU
 62
     0
  2
_DOT
 10
572.6736711015112
 20
4915.11009084306
 30
0.0
 41
0.5007446289062499
 42
0.5007446289062499
 43
0.5007446289062499
 50
90.0
  0
INSERT
  5
1DF
  8
SAKUZU
 62
     0
  2
_DOT
 10
572.6736711015112
 20
4965.11009084306
 30
0.0
 41
0.5007446289062499
 42
0.5007446289062499
 43
0.5007446289062499
 50
270.0
  0
TEXT
  5
1E0
  8
SAKUZU
  6
CONTINUOUS
 62
     0
 10
572.473671102256
 20
4909.864146311402
 30
0.0
 40
31.75824175824177
  1
50
 50
90.0
  7
YUGOTHIC_MEDIUM
  0
POINT
  5
1E1
  8
DEFPOINTS
 62
     0
 10
462.6736711015112
 20
4915.11009084306
 30
0.0
  0
POINT
  5
4A0
  8
DEFPOINTS
 62
     0
 10
462.6736711015112
 20
4965.11009084306
 30
0.0
  0
POINT
  5
4A1
  8
DEFPOINTS
 62
     0
 10
572.6736711015112
 20
4965.11009084306
 30
0.0
  0
ENDBLK
  5
89
  8
0
  0
BLOCK
  8
0
  2
*D10
 70
     1
 10
0.0
 20
0.0
 30
0.0
  3
*D10
  1

  0
LINE
  5
1E2
  8
SAKUZU
  6
CONTINUOUS
 62
     0
 10
1404.633804099863
 20
5615.110090843061
 30
0.0
 11
1202.633804099863
 21
5615.110090843061
 31
0.0
  0
LINE
  5
1E3
  8
SAKUZU
  6
CONTINUOUS
 62
     0
 10
1445.633804099863
 20
4765.110090843059
 30
0.0
 11
1202.633804099863
 21
4765.110090843059
 31
0.0
  0
LINE
  5
1E4
  8
SAKUZU
  6
CONTINUOUS
 62
     0
 10
1202.633804099863
 20
5614.609346214154
 30
0.0
 11
1202.633804099863
 21
4765.610835471965
 31
0.0
  0
INSERT
  5
1E5
  8
SAKUZU
 62
     0
  2
_DOT
 10
1202.633804099863
 20
5615.110090843061
 30
0.0
 41
0.5007446289062499
 42
0.5007446289062499
 43
0.5007446289062499
 50
90.0
  0
INSERT
  5
1E6
  8
SAKUZU
 62
     0
  2
_DOT
 10
1202.633804099863
 20
4765.110090843059
 30
0.0
 41
0.5007446289062499
 42
0.5007446289062499
 43
0.5007446289062499
 50
270.0
  0
TEXT
  5
1E7
  8
SAKUZU
  6
CONTINUOUS
 62
     0
 10
1202.433804100609
 20
5144.741174045572
 30
0.0
 40
31.75824175824177
  1
850
 50
90.0
  7
YUGOTHIC_MEDIUM
  0
POINT
  5
1E8
  8
DEFPOINTS
 62
     0
 10
1407.633804099863
 20
5615.110090843061
 30
0.0
  0
POINT
  5
1E9
  8
DEFPOINTS
 62
     0
 10
1448.633804099863
 20
4765.110090843059
 30
0.0
  0
POINT
  5
1EA
  8
DEFPOINTS
 62
     0
 10
1202.633804099863
 20
4765.110090843059
 30
0.0
  0
ENDBLK
  5
8C
  8
0
  0
BLOCK
  8
0
  2
*D11
 70
     1
 10
0.0
 20
0.0
 30
0.0
  3
*D11
  1

  0
LINE
  5
1EB
  8
SAKUZU
  6
CONTINUOUS
 62
     0
 10
1399.633804099863
 20
5575.110090843061
 30
0.0
 11
1302.633804099863
 21
5575.110090843061
 31
0.0
  0
LINE
  5
1EC
  8
SAKUZU
  6
CONTINUOUS
 62
     0
 10
1404.633804099863
 20
5615.110090843061
 30
0.0
 11
1302.633804099863
 21
5615.110090843061
 31
0.0
  0
LINE
  5
1ED
  8
SAKUZU
  6
CONTINUOUS
 62
     0
 10
1302.633804099863
 20
5575.110090843061
 30
0.0
 11
1302.633804099863
 21
5615.110090843061
 31
0.0
  0
LINE
  5
1EE
  8
SAKUZU
  6
CONTINUOUS
 62
     0
 10
1302.633804099863
 20
5574.609346214154
 30
0.0
 11
1302.633804099863
 21
5574.108601585248
 31
0.0
  0
LINE
  5
1EF
  8
SAKUZU
  6
CONTINUOUS
 62
     0
 10
1302.633804099863
 20
5615.610835471967
 30
0.0
 11
1302.633804099863
 21
5616.111580100874
 31
0.0
  0
INSERT
  5
1F0
  8
SAKUZU
 62
     0
  2
_DOT
 10
1302.633804099863
 20
5575.110090843061
 30
0.0
 41
0.5007446289062499
 42
0.5007446289062499
 43
0.5007446289062499
 50
90.0
  0
INSERT
  5
1F1
  8
SAKUZU
 62
     0
  2
_DOT
 10
1302.633804099863
 20
5615.110090843061
 30
0.0
 41
0.5007446289062499
 42
0.5007446289062499
 43
0.5007446289062499
 50
270.0
  0
TEXT
  5
1F2
  8
SAKUZU
  6
CONTINUOUS
 62
     0
 10
1302.433804100608
 20
5564.864146311403
 30
0.0
 40
31.75824175824177
  1
40
 50
90.0
  7
YUGOTHIC_MEDIUM
  0
POINT
  5
1F3
  8
DEFPOINTS
 62
     0
 10
1402.633804099863
 20
5575.110090843061
 30
0.0
  0
POINT
  5
4A4
  8
DEFPOINTS
 62
     0
 10
1407.633804099863
 20
5615.110090843061
 30
0.0
  0
POINT
  5
4A5
  8
DEFPOINTS
 62
     0
 10
1302.633804099863
 20
5615.110090843061
 30
0.0
  0
ENDBLK
  5
8F
  8
0
  0
BLOCK
  8
0
  2
*D12
 70
     1
 10
0.0
 20
0.0
 30
0.0
  3
*D12
  1

  0
LINE
  5
1F4
  8
SAKUZU
  6
CONTINUOUS
 62
     0
 10
1409.633804099863
 20
4915.11009084306
 30
0.0
 11
1302.633804099863
 21
4915.11009084306
 31
0.0
  0
LINE
  5
1F5
  8
SAKUZU
  6
CONTINUOUS
 62
     0
 10
1445.633804099863
 20
4765.110090843059
 30
0.0
 11
1302.633804099863
 21
4765.110090843059
 31
0.0
  0
LINE
  5
1F6
  8
SAKUZU
  6
CONTINUOUS
 62
     0
 10
1302.633804099863
 20
4914.609346214153
 30
0.0
 11
1302.633804099863
 21
4765.610835471965
 31
0.0
  0
INSERT
  5
1F7
  8
SAKUZU
 62
     0
  2
_DOT
 10
1302.633804099863
 20
4915.11009084306
 30
0.0
 41
0.5007446289062499
 42
0.5007446289062499
 43
0.5007446289062499
 50
90.0
  0
INSERT
  5
1F8
  8
SAKUZU
 62
     0
  2
_DOT
 10
1302.633804099863
 20
4765.110090843059
 30
0.0
 41
0.5007446289062499
 42
0.5007446289062499
 43
0.5007446289062499
 50
270.0
  0
TEXT
  5
1F9
  8
SAKUZU
  6
CONTINUOUS
 62
     0
 10
1302.433804100609
 20
4792.472728205697
 30
0.0
 40
31.75824175824177
  1
150
 50
90.0
  7
YUGOTHIC_MEDIUM
  0
POINT
  5
1FA
  8
DEFPOINTS
 62
     0
 10
1412.633804099863
 20
4915.11009084306
 30
0.0
  0
POINT
  5
1FB
  8
DEFPOINTS
 62
     0
 10
1448.633804099863
 20
4765.110090843059
 30
0.0
  0
POINT
  5
1FC
  8
DEFPOINTS
 62
     0
 10
1302.633804099863
 20
4765.110090843059
 30
0.0
  0
ENDBLK
  5
92
  8
0
  0
BLOCK
  8
0
  2
*D13
 70
     1
 10
0.0
 20
0.0
 30
0.0
  3
*D13
  1

  0
LINE
  5
1FD
  8
SAKUZU
  6
CONTINUOUS
 62
     0
 10
475.6736711015112
 20
6580.008637861433
 30
0.0
 11
585.1736711015114
 21
6580.008637861433
 31
0.0
  0
LINE
  5
1FE
  8
SAKUZU
  6
CONTINUOUS
 62
     0
 10
475.6736711015114
 20
6640.008637861433
 30
0.0
 11
585.1736711015114
 21
6640.008637861433
 31
0.0
  0
LINE
  5
1FF
  8
SAKUZU
  6
CONTINUOUS
 62
     0
 10
585.1736711015114
 20
6580.50938249034
 30
0.0
 11
585.1736711015114
 21
6639.507893232527
 31
0.0
  0
INSERT
  5
200
  8
SAKUZU
 62
     0
  2
_DOT
 10
585.1736711015114
 20
6580.008637861433
 30
0.0
 41
0.5007446289062499
 42
0.5007446289062499
 43
0.5007446289062499
 50
270.0
  0
INSERT
  5
201
  8
SAKUZU
 62
     0
  2
_DOT
 10
585.1736711015114
 20
6640.008637861433
 30
0.0
 41
0.5007446289062499
 42
0.5007446289062499
 43
0.5007446289062499
 50
90.0
  0
TEXT
  5
202
  8
SAKUZU
  6
CONTINUOUS
 62
     0
 10
584.973671102257
 20
6579.006544716482
 30
0.0
 40
31.75824175824177
  1
60
 50
90.0
  7
YUGOTHIC_MEDIUM
  0
POINT
  5
203
  8
DEFPOINTS
 62
     0
 10
472.6736711015112
 20
6580.008637861433
 30
0.0
  0
POINT
  5
204
  8
DEFPOINTS
 62
     0
 10
472.6736711015114
 20
6640.008637861433
 30
0.0
  0
POINT
  5
205
  8
DEFPOINTS
 62
     0
 10
585.1736711015114
 20
6640.008637861433
 30
0.0
  0
ENDBLK
  5
95
  8
0
  0
BLOCK
  8
0
  2
*D14
 70
     1
 10
0.0
 20
0.0
 30
0.0
  3
*D14
  1

  0
LINE
  5
206
  8
SAKUZU
  6
CONTINUOUS
 62
     0
 10
1944.633804099863
 20
5765.110090843061
 30
0.0
 11
1202.633804099863
 21
5765.110090843061
 31
0.0
  0
LINE
  5
207
  8
SAKUZU
  6
CONTINUOUS
 62
     0
 10
1404.633804099863
 20
5615.110090843061
 30
0.0
 11
1202.633804099863
 21
5615.110090843061
 31
0.0
  0
LINE
  5
208
  8
SAKUZU
  6
CONTINUOUS
 62
     0
 10
1202.633804099863
 20
5764.609346214154
 30
0.0
 11
1202.633804099863
 21
5615.610835471967
 31
0.0
  0
INSERT
  5
209
  8
SAKUZU
 62
     0
  2
_DOT
 10
1202.633804099863
 20
5765.110090843061
 30
0.0
 41
0.5007446289062499
 42
0.5007446289062499
 43
0.5007446289062499
 50
90.0
  0
INSERT
  5
20A
  8
SAKUZU
 62
     0
  2
_DOT
 10
1202.633804099863
 20
5615.110090843061
 30
0.0
 41
0.5007446289062499
 42
0.5007446289062499
 43
0.5007446289062499
 50
270.0
  0
TEXT
  5
20B
  8
SAKUZU
  6
CONTINUOUS
 62
     0
 10
1202.433804100608
 20
5642.472728205698
 30
0.0
 40
31.75824175824177
  1
150
 50
90.0
  7
YUGOTHIC_MEDIUM
  0
POINT
  5
20C
  8
DEFPOINTS
 62
     0
 10
1947.633804099863
 20
5765.110090843061
 30
0.0
  0
POINT
  5
20D
  8
DEFPOINTS
 62
     0
 10
1407.633804099863
 20
5615.110090843061
 30
0.0
  0
POINT
  5
20E
  8
DEFPOINTS
 62
     0
 10
1202.633804099863
 20
5615.110090843061
 30
0.0
  0
ENDBLK
  5
98
  8
0
  0
BLOCK
  8
0
  2
*D15
 70
     1
 10
0.0
 20
0.0
 30
0.0
  3
*D15
  1

  0
LINE
  5
20F
  8
SAKUZU
  6
CONTINUOUS
 62
     0
 10
472.6736711015096
 20
3623.478241760087
 30
0.0
 11
472.6736711015096
 21
3820.478241760087
 31
0.0
  0
LINE
  5
210
  8
SAKUZU
  6
CONTINUOUS
 62
     0
 10
-427.3263288984908
 20
3623.478241760087
 30
0.0
 11
-427.3263288984908
 21
3820.478241760087
 31
0.0
  0
LINE
  5
211
  8
SAKUZU
  6
CONTINUOUS
 62
     0
 10
472.1729264726034
 20
3820.478241760087
 30
0.0
 11
-426.8255842695846
 21
3820.478241760087
 31
0.0
  0
INSERT
  5
212
  8
SAKUZU
 62
     0
  2
_DOT
 10
472.6736711015096
 20
3820.478241760087
 30
0.0
 41
0.5007446289062499
 42
0.5007446289062499
 43
0.5007446289062499
  0
INSERT
  5
213
  8
SAKUZU
 62
     0
  2
_DOT
 10
-427.3263288984908
 20
3820.478241760087
 30
0.0
 41
0.5007446289062499
 42
0.5007446289062499
 43
0.5007446289062499
 50
180.0
  0
TEXT
  5
214
  8
SAKUZU
  6
CONTINUOUS
 62
     0
 10
-22.69524569597884
 20
3820.678241759342
 30
0.0
 40
31.75824175824177
  1
900
  7
YUGOTHIC_MEDIUM
  0
POINT
  5
215
  8
DEFPOINTS
 62
     0
 10
472.6736711015096
 20
3620.478241760087
 30
0.0
  0
POINT
  5
216
  8
DEFPOINTS
 62
     0
 10
-427.3263288984908
 20
3620.478241760087
 30
0.0
  0
POINT
  5
217
  8
DEFPOINTS
 62
     0
 10
-427.3263288984908
 20
3820.478241760087
 30
0.0
  0
ENDBLK
  5
9B
  8
0
  0
BLOCK
  8
0
  2
*D16
 70
     1
 10
0.0
 20
0.0
 30
0.0
  3
*D16
  1

  0
LINE
  5
218
  8
SAKUZU
  6
CONTINUOUS
 62
     0
 10
475.6736711015101
 20
3020.478241760087
 30
0.0
 11
672.6736711015096
 21
3020.478241760087
 31
0.0
  0
LINE
  5
219
  8
SAKUZU
  6
CONTINUOUS
 62
     0
 10
475.6736711015101
 20
3620.478241760087
 30
0.0
 11
672.6736711015096
 21
3620.478241760087
 31
0.0
  0
LINE
  5
21A
  8
SAKUZU
  6
CONTINUOUS
 62
     0
 10
672.6736711015096
 20
3020.978986388994
 30
0.0
 11
672.6736711015096
 21
3619.977497131181
 31
0.0
  0
INSERT
  5
21B
  8
SAKUZU
 62
     0
  2
_DOT
 10
672.6736711015096
 20
3020.478241760087
 30
0.0
 41
0.5007446289062499
 42
0.5007446289062499
 43
0.5007446289062499
 50
270.0
  0
INSERT
  5
21C
  8
SAKUZU
 62
     0
  2
_DOT
 10
672.6736711015096
 20
3620.478241760087
 30
0.0
 41
0.5007446289062499
 42
0.5007446289062499
 43
0.5007446289062499
 50
90.0
  0
TEXT
  5
21D
  8
SAKUZU
  6
CONTINUOUS
 62
     0
 10
672.4736711022547
 20
3274.353176349307
 30
0.0
 40
31.75824175824177
  1
600
 50
90.0
  7
YUGOTHIC_MEDIUM
  0
POINT
  5
21E
  8
DEFPOINTS
 62
     0
 10
472.6736711015101
 20
3020.478241760087
 30
0.0
  0
POINT
  5
21F
  8
DEFPOINTS
 62
     0
 10
472.6736711015101
 20
3620.478241760087
 30
0.0
  0
POINT
  5
220
  8
DEFPOINTS
 62
     0
 10
672.6736711015096
 20
3620.478241760087
 30
0.0
  0
ENDBLK
  5
9E
  8
0
  0
BLOCK
  8
0
  2
*D17
 70
     1
 10
0.0
 20
0.0
 30
0.0
  3
*D17
  1

  0
LINE
  5
221
  8
SAKUZU
  6
CONTINUOUS
 62
     0
 10
465.6736711015096
 20
2535.579694741714
 30
0.0
 11
572.6736711015096
 21
2535.579694741714
 31
0.0
  0
LINE
  5
222
  8
SAKUZU
  6
CONTINUOUS
 62
     0
 10
475.6736711015101
 20
2595.579694741714
 30
0.0
 11
572.6736711015096
 21
2595.579694741714
 31
0.0
  0
LINE
  5
223
  8
SAKUZU
  6
CONTINUOUS
 62
     0
 10
572.6736711015096
 20
2536.08043937062
 30
0.0
 11
572.6736711015096
 21
2595.078950112807
 31
0.0
  0
INSERT
  5
224
  8
SAKUZU
 62
     0
  2
_DOT
 10
572.6736711015096
 20
2535.579694741714
 30
0.0
 41
0.5007446289062499
 42
0.5007446289062499
 43
0.5007446289062499
 50
270.0
  0
INSERT
  5
225
  8
SAKUZU
 62
     0
  2
_DOT
 10
572.6736711015096
 20
2595.579694741714
 30
0.0
 41
0.5007446289062499
 42
0.5007446289062499
 43
0.5007446289062499
 50
90.0
  0
TEXT
  5
226
  8
SAKUZU
  6
CONTINUOUS
 62
     0
 10
572.4736711022547
 20
2534.577601596764
 30
0.0
 40
31.75824175824177
  1
60
 50
90.0
  7
YUGOTHIC_MEDIUM
  0
POINT
  5
227
  8
DEFPOINTS
 62
     0
 10
462.6736711015096
 20
2535.579694741714
 30
0.0
  0
POINT
  5
228
  8
DEFPOINTS
 62
     0
 10
472.6736711015101
 20
2595.579694741714
 30
0.0
  0
POINT
  5
229
  8
DEFPOINTS
 62
     0
 10
572.6736711015096
 20
2595.579694741714
 30
0.0
  0
ENDBLK
  5
A1
  8
0
  0
BLOCK
  8
0
  2
*D18
 70
     1
 10
0.0
 20
0.0
 30
0.0
  3
*D18
  1

  0
LINE
  5
22A
  8
SAKUZU
  6
CONTINUOUS
 62
     0
 10
465.6736711015096
 20
1945.579694741714
 30
0.0
 11
572.6736711015096
 21
1945.579694741714
 31
0.0
  0
LINE
  5
22B
  8
SAKUZU
  6
CONTINUOUS
 62
     0
 10
465.6736711015096
 20
2535.579694741714
 30
0.0
 11
572.6736711015096
 21
2535.579694741714
 31
0.0
  0
LINE
  5
22C
  8
SAKUZU
  6
CONTINUOUS
 62
     0
 10
572.6736711015096
 20
1946.08043937062
 30
0.0
 11
572.6736711015096
 21
2535.078950112807
 31
0.0
  0
INSERT
  5
22D
  8
SAKUZU
 62
     0
  2
_DOT
 10
572.6736711015096
 20
1945.579694741714
 30
0.0
 41
0.5007446289062499
 42
0.5007446289062499
 43
0.5007446289062499
 50
270.0
  0
INSERT
  5
22E
  8
SAKUZU
 62
     0
  2
_DOT
 10
572.6736711015096
 20
2535.579694741714
 30
0.0
 41
0.5007446289062499
 42
0.5007446289062499
 43
0.5007446289062499
 50
90.0
  0
TEXT
  5
22F
  8
SAKUZU
  6
CONTINUOUS
 62
     0
 10
572.4736711022547
 20
2195.210777944226
 30
0.0
 40
31.75824175824177
  1
590
 50
90.0
  7
YUGOTHIC_MEDIUM
  0
POINT
  5
230
  8
DEFPOINTS
 62
     0
 10
462.6736711015096
 20
1945.579694741714
 30
0.0
  0
POINT
  5
231
  8
DEFPOINTS
 62
     0
 10
462.6736711015096
 20
2535.579694741714
 30
0.0
  0
POINT
  5
232
  8
DEFPOINTS
 62
     0
 10
572.6736711015096
 20
2535.579694741714
 30
0.0
  0
ENDBLK
  5
A4
  8
0
  0
BLOCK
  8
0
  2
*D19
 70
     1
 10
0.0
 20
0.0
 30
0.0
  3
*D19
  1

  0
LINE
  5
233
  8
SAKUZU
  6
CONTINUOUS
 62
     0
 10
465.6736711015096
 20
1895.579694741714
 30
0.0
 11
572.6736711015096
 21
1895.579694741714
 31
0.0
  0
LINE
  5
234
  8
SAKUZU
  6
CONTINUOUS
 62
     0
 10
465.6736711015096
 20
1945.579694741714
 30
0.0
 11
572.6736711015096
 21
1945.579694741714
 31
0.0
  0
LINE
  5
235
  8
SAKUZU
  6
CONTINUOUS
 62
     0
 10
572.6736711015096
 20
1895.579694741714
 30
0.0
 11
572.6736711015096
 21
1945.579694741714
 31
0.0
  0
LINE
  5
236
  8
SAKUZU
  6
CONTINUOUS
 62
     0
 10
572.6736711015096
 20
1895.078950112807
 30
0.0
 11
572.6736711015096
 21
1894.578205483901
 31
0.0
  0
LINE
  5
237
  8
SAKUZU
  6
CONTINUOUS
 62
     0
 10
572.6736711015096
 20
1946.08043937062
 30
0.0
 11
572.6736711015096
 21
1946.581183999526
 31
0.0
  0
INSERT
  5
238
  8
SAKUZU
 62
     0
  2
_DOT
 10
572.6736711015096
 20
1895.579694741714
 30
0.0
 41
0.5007446289062499
 42
0.5007446289062499
 43
0.5007446289062499
 50
90.0
  0
INSERT
  5
239
  8
SAKUZU
 62
     0
  2
_DOT
 10
572.6736711015096
 20
1945.579694741714
 30
0.0
 41
0.5007446289062499
 42
0.5007446289062499
 43
0.5007446289062499
 50
270.0
  0
TEXT
  5
23A
  8
SAKUZU
  6
CONTINUOUS
 62
     0
 10
572.4736711022547
 20
1890.333750210055
 30
0.0
 40
31.75824175824177
  1
50
 50
90.0
  7
YUGOTHIC_MEDIUM
  0
POINT
  5
23B
  8
DEFPOINTS
 62
     0
 10
462.6736711015096
 20
1895.579694741714
 30
0.0
  0
POINT
  5
539
  8
DEFPOINTS
 62
     0
 10
462.6736711015096
 20
1945.579694741714
 30
0.0
  0
POINT
  5
53A
  8
DEFPOINTS
 62
     0
 10
572.6736711015096
 20
1945.579694741714
 30
0.0
  0
ENDBLK
  5
A7
  8
0
  0
BLOCK
  8
0
  2
*D20
 70
     1
 10
0.0
 20
0.0
 30
0.0
  3
*D20
  1

  0
LINE
  5
23C
  8
SAKUZU
  6
CONTINUOUS
 62
     0
 10
1404.633804099863
 20
2595.579694741714
 30
0.0
 11
1202.633804099863
 21
2595.579694741714
 31
0.0
  0
LINE
  5
23D
  8
SAKUZU
  6
CONTINUOUS
 62
     0
 10
1445.633804099863
 20
1745.579694741713
 30
0.0
 11
1202.633804099863
 21
1745.579694741713
 31
0.0
  0
LINE
  5
23E
  8
SAKUZU
  6
CONTINUOUS
 62
     0
 10
1202.633804099863
 20
2595.078950112807
 30
0.0
 11
1202.633804099863
 21
1746.080439370619
 31
0.0
  0
INSERT
  5
23F
  8
SAKUZU
 62
     0
  2
_DOT
 10
1202.633804099863
 20
2595.579694741714
 30
0.0
 41
0.5007446289062499
 42
0.5007446289062499
 43
0.5007446289062499
 50
90.0
  0
INSERT
  5
240
  8
SAKUZU
 62
     0
  2
_DOT
 10
1202.633804099863
 20
1745.579694741713
 30
0.0
 41
0.5007446289062499
 42
0.5007446289062499
 43
0.5007446289062499
 50
270.0
  0
TEXT
  5
241
  8
SAKUZU
  6
CONTINUOUS
 62
     0
 10
1202.433804100608
 20
2125.210777944225
 30
0.0
 40
31.75824175824177
  1
850
 50
90.0
  7
YUGOTHIC_MEDIUM
  0
POINT
  5
242
  8
DEFPOINTS
 62
     0
 10
1407.633804099863
 20
2595.579694741714
 30
0.0
  0
POINT
  5
243
  8
DEFPOINTS
 62
     0
 10
1448.633804099863
 20
1745.579694741713
 30
0.0
  0
POINT
  5
244
  8
DEFPOINTS
 62
     0
 10
1202.633804099863
 20
1745.579694741713
 30
0.0
  0
ENDBLK
  5
AA
  8
0
  0
BLOCK
  8
0
  2
*D21
 70
     1
 10
0.0
 20
0.0
 30
0.0
  3
*D21
  1

  0
LINE
  5
245
  8
SAKUZU
  6
CONTINUOUS
 62
     0
 10
1399.633804099863
 20
2555.579694741714
 30
0.0
 11
1302.633804099863
 21
2555.579694741714
 31
0.0
  0
LINE
  5
246
  8
SAKUZU
  6
CONTINUOUS
 62
     0
 10
1404.633804099863
 20
2595.579694741714
 30
0.0
 11
1302.633804099863
 21
2595.579694741714
 31
0.0
  0
LINE
  5
247
  8
SAKUZU
  6
CONTINUOUS
 62
     0
 10
1302.633804099863
 20
2555.579694741714
 30
0.0
 11
1302.633804099863
 21
2595.579694741714
 31
0.0
  0
LINE
  5
248
  8
SAKUZU
  6
CONTINUOUS
 62
     0
 10
1302.633804099863
 20
2555.078950112807
 30
0.0
 11
1302.633804099863
 21
2554.578205483901
 31
0.0
  0
LINE
  5
249
  8
SAKUZU
  6
CONTINUOUS
 62
     0
 10
1302.633804099863
 20
2596.08043937062
 30
0.0
 11
1302.633804099863
 21
2596.581183999527
 31
0.0
  0
INSERT
  5
24A
  8
SAKUZU
 62
     0
  2
_DOT
 10
1302.633804099863
 20
2555.579694741714
 30
0.0
 41
0.5007446289062499
 42
0.5007446289062499
 43
0.5007446289062499
 50
90.0
  0
INSERT
  5
24B
  8
SAKUZU
 62
     0
  2
_DOT
 10
1302.633804099863
 20
2595.579694741714
 30
0.0
 41
0.5007446289062499
 42
0.5007446289062499
 43
0.5007446289062499
 50
270.0
  0
TEXT
  5
24C
  8
SAKUZU
  6
CONTINUOUS
 62
     0
 10
1302.433804100608
 20
2545.333750210055
 30
0.0
 40
31.75824175824177
  1
40
 50
90.0
  7
YUGOTHIC_MEDIUM
  0
POINT
  5
24D
  8
DEFPOINTS
 62
     0
 10
1402.633804099863
 20
2555.579694741714
 30
0.0
  0
POINT
  5
53D
  8
DEFPOINTS
 62
     0
 10
1407.633804099863
 20
2595.579694741714
 30
0.0
  0
POINT
  5
53E
  8
DEFPOINTS
 62
     0
 10
1302.633804099863
 20
2595.579694741714
 30
0.0
  0
ENDBLK
  5
AD
  8
0
  0
BLOCK
  8
0
  2
*D22
 70
     1
 10
0.0
 20
0.0
 30
0.0
  3
*D22
  1

  0
LINE
  5
24E
  8
SAKUZU
  6
CONTINUOUS
 62
     0
 10
1409.633804099863
 20
1895.579694741714
 30
0.0
 11
1302.633804099863
 21
1895.579694741714
 31
0.0
  0
LINE
  5
24F
  8
SAKUZU
  6
CONTINUOUS
 62
     0
 10
1445.633804099863
 20
1745.579694741713
 30
0.0
 11
1302.633804099863
 21
1745.579694741713
 31
0.0
  0
LINE
  5
250
  8
SAKUZU
  6
CONTINUOUS
 62
     0
 10
1302.633804099863
 20
1895.078950112807
 30
0.0
 11
1302.633804099863
 21
1746.080439370619
 31
0.0
  0
INSERT
  5
251
  8
SAKUZU
 62
     0
  2
_DOT
 10
1302.633804099863
 20
1895.579694741714
 30
0.0
 41
0.5007446289062499
 42
0.5007446289062499
 43
0.5007446289062499
 50
90.0
  0
INSERT
  5
252
  8
SAKUZU
 62
     0
  2
_DOT
 10
1302.633804099863
 20
1745.579694741713
 30
0.0
 41
0.5007446289062499
 42
0.5007446289062499
 43
0.5007446289062499
 50
270.0
  0
TEXT
  5
253
  8
SAKUZU
  6
CONTINUOUS
 62
     0
 10
1302.433804100608
 20
1772.94233210435
 30
0.0
 40
31.75824175824177
  1
150
 50
90.0
  7
YUGOTHIC_MEDIUM
  0
POINT
  5
254
  8
DEFPOINTS
 62
     0
 10
1412.633804099863
 20
1895.579694741714
 30
0.0
  0
POINT
  5
255
  8
DEFPOINTS
 62
     0
 10
1448.633804099863
 20
1745.579694741713
 30
0.0
  0
POINT
  5
256
  8
DEFPOINTS
 62
     0
 10
1302.633804099863
 20
1745.579694741713
 30
0.0
  0
ENDBLK
  5
B0
  8
0
  0
BLOCK
  8
0
  2
_DOT
 70
     0
 10
0.0
 20
0.0
 30
0.0
  3
_DOT
  1

  0
POLYLINE
  5
19F
  8
0
  6
BYBLOCK
 62
     0
 66
     1
 10
0.0
 20
0.0
 30
0.0
 70
     1
 40
0.5
 41
0.5
  0
VERTEX
  5
579
  8
0
  6
BYBLOCK
 62
     0
 10
-0.25
 20
0.0
 30
0.0
 42
1.0
  0
VERTEX
  5
57A
  8
0
  6
BYBLOCK
 62
     0
 10
0.25
 20
0.0
 30
0.0
 42
1.0
  0
SEQEND
  5
57B
  8
0
  6
BYBLOCK
 62
     0
  0
LINE
  5
1A0
  8
0
  6
BYBLOCK
 62
     0
 10
-0.5
 20
0.0
 30
0.0
 11
-1.0
 21
0.0
 31
0.0
  0
ENDBLK
  5
19E
  8
0
  0
ENDSEC
  0
SECTION
  2
ENTITIES
  0
POLYLINE
  5
257
  8
020
  6
CONTINUOUS
 62
     1
 66
     1
 10
0.0
 20
0.0
 30
0.0
 70
   129
  0
VERTEX
  5
258
  8
020
  6
CONTINUOUS
 62
     1
 10
749.9048257883746
 20
348.2826074618756
 30
0.0
  0
VERTEX
  5
259
  8
020
  6
CONTINUOUS
 62
     1
 10
760.4027853330043
 20
348.2826074618756
 30
0.0
  0
VERTEX
  5
25A
  8
020
  6
CONTINUOUS
 62
     1
 10
760.4027853330043
 20
343.0826074618756
 30
0.0
  0
VERTEX
  5
25B
  8
020
  6
CONTINUOUS
 62
     1
 10
749.9048257883746
 20
343.0826074618756
 30
0.0
  0
SEQEND
  5
25C
  8
020
  6
CONTINUOUS
 62
     1
  0
TEXT
  5
25D
  8
020
 62
     1
 10
753.1544014544509
 20
344.8323852396534
 30
0.0
 40
2.124016203703704
  1
NO
  7
YUGOTHIC_MEDIUM
 11
753.1544014544509
 21
346.9564014433571
 31
0.0
 73
     3
  0
TEXT
  5
25E
  8
020
 62
     1
 10
768.7815833384673
 20
344.8057185729867
 30
0.0
 40
2.124016203703704
  1
名称
  7
YUGOTHIC_MEDIUM
 11
768.7815833384673
 21
346.9297347766905
 31
0.0
 73
     3
  0
POLYLINE
  5
25F
  8
020
  6
CONTINUOUS
 62
     1
 66
     1
 10
0.0
 20
0.0
 30
0.0
 70
   129
  0
VERTEX
  5
260
  8
020
  6
CONTINUOUS
 62
     1
 10
760.4027853330043
 20
348.2826074618756
 30
0.0
  0
VERTEX
  5
261
  8
020
  6
CONTINUOUS
 62
     1
 10
782.8048257883746
 20
348.2826074618756
 30
0.0
  0
VERTEX
  5
262
  8
020
  6
CONTINUOUS
 62
     1
 10
782.8048257883746
 20
343.0826074618756
 30
0.0
  0
VERTEX
  5
263
  8
020
  6
CONTINUOUS
 62
     1
 10
760.4027853330043
 20
343.0826074618756
 30
0.0
  0
SEQEND
  5
264
  8
020
  6
CONTINUOUS
 62
     1
  0
POLYLINE
  5
265
  8
020
  6
CONTINUOUS
 62
     1
 66
     1
 10
0.0
 20
0.0
 30
0.0
 70
   129
  0
VERTEX
  5
266
  8
020
  6
CONTINUOUS
 62
     1
 10
782.8048257883746
 20
348.2826074618756
 30
0.0
  0
VERTEX
  5
267
  8
020
  6
CONTINUOUS
 62
     1
 10
813.4548257883746
 20
348.2826074618756
 30
0.0
  0
VERTEX
  5
268
  8
020
  6
CONTINUOUS
 62
     1
 10
813.4548257883746
 20
343.0826074618756
 30
0.0
  0
VERTEX
  5
269
  8
020
  6
CONTINUOUS
 62
     1
 10
782.8048257883746
 20
343.0826074618756
 30
0.0
  0
SEQEND
  5
26A
  8
020
  6
CONTINUOUS
 62
     1
  0
TEXT
  5
26B
  8
020
 62
     1
 10
795.1437146772635
 20
344.8157185729867
 30
0.0
 40
2.124016203703704
  1
材質
  7
YUGOTHIC_MEDIUM
 11
795.1437146772635
 21
346.9397347766904
 31
0.0
 73
     3
  0
POLYLINE
  5
26C
  8
020
  6
CONTINUOUS
 62
     1
 66
     1
 10
0.0
 20
0.0
 30
0.0
 70
   129
  0
VERTEX
  5
26D
  8
020
  6
CONTINUOUS
 62
     1
 10
749.9048257883746
 20
343.0826074618756
 30
0.0
  0
VERTEX
  5
26E
  8
020
  6
CONTINUOUS
 62
     1
 10
760.4027853330043
 20
343.0826074618756
 30
0.0
  0
VERTEX
  5
26F
  8
020
  6
CONTINUOUS
 62
     1
 10
760.4027853330043
 20
337.8826074618755
 30
0.0
  0
VERTEX
  5
270
  8
020
  6
CONTINUOUS
 62
     1
 10
749.9048257883746
 20
337.8826074618755
 30
0.0
  0
SEQEND
  5
271
  8
020
  6
CONTINUOUS
 62
     1
  0
POLYLINE
  5
272
  8
020
  6
CONTINUOUS
 62
     1
 66
     1
 10
0.0
 20
0.0
 30
0.0
 70
   129
  0
VERTEX
  5
273
  8
020
  6
CONTINUOUS
 62
     1
 10
760.4027853330043
 20
343.0826074618756
 30
0.0
  0
VERTEX
  5
274
  8
020
  6
CONTINUOUS
 62
     1
 10
782.8048257883746
 20
343.0826074618756
 30
0.0
  0
VERTEX
  5
275
  8
020
  6
CONTINUOUS
 62
     1
 10
782.8048257883746
 20
337.8826074618755
 30
0.0
  0
VERTEX
  5
276
  8
020
  6
CONTINUOUS
 62
     1
 10
760.4027853330043
 20
337.8826074618755
 30
0.0
  0
SEQEND
  5
277
  8
020
  6
CONTINUOUS
 62
     1
  0
POLYLINE
  5
278
  8
020
  6
CONTINUOUS
 62
     1
 66
     1
 10
0.0
 20
0.0
 30
0.0
 70
   129
  0
VERTEX
  5
279
  8
020
  6
CONTINUOUS
 62
     1
 10
782.8048257883746
 20
343.0826074618756
 30
0.0
  0
VERTEX
  5
27A
  8
020
  6
CONTINUOUS
 62
     1
 10
813.4548257883746
 20
343.0826074618756
 30
0.0
  0
VERTEX
  5
27B
  8
020
  6
CONTINUOUS
 62
     1
 10
813.4548257883746
 20
337.8826074618755
 30
0.0
  0
VERTEX
  5
27C
  8
020
  6
CONTINUOUS
 62
     1
 10
782.8048257883746
 20
337.8826074618755
 30
0.0
  0
SEQEND
  5
27D
  8
020
  6
CONTINUOUS
 62
     1
  0
TEXT
  5
27E
  8
SAKUZU
 62
     1
 10
754.0607772311525
 20
329.2678131722171
 30
0.0
 40
2.124016203703704
  1
4
  7
YUGOTHIC_MEDIUM
 72
     1
 11
755.1227853330043
 21
329.2678131722171
 31
0.0
  0
TEXT
  5
27F
  8
SAKUZU
 62
     1
 10
767.9116146980837
 20
323.7052837110236
 30
0.0
 40
2.124016203703704
  1
引戸取手
  7
YUGOTHIC_MEDIUM
 72
     1
 11
771.5527853330043
 21
323.7052837110236
 31
0.0
  0
TEXT
  5
280
  8
SAKUZU
 62
     1
 10
767.1533624947238
 20
334.2101630174311
 30
0.0
 40
2.124016203703704
  1
トップ補強
  7
YUGOTHIC_MEDIUM
 72
     1
 11
771.7048257883746
 21
334.2101630174311
 31
0.0
  0
TEXT
  5
281
  8
SAKUZU
 62
     1
 10
754.2435129019592
 20
334.2101630174311
 30
0.0
 40
2.124016203703704
  1
２
  7
YUGOTHIC_MEDIUM
 72
     1
 11
755.1538055606894
 21
334.2101630174311
 31
0.0
  0
TEXT
  5
282
  8
SAKUZU
 62
     1
 10
754.2435129019592
 20
339.4101630174312
 30
0.0
 40
2.124016203703704
  1
１
  7
YUGOTHIC_MEDIUM
 72
     1
 11
755.1538055606894
 21
339.4101630174312
 31
0.0
  0
TEXT
  5
283
  8
SAKUZU
 62
     1
 10
768.9739478121841
 20
339.4101630174312
 30
0.0
 40
2.124016203703704
  1
トップ
  7
YUGOTHIC_MEDIUM
 72
     1
 11
771.7048257883746
 21
339.4101630174312
 31
0.0
  0
TEXT
  5
284
  8
SAKUZU
 62
     1
 10
754.1423692732114
 20
323.7478863284324
 30
0.0
 40
2.124016203703704
  1
5
  7
YUGOTHIC_MEDIUM
 72
     1
 11
755.1538055606894
 21
323.7478863284324
 31
0.0
  0
TEXT
  5
285
  8
SAKUZU
 62
     1
 10
792.6680698359936
 20
323.8528392665795
 30
0.0
 40
2.124016203703704
  1
ＳＵＳ３０４
  7
YUGOTHIC_MEDIUM
 72
     1
 11
798.1298257883745
 21
323.8528392665795
 31
0.0
  0
TEXT
  5
286
  8
SAKUZU
 62
     1
 10
754.0917974588376
 20
318.610163017431
 30
0.0
 40
2.124016203703704
  1
6
  7
YUGOTHIC_MEDIUM
 72
     1
 11
755.1538055606894
 21
318.610163017431
 31
0.0
  0
POLYLINE
  5
287
  8
020
  6
CONTINUOUS
 62
     1
 66
     1
 10
0.0
 20
0.0
 30
0.0
 70
   129
  0
VERTEX
  5
288
  8
020
  6
CONTINUOUS
 62
     1
 10
813.4548257883746
 20
348.2826074618756
 30
0.0
  0
VERTEX
  5
289
  8
020
  6
CONTINUOUS
 62
     1
 10
846.5048257883745
 20
348.2826074618756
 30
0.0
  0
VERTEX
  5
28A
  8
020
  6
CONTINUOUS
 62
     1
 10
846.5048257883745
 20
343.0826074618756
 30
0.0
  0
VERTEX
  5
28B
  8
020
  6
CONTINUOUS
 62
     1
 10
813.4548257883746
 20
343.0826074618756
 30
0.0
  0
SEQEND
  5
28C
  8
020
  6
CONTINUOUS
 62
     1
  0
TEXT
  5
28D
  8
020
 62
     1
 10
827.3687146772635
 20
344.8157185729867
 30
0.0
 40
2.124016203703704
  1
仕様
  7
YUGOTHIC_MEDIUM
 11
827.3687146772635
 21
346.9397347766904
 31
0.0
 73
     3
  0
POLYLINE
  5
28E
  8
020
  6
CONTINUOUS
 62
     1
 66
     1
 10
0.0
 20
0.0
 30
0.0
 70
   129
  0
VERTEX
  5
28F
  8
020
  6
CONTINUOUS
 62
     1
 10
813.4548257883746
 20
343.0826074618756
 30
0.0
  0
VERTEX
  5
290
  8
020
  6
CONTINUOUS
 62
     1
 10
846.5048257883745
 20
343.0826074618756
 30
0.0
  0
VERTEX
  5
291
  8
020
  6
CONTINUOUS
 62
     1
 10
846.5048257883745
 20
337.8826074618755
 30
0.0
  0
VERTEX
  5
292
  8
020
  6
CONTINUOUS
 62
     1
 10
813.4548257883746
 20
337.8826074618755
 30
0.0
  0
SEQEND
  5
293
  8
020
  6
CONTINUOUS
 62
     1
  0
POLYLINE
  5
294
  8
020
  6
CONTINUOUS
 62
     1
 66
     1
 10
0.0
 20
0.0
 30
0.0
 70
   129
  0
VERTEX
  5
295
  8
020
  6
CONTINUOUS
 62
     1
 10
749.9048257883746
 20
337.8826074618755
 30
0.0
  0
VERTEX
  5
296
  8
020
  6
CONTINUOUS
 62
     1
 10
760.4027853330043
 20
337.8826074618755
 30
0.0
  0
VERTEX
  5
297
  8
020
  6
CONTINUOUS
 62
     1
 10
760.4027853330043
 20
332.6826074618755
 30
0.0
  0
VERTEX
  5
298
  8
020
  6
CONTINUOUS
 62
     1
 10
749.9048257883746
 20
332.6826074618755
 30
0.0
  0
SEQEND
  5
299
  8
020
  6
CONTINUOUS
 62
     1
  0
POLYLINE
  5
29A
  8
020
  6
CONTINUOUS
 62
     1
 66
     1
 10
0.0
 20
0.0
 30
0.0
 70
   129
  0
VERTEX
  5
29B
  8
020
  6
CONTINUOUS
 62
     1
 10
760.4027853330043
 20
337.8826074618755
 30
0.0
  0
VERTEX
  5
29C
  8
020
  6
CONTINUOUS
 62
     1
 10
782.8048257883746
 20
337.8826074618755
 30
0.0
  0
VERTEX
  5
29D
  8
020
  6
CONTINUOUS
 62
     1
 10
782.8048257883746
 20
332.6826074618755
 30
0.0
  0
VERTEX
  5
29E
  8
020
  6
CONTINUOUS
 62
     1
 10
760.4027853330043
 20
332.6826074618755
 30
0.0
  0
SEQEND
  5
29F
  8
020
  6
CONTINUOUS
 62
     1
  0
POLYLINE
  5
2A0
  8
020
  6
CONTINUOUS
 62
     1
 66
     1
 10
0.0
 20
0.0
 30
0.0
 70
   129
  0
VERTEX
  5
2A1
  8
020
  6
CONTINUOUS
 62
     1
 10
782.8048257883746
 20
337.8826074618755
 30
0.0
  0
VERTEX
  5
2A2
  8
020
  6
CONTINUOUS
 62
     1
 10
813.4548257883746
 20
337.8826074618755
 30
0.0
  0
VERTEX
  5
2A3
  8
020
  6
CONTINUOUS
 62
     1
 10
813.4548257883746
 20
332.6826074618755
 30
0.0
  0
VERTEX
  5
2A4
  8
020
  6
CONTINUOUS
 62
     1
 10
782.8048257883746
 20
332.6826074618755
 30
0.0
  0
SEQEND
  5
2A5
  8
020
  6
CONTINUOUS
 62
     1
  0
POLYLINE
  5
2A6
  8
020
  6
CONTINUOUS
 62
     1
 66
     1
 10
0.0
 20
0.0
 30
0.0
 70
   129
  0
VERTEX
  5
2A7
  8
020
  6
CONTINUOUS
 62
     1
 10
813.4548257883746
 20
337.8826074618755
 30
0.0
  0
VERTEX
  5
2A8
  8
020
  6
CONTINUOUS
 62
     1
 10
846.5048257883745
 20
337.8826074618755
 30
0.0
  0
VERTEX
  5
2A9
  8
020
  6
CONTINUOUS
 62
     1
 10
846.5048257883745
 20
332.6826074618755
 30
0.0
  0
VERTEX
  5
2AA
  8
020
  6
CONTINUOUS
 62
     1
 10
813.4548257883746
 20
332.6826074618755
 30
0.0
  0
SEQEND
  5
2AB
  8
020
  6
CONTINUOUS
 62
     1
  0
POLYLINE
  5
2AC
  8
020
  6
CONTINUOUS
 62
     1
 66
     1
 10
0.0
 20
0.0
 30
0.0
 70
   129
  0
VERTEX
  5
2AD
  8
020
  6
CONTINUOUS
 62
     1
 10
749.9048257883746
 20
332.6826074618755
 30
0.0
  0
VERTEX
  5
2AE
  8
020
  6
CONTINUOUS
 62
     1
 10
760.4027853330043
 20
332.6826074618755
 30
0.0
  0
VERTEX
  5
2AF
  8
020
  6
CONTINUOUS
 62
     1
 10
760.4027853330043
 20
327.4826074618754
 30
0.0
  0
VERTEX
  5
2B0
  8
020
  6
CONTINUOUS
 62
     1
 10
749.9048257883746
 20
327.4826074618754
 30
0.0
  0
SEQEND
  5
2B1
  8
020
  6
CONTINUOUS
 62
     1
  0
POLYLINE
  5
2B2
  8
020
  6
CONTINUOUS
 62
     1
 66
     1
 10
0.0
 20
0.0
 30
0.0
 70
   129
  0
VERTEX
  5
2B3
  8
020
  6
CONTINUOUS
 62
     1
 10
760.4027853330043
 20
332.6826074618755
 30
0.0
  0
VERTEX
  5
2B4
  8
020
  6
CONTINUOUS
 62
     1
 10
782.8048257883746
 20
332.6826074618755
 30
0.0
  0
VERTEX
  5
2B5
  8
020
  6
CONTINUOUS
 62
     1
 10
782.8048257883746
 20
327.4826074618754
 30
0.0
  0
VERTEX
  5
2B6
  8
020
  6
CONTINUOUS
 62
     1
 10
760.4027853330043
 20
327.4826074618754
 30
0.0
  0
SEQEND
  5
2B7
  8
020
  6
CONTINUOUS
 62
     1
  0
POLYLINE
  5
2B8
  8
020
  6
CONTINUOUS
 62
     1
 66
     1
 10
0.0
 20
0.0
 30
0.0
 70
   129
  0
VERTEX
  5
2B9
  8
020
  6
CONTINUOUS
 62
     1
 10
782.8048257883746
 20
332.6826074618755
 30
0.0
  0
VERTEX
  5
2BA
  8
020
  6
CONTINUOUS
 62
     1
 10
813.4548257883746
 20
332.6826074618755
 30
0.0
  0
VERTEX
  5
2BB
  8
020
  6
CONTINUOUS
 62
     1
 10
813.4548257883746
 20
327.4826074618754
 30
0.0
  0
VERTEX
  5
2BC
  8
020
  6
CONTINUOUS
 62
     1
 10
782.8048257883746
 20
327.4826074618754
 30
0.0
  0
SEQEND
  5
2BD
  8
020
  6
CONTINUOUS
 62
     1
  0
POLYLINE
  5
2BE
  8
020
  6
CONTINUOUS
 62
     1
 66
     1
 10
0.0
 20
0.0
 30
0.0
 70
   129
  0
VERTEX
  5
2BF
  8
020
  6
CONTINUOUS
 62
     1
 10
813.4548257883746
 20
332.6826074618755
 30
0.0
  0
VERTEX
  5
2C0
  8
020
  6
CONTINUOUS
 62
     1
 10
846.5048257883745
 20
332.6826074618755
 30
0.0
  0
VERTEX
  5
2C1
  8
020
  6
CONTINUOUS
 62
     1
 10
846.5048257883745
 20
327.4826074618754
 30
0.0
  0
VERTEX
  5
2C2
  8
020
  6
CONTINUOUS
 62
     1
 10
813.4548257883746
 20
327.4826074618754
 30
0.0
  0
SEQEND
  5
2C3
  8
020
  6
CONTINUOUS
 62
     1
  0
POLYLINE
  5
2C4
  8
020
  6
CONTINUOUS
 62
     1
 66
     1
 10
0.0
 20
0.0
 30
0.0
 70
   129
  0
VERTEX
  5
2C5
  8
020
  6
CONTINUOUS
 62
     1
 10
749.9048257883746
 20
327.4826074618755
 30
0.0
  0
VERTEX
  5
2C6
  8
020
  6
CONTINUOUS
 62
     1
 10
760.4027853330043
 20
327.4826074618755
 30
0.0
  0
VERTEX
  5
2C7
  8
020
  6
CONTINUOUS
 62
     1
 10
760.4027853330043
 20
322.2826074618755
 30
0.0
  0
VERTEX
  5
2C8
  8
020
  6
CONTINUOUS
 62
     1
 10
749.9048257883746
 20
322.2826074618755
 30
0.0
  0
SEQEND
  5
2C9
  8
020
  6
CONTINUOUS
 62
     1
  0
POLYLINE
  5
2CA
  8
020
  6
CONTINUOUS
 62
     1
 66
     1
 10
0.0
 20
0.0
 30
0.0
 70
   129
  0
VERTEX
  5
2CB
  8
020
  6
CONTINUOUS
 62
     1
 10
760.4027853330043
 20
327.4826074618755
 30
0.0
  0
VERTEX
  5
2CC
  8
020
  6
CONTINUOUS
 62
     1
 10
782.8048257883746
 20
327.4826074618755
 30
0.0
  0
VERTEX
  5
2CD
  8
020
  6
CONTINUOUS
 62
     1
 10
782.8048257883746
 20
322.2826074618755
 30
0.0
  0
VERTEX
  5
2CE
  8
020
  6
CONTINUOUS
 62
     1
 10
760.4027853330043
 20
322.2826074618755
 30
0.0
  0
SEQEND
  5
2CF
  8
020
  6
CONTINUOUS
 62
     1
  0
POLYLINE
  5
2D0
  8
020
  6
CONTINUOUS
 62
     1
 66
     1
 10
0.0
 20
0.0
 30
0.0
 70
   129
  0
VERTEX
  5
2D1
  8
020
  6
CONTINUOUS
 62
     1
 10
782.8048257883746
 20
327.4826074618754
 30
0.0
  0
VERTEX
  5
2D2
  8
020
  6
CONTINUOUS
 62
     1
 10
813.4548257883746
 20
327.4826074618754
 30
0.0
  0
VERTEX
  5
2D3
  8
020
  6
CONTINUOUS
 62
     1
 10
813.4548257883746
 20
322.2826074618754
 30
0.0
  0
VERTEX
  5
2D4
  8
020
  6
CONTINUOUS
 62
     1
 10
782.8048257883746
 20
322.2826074618754
 30
0.0
  0
SEQEND
  5
2D5
  8
020
  6
CONTINUOUS
 62
     1
  0
POLYLINE
  5
2D6
  8
020
  6
CONTINUOUS
 62
     1
 66
     1
 10
0.0
 20
0.0
 30
0.0
 70
   129
  0
VERTEX
  5
2D7
  8
020
  6
CONTINUOUS
 62
     1
 10
813.4548257883746
 20
327.4826074618754
 30
0.0
  0
VERTEX
  5
2D8
  8
020
  6
CONTINUOUS
 62
     1
 10
846.5048257883745
 20
327.4826074618754
 30
0.0
  0
VERTEX
  5
2D9
  8
020
  6
CONTINUOUS
 62
     1
 10
846.5048257883745
 20
322.2826074618754
 30
0.0
  0
VERTEX
  5
2DA
  8
020
  6
CONTINUOUS
 62
     1
 10
813.4548257883746
 20
322.2826074618754
 30
0.0
  0
SEQEND
  5
2DB
  8
020
  6
CONTINUOUS
 62
     1
  0
POLYLINE
  5
2DC
  8
020
  6
CONTINUOUS
 62
     1
 66
     1
 10
0.0
 20
0.0
 30
0.0
 70
   129
  0
VERTEX
  5
2DD
  8
020
  6
CONTINUOUS
 62
     1
 10
749.9048257883746
 20
322.2826074618755
 30
0.0
  0
VERTEX
  5
2DE
  8
020
  6
CONTINUOUS
 62
     1
 10
760.4027853330043
 20
322.2826074618755
 30
0.0
  0
VERTEX
  5
2DF
  8
020
  6
CONTINUOUS
 62
     1
 10
760.4027853330043
 20
317.0826074618755
 30
0.0
  0
VERTEX
  5
2E0
  8
020
  6
CONTINUOUS
 62
     1
 10
749.9048257883746
 20
317.0826074618755
 30
0.0
  0
SEQEND
  5
2E1
  8
020
  6
CONTINUOUS
 62
     1
  0
POLYLINE
  5
2E2
  8
020
  6
CONTINUOUS
 62
     1
 66
     1
 10
0.0
 20
0.0
 30
0.0
 70
   129
  0
VERTEX
  5
2E3
  8
020
  6
CONTINUOUS
 62
     1
 10
760.4027853330043
 20
322.2826074618755
 30
0.0
  0
VERTEX
  5
2E4
  8
020
  6
CONTINUOUS
 62
     1
 10
782.8048257883746
 20
322.2826074618755
 30
0.0
  0
VERTEX
  5
2E5
  8
020
  6
CONTINUOUS
 62
     1
 10
782.8048257883746
 20
317.0826074618755
 30
0.0
  0
VERTEX
  5
2E6
  8
020
  6
CONTINUOUS
 62
     1
 10
760.4027853330043
 20
317.0826074618755
 30
0.0
  0
SEQEND
  5
2E7
  8
020
  6
CONTINUOUS
 62
     1
  0
POLYLINE
  5
2E8
  8
020
  6
CONTINUOUS
 62
     1
 66
     1
 10
0.0
 20
0.0
 30
0.0
 70
   129
  0
VERTEX
  5
2E9
  8
020
  6
CONTINUOUS
 62
     1
 10
782.8048257883746
 20
322.2826074618755
 30
0.0
  0
VERTEX
  5
2EA
  8
020
  6
CONTINUOUS
 62
     1
 10
813.4548257883746
 20
322.2826074618755
 30
0.0
  0
VERTEX
  5
2EB
  8
020
  6
CONTINUOUS
 62
     1
 10
813.4548257883746
 20
317.0826074618755
 30
0.0
  0
VERTEX
  5
2EC
  8
020
  6
CONTINUOUS
 62
     1
 10
782.8048257883746
 20
317.0826074618755
 30
0.0
  0
SEQEND
  5
2ED
  8
020
  6
CONTINUOUS
 62
     1
  0
POLYLINE
  5
2EE
  8
020
  6
CONTINUOUS
 62
     1
 66
     1
 10
0.0
 20
0.0
 30
0.0
 70
   129
  0
VERTEX
  5
2EF
  8
020
  6
CONTINUOUS
 62
     1
 10
813.4548257883746
 20
322.2826074618755
 30
0.0
  0
VERTEX
  5
2F0
  8
020
  6
CONTINUOUS
 62
     1
 10
846.5048257883745
 20
322.2826074618755
 30
0.0
  0
VERTEX
  5
2F1
  8
020
  6
CONTINUOUS
 62
     1
 10
846.5048257883745
 20
317.0826074618755
 30
0.0
  0
VERTEX
  5
2F2
  8
020
  6
CONTINUOUS
 62
     1
 10
813.4548257883746
 20
317.0826074618755
 30
0.0
  0
SEQEND
  5
2F3
  8
020
  6
CONTINUOUS
 62
     1
  0
TEXT
  5
2F4
  8
SAKUZU
 62
     1
 10
795.398947812184
 20
334.2714465039128
 30
0.0
 40
2.124016203703704
  1
ホンデ
  7
YUGOTHIC_MEDIUM
 72
     1
 11
798.1298257883745
 21
334.2714465039128
 31
0.0
  0
TEXT
  5
2F5
  8
SAKUZU
 62
     1
 10
820.6876590678783
 20
339.4101630174312
 30
0.0
 40
2.124016203703704
  1
t 1.0 NO.4仕上
  7
YUGOTHIC_MEDIUM
  0
TEXT
  5
2F6
  8
SAKUZU
 62
     1
 10
820.6876590678783
 20
334.2101630174311
 30
0.0
 40
2.124016203703704
  1
t 1.0
  7
YUGOTHIC_MEDIUM
  0
TEXT
  5
2F7
  8
SAKUZU
 62
     1
 10
762.7136551534539
 20
297.8101630174308
 30
0.0
 40
2.124016203703704
  1
製品重量
  7
YUGOTHIC_MEDIUM
 72
     1
 11
766.3548257883746
 21
297.8101630174308
 31
0.0
  0
POLYLINE
  5
2F8
  8
020
  6
CONTINUOUS
 62
     1
 66
     1
 10
0.0
 20
0.0
 30
0.0
 70
   129
  0
VERTEX
  5
2F9
  8
020
  6
CONTINUOUS
 62
     1
 10
749.9048257883746
 20
301.4826074618753
 30
0.0
  0
VERTEX
  5
2FA
  8
020
  6
CONTINUOUS
 62
     1
 10
782.8048257883746
 20
301.4826074618753
 30
0.0
  0
VERTEX
  5
2FB
  8
020
  6
CONTINUOUS
 62
     1
 10
782.8048257883746
 20
296.2826074618753
 30
0.0
  0
VERTEX
  5
2FC
  8
020
  6
CONTINUOUS
 62
     1
 10
749.9048257883746
 20
296.2826074618753
 30
0.0
  0
SEQEND
  5
2FD
  8
020
  6
CONTINUOUS
 62
     1
  0
POLYLINE
  5
2FE
  8
020
  6
CONTINUOUS
 62
     1
 66
     1
 10
0.0
 20
0.0
 30
0.0
 70
   129
  0
VERTEX
  5
2FF
  8
020
  6
CONTINUOUS
 62
     1
 10
782.8048257883746
 20
301.4826074618753
 30
0.0
  0
VERTEX
  5
300
  8
020
  6
CONTINUOUS
 62
     1
 10
846.5048257883745
 20
301.4826074618753
 30
0.0
  0
VERTEX
  5
301
  8
020
  6
CONTINUOUS
 62
     1
 10
846.5048257883745
 20
296.2826074618753
 30
0.0
  0
VERTEX
  5
302
  8
020
  6
CONTINUOUS
 62
     1
 10
782.8048257883746
 20
296.2826074618753
 30
0.0
  0
SEQEND
  5
303
  8
020
  6
CONTINUOUS
 62
     1
  0
TEXT
  5
304
  8
LAYER0002
 62
     1
 10
809.3447852791154
 20
297.6937185729863
 30
0.0
 40
2.124016203703704
  1
37.5kg
  7
YUGOTHIC_MEDIUM
 72
     1
 11
814.6548257883746
 21
297.6937185729863
 31
0.0
  0
TEXT
  5
305
  8
SAKUZU
 62
     1
 10
767.1533624947238
 20
328.8944603581265
 30
0.0
 40
2.124016203703704
  1
引き違い戸
  7
YUGOTHIC_MEDIUM
 72
     1
 11
771.7048257883746
 21
328.8944603581265
 31
0.0
  0
TEXT
  5
306
  8
SAKUZU
 62
     1
 10
792.7180698359937
 20
329.0641725999129
 30
0.0
 40
2.124016203703704
  1
ＳＵＳ４３０
  7
YUGOTHIC_MEDIUM
 72
     1
 11
798.1798257883746
 21
329.0641725999129
 31
0.0
  0
TEXT
  5
307
  8
SAKUZU
 62
     1
 10
769.732200015544
 20
313.2626074618751
 30
0.0
 40
2.124016203703704
  1
本体
  7
YUGOTHIC_MEDIUM
 72
     1
 11
771.5527853330043
 21
313.2626074618751
 31
0.0
  0
TEXT
  5
308
  8
SAKUZU
 62
     1
 10
754.1423692732114
 20
313.3478863284323
 30
0.0
 40
2.124016203703704
  1
7
  7
YUGOTHIC_MEDIUM
 72
     1
 11
755.1538055606894
 21
313.3478863284323
 31
0.0
  0
TEXT
  5
309
  8
SAKUZU
 62
     1
 10
767.0523422670386
 20
308.210163017431
 30
0.0
 40
2.124016203703704
  1
アジャスト
  7
YUGOTHIC_MEDIUM
 72
     1
 11
771.6038055606895
 21
308.210163017431
 31
0.0
  0
TEXT
  5
30A
  8
SAKUZU
 62
     1
 10
754.1423692732114
 20
308.210163017431
 30
0.0
 40
2.124016203703704
  1
8
  7
YUGOTHIC_MEDIUM
 72
     1
 11
755.1538055606894
 21
308.210163017431
 31
0.0
  0
TEXT
  5
30B
  8
SAKUZU
 62
     1
 10
792.6680698359936
 20
307.9915068609243
 30
0.0
 40
2.124016203703704
  1
ＳＵＳ３０４
  7
YUGOTHIC_MEDIUM
 72
     1
 11
798.1298257883745
 21
307.9915068609243
 31
0.0
  0
POLYLINE
  5
30C
  8
020
  6
CONTINUOUS
 62
     1
 66
     1
 10
0.0
 20
0.0
 30
0.0
 70
   129
  0
VERTEX
  5
30D
  8
020
  6
CONTINUOUS
 62
     1
 10
749.9048257883746
 20
317.0826074618755
 30
0.0
  0
VERTEX
  5
30E
  8
020
  6
CONTINUOUS
 62
     1
 10
760.4027853330043
 20
317.0826074618755
 30
0.0
  0
VERTEX
  5
30F
  8
020
  6
CONTINUOUS
 62
     1
 10
760.4027853330043
 20
311.8826074618754
 30
0.0
  0
VERTEX
  5
310
  8
020
  6
CONTINUOUS
 62
     1
 10
749.9048257883746
 20
311.8826074618754
 30
0.0
  0
SEQEND
  5
311
  8
020
  6
CONTINUOUS
 62
     1
  0
POLYLINE
  5
312
  8
020
  6
CONTINUOUS
 62
     1
 66
     1
 10
0.0
 20
0.0
 30
0.0
 70
   129
  0
VERTEX
  5
313
  8
020
  6
CONTINUOUS
 62
     1
 10
760.4027853330043
 20
317.0826074618755
 30
0.0
  0
VERTEX
  5
314
  8
020
  6
CONTINUOUS
 62
     1
 10
782.8048257883746
 20
317.0826074618755
 30
0.0
  0
VERTEX
  5
315
  8
020
  6
CONTINUOUS
 62
     1
 10
782.8048257883746
 20
311.8826074618754
 30
0.0
  0
VERTEX
  5
316
  8
020
  6
CONTINUOUS
 62
     1
 10
760.4027853330043
 20
311.8826074618754
 30
0.0
  0
SEQEND
  5
317
  8
020
  6
CONTINUOUS
 62
     1
  0
POLYLINE
  5
318
  8
020
  6
CONTINUOUS
 62
     1
 66
     1
 10
0.0
 20
0.0
 30
0.0
 70
   129
  0
VERTEX
  5
319
  8
020
  6
CONTINUOUS
 62
     1
 10
782.8048257883746
 20
317.0826074618755
 30
0.0
  0
VERTEX
  5
31A
  8
020
  6
CONTINUOUS
 62
     1
 10
813.4548257883746
 20
317.0826074618755
 30
0.0
  0
VERTEX
  5
31B
  8
020
  6
CONTINUOUS
 62
     1
 10
813.4548257883746
 20
311.8826074618754
 30
0.0
  0
VERTEX
  5
31C
  8
020
  6
CONTINUOUS
 62
     1
 10
782.8048257883746
 20
311.8826074618754
 30
0.0
  0
SEQEND
  5
31D
  8
020
  6
CONTINUOUS
 62
     1
  0
POLYLINE
  5
31E
  8
020
  6
CONTINUOUS
 62
     1
 66
     1
 10
0.0
 20
0.0
 30
0.0
 70
   129
  0
VERTEX
  5
31F
  8
020
  6
CONTINUOUS
 62
     1
 10
813.4548257883746
 20
317.0826074618755
 30
0.0
  0
VERTEX
  5
320
  8
020
  6
CONTINUOUS
 62
     1
 10
846.5048257883745
 20
317.0826074618755
 30
0.0
  0
VERTEX
  5
321
  8
020
  6
CONTINUOUS
 62
     1
 10
846.5048257883745
 20
311.8826074618754
 30
0.0
  0
VERTEX
  5
322
  8
020
  6
CONTINUOUS
 62
     1
 10
813.4548257883746
 20
311.8826074618754
 30
0.0
  0
SEQEND
  5
323
  8
020
  6
CONTINUOUS
 62
     1
  0
POLYLINE
  5
324
  8
020
  6
CONTINUOUS
 62
     1
 66
     1
 10
0.0
 20
0.0
 30
0.0
 70
   129
  0
VERTEX
  5
325
  8
020
  6
CONTINUOUS
 62
     1
 10
749.9048257883746
 20
311.8826074618754
 30
0.0
  0
VERTEX
  5
326
  8
020
  6
CONTINUOUS
 62
     1
 10
760.4027853330043
 20
311.8826074618754
 30
0.0
  0
VERTEX
  5
327
  8
020
  6
CONTINUOUS
 62
     1
 10
760.4027853330043
 20
306.6826074618754
 30
0.0
  0
VERTEX
  5
328
  8
020
  6
CONTINUOUS
 62
     1
 10
749.9048257883746
 20
306.6826074618754
 30
0.0
  0
SEQEND
  5
329
  8
020
  6
CONTINUOUS
 62
     1
  0
POLYLINE
  5
32A
  8
020
  6
CONTINUOUS
 62
     1
 66
     1
 10
0.0
 20
0.0
 30
0.0
 70
   129
  0
VERTEX
  5
32B
  8
020
  6
CONTINUOUS
 62
     1
 10
760.4027853330043
 20
311.8826074618754
 30
0.0
  0
VERTEX
  5
32C
  8
020
  6
CONTINUOUS
 62
     1
 10
782.8048257883746
 20
311.8826074618754
 30
0.0
  0
VERTEX
  5
32D
  8
020
  6
CONTINUOUS
 62
     1
 10
782.8048257883746
 20
306.6826074618754
 30
0.0
  0
VERTEX
  5
32E
  8
020
  6
CONTINUOUS
 62
     1
 10
760.4027853330043
 20
306.6826074618754
 30
0.0
  0
SEQEND
  5
32F
  8
020
  6
CONTINUOUS
 62
     1
  0
POLYLINE
  5
330
  8
020
  6
CONTINUOUS
 62
     1
 66
     1
 10
0.0
 20
0.0
 30
0.0
 70
   129
  0
VERTEX
  5
331
  8
020
  6
CONTINUOUS
 62
     1
 10
782.8048257883746
 20
311.8826074618754
 30
0.0
  0
VERTEX
  5
332
  8
020
  6
CONTINUOUS
 62
     1
 10
813.4548257883746
 20
311.8826074618754
 30
0.0
  0
VERTEX
  5
333
  8
020
  6
CONTINUOUS
 62
     1
 10
813.4548257883746
 20
306.6826074618754
 30
0.0
  0
VERTEX
  5
334
  8
020
  6
CONTINUOUS
 62
     1
 10
782.8048257883746
 20
306.6826074618754
 30
0.0
  0
SEQEND
  5
335
  8
020
  6
CONTINUOUS
 62
     1
  0
POLYLINE
  5
336
  8
020
  6
CONTINUOUS
 62
     1
 66
     1
 10
0.0
 20
0.0
 30
0.0
 70
   129
  0
VERTEX
  5
337
  8
020
  6
CONTINUOUS
 62
     1
 10
813.4548257883746
 20
311.8826074618754
 30
0.0
  0
VERTEX
  5
338
  8
020
  6
CONTINUOUS
 62
     1
 10
846.5048257883745
 20
311.8826074618754
 30
0.0
  0
VERTEX
  5
339
  8
020
  6
CONTINUOUS
 62
     1
 10
846.5048257883745
 20
306.6826074618754
 30
0.0
  0
VERTEX
  5
33A
  8
020
  6
CONTINUOUS
 62
     1
 10
813.4548257883746
 20
306.6826074618754
 30
0.0
  0
SEQEND
  5
33B
  8
020
  6
CONTINUOUS
 62
     1
  0
TEXT
  5
33C
  8
SAKUZU
 62
     1
 10
792.6680698359936
 20
313.4101630174309
 30
0.0
 40
2.124016203703704
  1
ＳＵＳ４３０
  7
YUGOTHIC_MEDIUM
 72
     1
 11
798.1298257883745
 21
313.4101630174309
 31
0.0
  0
TEXT
  5
33D
  8
SAKUZU
 62
     1
 10
820.6876590678783
 20
313.4101630174309
 30
0.0
 40
2.124016203703704
  1
t 0.8 NO.4仕上
  7
YUGOTHIC_MEDIUM
  0
TEXT
  5
33E
  8
SAKUZU
 62
     1
 10
820.6876590678783
 20
329.0528392665796
 30
0.0
 40
2.124016203703704
  1
t 0.8 NO.4仕上
  7
YUGOTHIC_MEDIUM
  0
INSERT
  5
33F
  8
__-3
 62
    17
  2
____-2-1
 10
711.2328257883746
 20
-148.5000416295412
 30
0.0
  0
INSERT
  5
340
  8
__-3
 62
    17
  2
____-4-1
 10
711.2328257883746
 20
-148.5000416295412
 30
0.0
  0
TEXT
  5
341
  8
SAKUZU
 62
     1
 10
815.9813344414707
 20
308.2629362195719
 30
0.0
 40
2.124016203703704
  1
調整幅：-5?＋30mm
  7
YUGOTHIC_MEDIUM
  0
TEXT
  5
342
  8
SAKUZU
 62
     1
 10
792.7180698359937
 20
339.2860677816989
 30
0.0
 40
2.124016203703704
  1
ＳＵＳ４３０
  7
YUGOTHIC_MEDIUM
 72
     1
 11
798.1798257883746
 21
339.2860677816989
 31
0.0
  0
TEXT
  5
343
  8
SAKUZU
 62
     1
 10
768.8219073568138
 20
318.4626074618751
 30
0.0
 40
2.124016203703704
  1
可動棚
  7
YUGOTHIC_MEDIUM
 72
     1
 11
771.5527853330043
 21
318.4626074618751
 31
0.0
  0
TEXT
  5
344
  8
SAKUZU
 62
     1
 10
792.6680698359936
 20
318.610163017431
 30
0.0
 40
2.124016203703704
  1
ＳＵＳ４３０
  7
YUGOTHIC_MEDIUM
 72
     1
 11
798.1298257883745
 21
318.610163017431
 31
0.0
  0
TEXT
  5
345
  8
SAKUZU
 62
     1
 10
820.6876590678783
 20
318.610163017431
 30
0.0
 40
2.124016203703704
  1
t 0.8 NO.4仕上
  7
YUGOTHIC_MEDIUM
  0
POLYLINE
  5
346
  8
020
  6
CONTINUOUS
 62
     1
 66
     1
 10
0.0
 20
0.0
 30
0.0
 70
   129
  0
VERTEX
  5
347
  8
020
  6
CONTINUOUS
 62
     1
 10
749.9048257883746
 20
146.8089055129366
 30
0.0
  0
VERTEX
  5
348
  8
020
  6
CONTINUOUS
 62
     1
 10
760.4027853330043
 20
146.8089055129366
 30
0.0
  0
VERTEX
  5
349
  8
020
  6
CONTINUOUS
 62
     1
 10
760.4027853330043
 20
141.6089055129366
 30
0.0
  0
VERTEX
  5
34A
  8
020
  6
CONTINUOUS
 62
     1
 10
749.9048257883746
 20
141.6089055129366
 30
0.0
  0
SEQEND
  5
34B
  8
020
  6
CONTINUOUS
 62
     1
  0
TEXT
  5
34C
  8
020
 62
     1
 10
753.1544014544509
 20
143.3586832907143
 30
0.0
 40
2.124016203703704
  1
NO
  7
YUGOTHIC_MEDIUM
 11
753.1544014544509
 21
145.482699494418
 31
0.0
 73
     3
  0
TEXT
  5
34D
  8
020
 62
     1
 10
768.7815833384673
 20
143.3320166240477
 30
0.0
 40
2.124016203703704
  1
名称
  7
YUGOTHIC_MEDIUM
 11
768.7815833384673
 21
145.4560328277514
 31
0.0
 73
     3
  0
POLYLINE
  5
34E
  8
020
  6
CONTINUOUS
 62
     1
 66
     1
 10
0.0
 20
0.0
 30
0.0
 70
   129
  0
VERTEX
  5
34F
  8
020
  6
CONTINUOUS
 62
     1
 10
760.4027853330043
 20
146.8089055129366
 30
0.0
  0
VERTEX
  5
350
  8
020
  6
CONTINUOUS
 62
     1
 10
782.8048257883746
 20
146.8089055129366
 30
0.0
  0
VERTEX
  5
351
  8
020
  6
CONTINUOUS
 62
     1
 10
782.8048257883746
 20
141.6089055129366
 30
0.0
  0
VERTEX
  5
352
  8
020
  6
CONTINUOUS
 62
     1
 10
760.4027853330043
 20
141.6089055129366
 30
0.0
  0
SEQEND
  5
353
  8
020
  6
CONTINUOUS
 62
     1
  0
POLYLINE
  5
354
  8
020
  6
CONTINUOUS
 62
     1
 66
     1
 10
0.0
 20
0.0
 30
0.0
 70
   129
  0
VERTEX
  5
355
  8
020
  6
CONTINUOUS
 62
     1
 10
782.8048257883746
 20
146.8089055129366
 30
0.0
  0
VERTEX
  5
356
  8
020
  6
CONTINUOUS
 62
     1
 10
813.4548257883746
 20
146.8089055129366
 30
0.0
  0
VERTEX
  5
357
  8
020
  6
CONTINUOUS
 62
     1
 10
813.4548257883746
 20
141.6089055129366
 30
0.0
  0
VERTEX
  5
358
  8
020
  6
CONTINUOUS
 62
     1
 10
782.8048257883746
 20
141.6089055129366
 30
0.0
  0
SEQEND
  5
359
  8
020
  6
CONTINUOUS
 62
     1
  0
TEXT
  5
35A
  8
020
 62
     1
 10
795.1437146772635
 20
143.3420166240477
 30
0.0
 40
2.124016203703704
  1
材質
  7
YUGOTHIC_MEDIUM
 11
795.1437146772635
 21
145.4660328277514
 31
0.0
 73
     3
  0
POLYLINE
  5
35B
  8
020
  6
CONTINUOUS
 62
     1
 66
     1
 10
0.0
 20
0.0
 30
0.0
 70
   129
  0
VERTEX
  5
35C
  8
020
  6
CONTINUOUS
 62
     1
 10
749.9048257883746
 20
141.6089055129366
 30
0.0
  0
VERTEX
  5
35D
  8
020
  6
CONTINUOUS
 62
     1
 10
760.4027853330043
 20
141.6089055129366
 30
0.0
  0
VERTEX
  5
35E
  8
020
  6
CONTINUOUS
 62
     1
 10
760.4027853330043
 20
136.4089055129365
 30
0.0
  0
VERTEX
  5
35F
  8
020
  6
CONTINUOUS
 62
     1
 10
749.9048257883746
 20
136.4089055129365
 30
0.0
  0
SEQEND
  5
360
  8
020
  6
CONTINUOUS
 62
     1
  0
POLYLINE
  5
361
  8
020
  6
CONTINUOUS
 62
     1
 66
     1
 10
0.0
 20
0.0
 30
0.0
 70
   129
  0
VERTEX
  5
362
  8
020
  6
CONTINUOUS
 62
     1
 10
760.4027853330043
 20
141.6089055129366
 30
0.0
  0
VERTEX
  5
363
  8
020
  6
CONTINUOUS
 62
     1
 10
782.8048257883746
 20
141.6089055129366
 30
0.0
  0
VERTEX
  5
364
  8
020
  6
CONTINUOUS
 62
     1
 10
782.8048257883746
 20
136.4089055129365
 30
0.0
  0
VERTEX
  5
365
  8
020
  6
CONTINUOUS
 62
     1
 10
760.4027853330043
 20
136.4089055129365
 30
0.0
  0
SEQEND
  5
366
  8
020
  6
CONTINUOUS
 62
     1
  0
POLYLINE
  5
367
  8
020
  6
CONTINUOUS
 62
     1
 66
     1
 10
0.0
 20
0.0
 30
0.0
 70
   129
  0
VERTEX
  5
368
  8
020
  6
CONTINUOUS
 62
     1
 10
782.8048257883746
 20
141.6089055129366
 30
0.0
  0
VERTEX
  5
369
  8
020
  6
CONTINUOUS
 62
     1
 10
813.4548257883746
 20
141.6089055129366
 30
0.0
  0
VERTEX
  5
36A
  8
020
  6
CONTINUOUS
 62
     1
 10
813.4548257883746
 20
136.4089055129365
 30
0.0
  0
VERTEX
  5
36B
  8
020
  6
CONTINUOUS
 62
     1
 10
782.8048257883746
 20
136.4089055129365
 30
0.0
  0
SEQEND
  5
36C
  8
020
  6
CONTINUOUS
 62
     1
  0
TEXT
  5
36D
  8
SAKUZU
 62
     1
 10
754.0607772311525
 20
127.7941112232781
 30
0.0
 40
2.124016203703704
  1
4
  7
YUGOTHIC_MEDIUM
 72
     1
 11
755.1227853330043
 21
127.7941112232781
 31
0.0
  0
TEXT
  5
36E
  8
SAKUZU
 62
     1
 10
767.9116146980837
 20
122.2315817620846
 30
0.0
 40
2.124016203703704
  1
引戸取手
  7
YUGOTHIC_MEDIUM
 72
     1
 11
771.5527853330043
 21
122.2315817620846
 31
0.0
  0
TEXT
  5
36F
  8
SAKUZU
 62
     1
 10
767.1533624947238
 20
132.736461068492
 30
0.0
 40
2.124016203703704
  1
トップ補強
  7
YUGOTHIC_MEDIUM
 72
     1
 11
771.7048257883746
 21
132.736461068492
 31
0.0
  0
TEXT
  5
370
  8
SAKUZU
 62
     1
 10
754.2435129019592
 20
132.736461068492
 30
0.0
 40
2.124016203703704
  1
２
  7
YUGOTHIC_MEDIUM
 72
     1
 11
755.1538055606894
 21
132.736461068492
 31
0.0
  0
TEXT
  5
371
  8
SAKUZU
 62
     1
 10
754.2435129019592
 20
137.936461068492
 30
0.0
 40
2.124016203703704
  1
１
  7
YUGOTHIC_MEDIUM
 72
     1
 11
755.1538055606894
 21
137.936461068492
 31
0.0
  0
TEXT
  5
372
  8
SAKUZU
 62
     1
 10
768.9739478121841
 20
137.936461068492
 30
0.0
 40
2.124016203703704
  1
トップ
  7
YUGOTHIC_MEDIUM
 72
     1
 11
771.7048257883746
 21
137.936461068492
 31
0.0
  0
TEXT
  5
373
  8
SAKUZU
 62
     1
 10
754.1423692732114
 20
122.2741843794933
 30
0.0
 40
2.124016203703704
  1
5
  7
YUGOTHIC_MEDIUM
 72
     1
 11
755.1538055606894
 21
122.2741843794933
 31
0.0
  0
TEXT
  5
374
  8
SAKUZU
 62
     1
 10
792.6680698359936
 20
122.3791373176405
 30
0.0
 40
2.124016203703704
  1
ＳＵＳ３０４
  7
YUGOTHIC_MEDIUM
 72
     1
 11
798.1298257883745
 21
122.3791373176405
 31
0.0
  0
TEXT
  5
375
  8
SAKUZU
 62
     1
 10
754.0917974588376
 20
117.136461068492
 30
0.0
 40
2.124016203703704
  1
6
  7
YUGOTHIC_MEDIUM
 72
     1
 11
755.1538055606894
 21
117.136461068492
 31
0.0
  0
POLYLINE
  5
376
  8
020
  6
CONTINUOUS
 62
     1
 66
     1
 10
0.0
 20
0.0
 30
0.0
 70
   129
  0
VERTEX
  5
377
  8
020
  6
CONTINUOUS
 62
     1
 10
813.4548257883746
 20
146.8089055129366
 30
0.0
  0
VERTEX
  5
378
  8
020
  6
CONTINUOUS
 62
     1
 10
846.5048257883745
 20
146.8089055129366
 30
0.0
  0
VERTEX
  5
379
  8
020
  6
CONTINUOUS
 62
     1
 10
846.5048257883745
 20
141.6089055129366
 30
0.0
  0
VERTEX
  5
37A
  8
020
  6
CONTINUOUS
 62
     1
 10
813.4548257883746
 20
141.6089055129366
 30
0.0
  0
SEQEND
  5
37B
  8
020
  6
CONTINUOUS
 62
     1
  0
TEXT
  5
37C
  8
020
 62
     1
 10
827.3687146772635
 20
143.3420166240477
 30
0.0
 40
2.124016203703704
  1
仕様
  7
YUGOTHIC_MEDIUM
 11
827.3687146772635
 21
145.4660328277514
 31
0.0
 73
     3
  0
POLYLINE
  5
37D
  8
020
  6
CONTINUOUS
 62
     1
 66
     1
 10
0.0
 20
0.0
 30
0.0
 70
   129
  0
VERTEX
  5
37E
  8
020
  6
CONTINUOUS
 62
     1
 10
813.4548257883746
 20
141.6089055129366
 30
0.0
  0
VERTEX
  5
37F
  8
020
  6
CONTINUOUS
 62
     1
 10
846.5048257883745
 20
141.6089055129366
 30
0.0
  0
VERTEX
  5
380
  8
020
  6
CONTINUOUS
 62
     1
 10
846.5048257883745
 20
136.4089055129365
 30
0.0
  0
VERTEX
  5
381
  8
020
  6
CONTINUOUS
 62
     1
 10
813.4548257883746
 20
136.4089055129365
 30
0.0
  0
SEQEND
  5
382
  8
020
  6
CONTINUOUS
 62
     1
  0
POLYLINE
  5
383
  8
020
  6
CONTINUOUS
 62
     1
 66
     1
 10
0.0
 20
0.0
 30
0.0
 70
   129
  0
VERTEX
  5
384
  8
020
  6
CONTINUOUS
 62
     1
 10
749.9048257883746
 20
136.4089055129365
 30
0.0
  0
VERTEX
  5
385
  8
020
  6
CONTINUOUS
 62
     1
 10
760.4027853330043
 20
136.4089055129365
 30
0.0
  0
VERTEX
  5
386
  8
020
  6
CONTINUOUS
 62
     1
 10
760.4027853330043
 20
131.2089055129365
 30
0.0
  0
VERTEX
  5
387
  8
020
  6
CONTINUOUS
 62
     1
 10
749.9048257883746
 20
131.2089055129365
 30
0.0
  0
SEQEND
  5
388
  8
020
  6
CONTINUOUS
 62
     1
  0
POLYLINE
  5
389
  8
020
  6
CONTINUOUS
 62
     1
 66
     1
 10
0.0
 20
0.0
 30
0.0
 70
   129
  0
VERTEX
  5
38A
  8
020
  6
CONTINUOUS
 62
     1
 10
760.4027853330043
 20
136.4089055129365
 30
0.0
  0
VERTEX
  5
38B
  8
020
  6
CONTINUOUS
 62
     1
 10
782.8048257883746
 20
136.4089055129365
 30
0.0
  0
VERTEX
  5
38C
  8
020
  6
CONTINUOUS
 62
     1
 10
782.8048257883746
 20
131.2089055129365
 30
0.0
  0
VERTEX
  5
38D
  8
020
  6
CONTINUOUS
 62
     1
 10
760.4027853330043
 20
131.2089055129365
 30
0.0
  0
SEQEND
  5
38E
  8
020
  6
CONTINUOUS
 62
     1
  0
POLYLINE
  5
38F
  8
020
  6
CONTINUOUS
 62
     1
 66
     1
 10
0.0
 20
0.0
 30
0.0
 70
   129
  0
VERTEX
  5
390
  8
020
  6
CONTINUOUS
 62
     1
 10
782.8048257883746
 20
136.4089055129365
 30
0.0
  0
VERTEX
  5
391
  8
020
  6
CONTINUOUS
 62
     1
 10
813.4548257883746
 20
136.4089055129365
 30
0.0
  0
VERTEX
  5
392
  8
020
  6
CONTINUOUS
 62
     1
 10
813.4548257883746
 20
131.2089055129365
 30
0.0
  0
VERTEX
  5
393
  8
020
  6
CONTINUOUS
 62
     1
 10
782.8048257883746
 20
131.2089055129365
 30
0.0
  0
SEQEND
  5
394
  8
020
  6
CONTINUOUS
 62
     1
  0
POLYLINE
  5
395
  8
020
  6
CONTINUOUS
 62
     1
 66
     1
 10
0.0
 20
0.0
 30
0.0
 70
   129
  0
VERTEX
  5
396
  8
020
  6
CONTINUOUS
 62
     1
 10
813.4548257883746
 20
136.4089055129365
 30
0.0
  0
VERTEX
  5
397
  8
020
  6
CONTINUOUS
 62
     1
 10
846.5048257883745
 20
136.4089055129365
 30
0.0
  0
VERTEX
  5
398
  8
020
  6
CONTINUOUS
 62
     1
 10
846.5048257883745
 20
131.2089055129365
 30
0.0
  0
VERTEX
  5
399
  8
020
  6
CONTINUOUS
 62
     1
 10
813.4548257883746
 20
131.2089055129365
 30
0.0
  0
SEQEND
  5
39A
  8
020
  6
CONTINUOUS
 62
     1
  0
POLYLINE
  5
39B
  8
020
  6
CONTINUOUS
 62
     1
 66
     1
 10
0.0
 20
0.0
 30
0.0
 70
   129
  0
VERTEX
  5
39C
  8
020
  6
CONTINUOUS
 62
     1
 10
749.9048257883746
 20
131.2089055129365
 30
0.0
  0
VERTEX
  5
39D
  8
020
  6
CONTINUOUS
 62
     1
 10
760.4027853330043
 20
131.2089055129365
 30
0.0
  0
VERTEX
  5
39E
  8
020
  6
CONTINUOUS
 62
     1
 10
760.4027853330043
 20
126.0089055129364
 30
0.0
  0
VERTEX
  5
39F
  8
020
  6
CONTINUOUS
 62
     1
 10
749.9048257883746
 20
126.0089055129364
 30
0.0
  0
SEQEND
  5
3A0
  8
020
  6
CONTINUOUS
 62
     1
  0
POLYLINE
  5
3A1
  8
020
  6
CONTINUOUS
 62
     1
 66
     1
 10
0.0
 20
0.0
 30
0.0
 70
   129
  0
VERTEX
  5
3A2
  8
020
  6
CONTINUOUS
 62
     1
 10
760.4027853330043
 20
131.2089055129365
 30
0.0
  0
VERTEX
  5
3A3
  8
020
  6
CONTINUOUS
 62
     1
 10
782.8048257883746
 20
131.2089055129365
 30
0.0
  0
VERTEX
  5
3A4
  8
020
  6
CONTINUOUS
 62
     1
 10
782.8048257883746
 20
126.0089055129364
 30
0.0
  0
VERTEX
  5
3A5
  8
020
  6
CONTINUOUS
 62
     1
 10
760.4027853330043
 20
126.0089055129364
 30
0.0
  0
SEQEND
  5
3A6
  8
020
  6
CONTINUOUS
 62
     1
  0
POLYLINE
  5
3A7
  8
020
  6
CONTINUOUS
 62
     1
 66
     1
 10
0.0
 20
0.0
 30
0.0
 70
   129
  0
VERTEX
  5
3A8
  8
020
  6
CONTINUOUS
 62
     1
 10
782.8048257883746
 20
131.2089055129365
 30
0.0
  0
VERTEX
  5
3A9
  8
020
  6
CONTINUOUS
 62
     1
 10
813.4548257883746
 20
131.2089055129365
 30
0.0
  0
VERTEX
  5
3AA
  8
020
  6
CONTINUOUS
 62
     1
 10
813.4548257883746
 20
126.0089055129364
 30
0.0
  0
VERTEX
  5
3AB
  8
020
  6
CONTINUOUS
 62
     1
 10
782.8048257883746
 20
126.0089055129364
 30
0.0
  0
SEQEND
  5
3AC
  8
020
  6
CONTINUOUS
 62
     1
  0
POLYLINE
  5
3AD
  8
020
  6
CONTINUOUS
 62
     1
 66
     1
 10
0.0
 20
0.0
 30
0.0
 70
   129
  0
VERTEX
  5
3AE
  8
020
  6
CONTINUOUS
 62
     1
 10
813.4548257883746
 20
131.2089055129365
 30
0.0
  0
VERTEX
  5
3AF
  8
020
  6
CONTINUOUS
 62
     1
 10
846.5048257883745
 20
131.2089055129365
 30
0.0
  0
VERTEX
  5
3B0
  8
020
  6
CONTINUOUS
 62
     1
 10
846.5048257883745
 20
126.0089055129364
 30
0.0
  0
VERTEX
  5
3B1
  8
020
  6
CONTINUOUS
 62
     1
 10
813.4548257883746
 20
126.0089055129364
 30
0.0
  0
SEQEND
  5
3B2
  8
020
  6
CONTINUOUS
 62
     1
  0
POLYLINE
  5
3B3
  8
020
  6
CONTINUOUS
 62
     1
 66
     1
 10
0.0
 20
0.0
 30
0.0
 70
   129
  0
VERTEX
  5
3B4
  8
020
  6
CONTINUOUS
 62
     1
 10
749.9048257883746
 20
126.0089055129364
 30
0.0
  0
VERTEX
  5
3B5
  8
020
  6
CONTINUOUS
 62
     1
 10
760.4027853330043
 20
126.0089055129364
 30
0.0
  0
VERTEX
  5
3B6
  8
020
  6
CONTINUOUS
 62
     1
 10
760.4027853330043
 20
120.8089055129364
 30
0.0
  0
VERTEX
  5
3B7
  8
020
  6
CONTINUOUS
 62
     1
 10
749.9048257883746
 20
120.8089055129364
 30
0.0
  0
SEQEND
  5
3B8
  8
020
  6
CONTINUOUS
 62
     1
  0
POLYLINE
  5
3B9
  8
020
  6
CONTINUOUS
 62
     1
 66
     1
 10
0.0
 20
0.0
 30
0.0
 70
   129
  0
VERTEX
  5
3BA
  8
020
  6
CONTINUOUS
 62
     1
 10
760.4027853330043
 20
126.0089055129364
 30
0.0
  0
VERTEX
  5
3BB
  8
020
  6
CONTINUOUS
 62
     1
 10
782.8048257883746
 20
126.0089055129364
 30
0.0
  0
VERTEX
  5
3BC
  8
020
  6
CONTINUOUS
 62
     1
 10
782.8048257883746
 20
120.8089055129364
 30
0.0
  0
VERTEX
  5
3BD
  8
020
  6
CONTINUOUS
 62
     1
 10
760.4027853330043
 20
120.8089055129364
 30
0.0
  0
SEQEND
  5
3BE
  8
020
  6
CONTINUOUS
 62
     1
  0
POLYLINE
  5
3BF
  8
020
  6
CONTINUOUS
 62
     1
 66
     1
 10
0.0
 20
0.0
 30
0.0
 70
   129
  0
VERTEX
  5
3C0
  8
020
  6
CONTINUOUS
 62
     1
 10
782.8048257883746
 20
126.0089055129364
 30
0.0
  0
VERTEX
  5
3C1
  8
020
  6
CONTINUOUS
 62
     1
 10
813.4548257883746
 20
126.0089055129364
 30
0.0
  0
VERTEX
  5
3C2
  8
020
  6
CONTINUOUS
 62
     1
 10
813.4548257883746
 20
120.8089055129364
 30
0.0
  0
VERTEX
  5
3C3
  8
020
  6
CONTINUOUS
 62
     1
 10
782.8048257883746
 20
120.8089055129364
 30
0.0
  0
SEQEND
  5
3C4
  8
020
  6
CONTINUOUS
 62
     1
  0
POLYLINE
  5
3C5
  8
020
  6
CONTINUOUS
 62
     1
 66
     1
 10
0.0
 20
0.0
 30
0.0
 70
   129
  0
VERTEX
  5
3C6
  8
020
  6
CONTINUOUS
 62
     1
 10
813.4548257883746
 20
126.0089055129364
 30
0.0
  0
VERTEX
  5
3C7
  8
020
  6
CONTINUOUS
 62
     1
 10
846.5048257883745
 20
126.0089055129364
 30
0.0
  0
VERTEX
  5
3C8
  8
020
  6
CONTINUOUS
 62
     1
 10
846.5048257883745
 20
120.8089055129364
 30
0.0
  0
VERTEX
  5
3C9
  8
020
  6
CONTINUOUS
 62
     1
 10
813.4548257883746
 20
120.8089055129364
 30
0.0
  0
SEQEND
  5
3CA
  8
020
  6
CONTINUOUS
 62
     1
  0
POLYLINE
  5
3CB
  8
020
  6
CONTINUOUS
 62
     1
 66
     1
 10
0.0
 20
0.0
 30
0.0
 70
   129
  0
VERTEX
  5
3CC
  8
020
  6
CONTINUOUS
 62
     1
 10
749.9048257883746
 20
120.8089055129364
 30
0.0
  0
VERTEX
  5
3CD
  8
020
  6
CONTINUOUS
 62
     1
 10
760.4027853330043
 20
120.8089055129364
 30
0.0
  0
VERTEX
  5
3CE
  8
020
  6
CONTINUOUS
 62
     1
 10
760.4027853330043
 20
115.6089055129363
 30
0.0
  0
VERTEX
  5
3CF
  8
020
  6
CONTINUOUS
 62
     1
 10
749.9048257883746
 20
115.6089055129363
 30
0.0
  0
SEQEND
  5
3D0
  8
020
  6
CONTINUOUS
 62
     1
  0
POLYLINE
  5
3D1
  8
020
  6
CONTINUOUS
 62
     1
 66
     1
 10
0.0
 20
0.0
 30
0.0
 70
   129
  0
VERTEX
  5
3D2
  8
020
  6
CONTINUOUS
 62
     1
 10
760.4027853330043
 20
120.8089055129364
 30
0.0
  0
VERTEX
  5
3D3
  8
020
  6
CONTINUOUS
 62
     1
 10
782.8048257883746
 20
120.8089055129364
 30
0.0
  0
VERTEX
  5
3D4
  8
020
  6
CONTINUOUS
 62
     1
 10
782.8048257883746
 20
115.6089055129363
 30
0.0
  0
VERTEX
  5
3D5
  8
020
  6
CONTINUOUS
 62
     1
 10
760.4027853330043
 20
115.6089055129363
 30
0.0
  0
SEQEND
  5
3D6
  8
020
  6
CONTINUOUS
 62
     1
  0
POLYLINE
  5
3D7
  8
020
  6
CONTINUOUS
 62
     1
 66
     1
 10
0.0
 20
0.0
 30
0.0
 70
   129
  0
VERTEX
  5
3D8
  8
020
  6
CONTINUOUS
 62
     1
 10
782.8048257883746
 20
120.8089055129364
 30
0.0
  0
VERTEX
  5
3D9
  8
020
  6
CONTINUOUS
 62
     1
 10
813.4548257883746
 20
120.8089055129364
 30
0.0
  0
VERTEX
  5
3DA
  8
020
  6
CONTINUOUS
 62
     1
 10
813.4548257883746
 20
115.6089055129363
 30
0.0
  0
VERTEX
  5
3DB
  8
020
  6
CONTINUOUS
 62
     1
 10
782.8048257883746
 20
115.6089055129363
 30
0.0
  0
SEQEND
  5
3DC
  8
020
  6
CONTINUOUS
 62
     1
  0
POLYLINE
  5
3DD
  8
020
  6
CONTINUOUS
 62
     1
 66
     1
 10
0.0
 20
0.0
 30
0.0
 70
   129
  0
VERTEX
  5
3DE
  8
020
  6
CONTINUOUS
 62
     1
 10
813.4548257883746
 20
120.8089055129364
 30
0.0
  0
VERTEX
  5
3DF
  8
020
  6
CONTINUOUS
 62
     1
 10
846.5048257883745
 20
120.8089055129364
 30
0.0
  0
VERTEX
  5
3E0
  8
020
  6
CONTINUOUS
 62
     1
 10
846.5048257883745
 20
115.6089055129363
 30
0.0
  0
VERTEX
  5
3E1
  8
020
  6
CONTINUOUS
 62
     1
 10
813.4548257883746
 20
115.6089055129363
 30
0.0
  0
SEQEND
  5
3E2
  8
020
  6
CONTINUOUS
 62
     1
  0
TEXT
  5
3E3
  8
SAKUZU
 62
     1
 10
795.398947812184
 20
132.7977445549737
 30
0.0
 40
2.124016203703704
  1
ホンデ
  7
YUGOTHIC_MEDIUM
 72
     1
 11
798.1298257883745
 21
132.7977445549737
 31
0.0
  0
TEXT
  5
3E4
  8
SAKUZU
 62
     1
 10
820.6876590678783
 20
137.936461068492
 30
0.0
 40
2.124016203703704
  1
t 1.0 NO.4仕上
  7
YUGOTHIC_MEDIUM
  0
TEXT
  5
3E5
  8
SAKUZU
 62
     1
 10
820.6876590678783
 20
132.736461068492
 30
0.0
 40
2.124016203703704
  1
t 1.0
  7
YUGOTHIC_MEDIUM
  0
TEXT
  5
3E6
  8
SAKUZU
 62
     1
 10
762.7136551534539
 20
96.33646106849176
 30
0.0
 40
2.124016203703704
  1
製品重量
  7
YUGOTHIC_MEDIUM
 72
     1
 11
766.3548257883746
 21
96.33646106849176
 31
0.0
  0
POLYLINE
  5
3E7
  8
020
  6
CONTINUOUS
 62
     1
 66
     1
 10
0.0
 20
0.0
 30
0.0
 70
   129
  0
VERTEX
  5
3E8
  8
020
  6
CONTINUOUS
 62
     1
 10
749.9048257883746
 20
100.0089055129363
 30
0.0
  0
VERTEX
  5
3E9
  8
020
  6
CONTINUOUS
 62
     1
 10
782.8048257883746
 20
100.0089055129363
 30
0.0
  0
VERTEX
  5
3EA
  8
020
  6
CONTINUOUS
 62
     1
 10
782.8048257883746
 20
94.80890551293618
 30
0.0
  0
VERTEX
  5
3EB
  8
020
  6
CONTINUOUS
 62
     1
 10
749.9048257883746
 20
94.80890551293618
 30
0.0
  0
SEQEND
  5
3EC
  8
020
  6
CONTINUOUS
 62
     1
  0
POLYLINE
  5
3ED
  8
020
  6
CONTINUOUS
 62
     1
 66
     1
 10
0.0
 20
0.0
 30
0.0
 70
   129
  0
VERTEX
  5
3EE
  8
020
  6
CONTINUOUS
 62
     1
 10
782.8048257883746
 20
100.0089055129363
 30
0.0
  0
VERTEX
  5
3EF
  8
020
  6
CONTINUOUS
 62
     1
 10
846.5048257883745
 20
100.0089055129363
 30
0.0
  0
VERTEX
  5
3F0
  8
020
  6
CONTINUOUS
 62
     1
 10
846.5048257883745
 20
94.80890551293618
 30
0.0
  0
VERTEX
  5
3F1
  8
020
  6
CONTINUOUS
 62
     1
 10
782.8048257883746
 20
94.80890551293618
 30
0.0
  0
SEQEND
  5
3F2
  8
020
  6
CONTINUOUS
 62
     1
  0
TEXT
  5
3F3
  8
LAYER0002
 62
     1
 10
809.3447852791154
 20
96.22001662404728
 30
0.0
 40
2.124016203703704
  1
36.4kg
  7
YUGOTHIC_MEDIUM
 72
     1
 11
814.6548257883746
 21
96.22001662404728
 31
0.0
  0
TEXT
  5
3F4
  8
SAKUZU
 62
     1
 10
767.1533624947238
 20
127.4207584091875
 30
0.0
 40
2.124016203703704
  1
引き違い戸
  7
YUGOTHIC_MEDIUM
 72
     1
 11
771.7048257883746
 21
127.4207584091875
 31
0.0
  0
TEXT
  5
3F5
  8
SAKUZU
 62
     1
 10
792.7180698359937
 20
127.5904706509738
 30
0.0
 40
2.124016203703704
  1
ＳＵＳ４３０
  7
YUGOTHIC_MEDIUM
 72
     1
 11
798.1798257883746
 21
127.5904706509738
 31
0.0
  0
TEXT
  5
3F6
  8
SAKUZU
 62
     1
 10
769.732200015544
 20
111.788905512936
 30
0.0
 40
2.124016203703704
  1
本体
  7
YUGOTHIC_MEDIUM
 72
     1
 11
771.5527853330043
 21
111.788905512936
 31
0.0
  0
TEXT
  5
3F7
  8
SAKUZU
 62
     1
 10
754.1423692732114
 20
111.8741843794932
 30
0.0
 40
2.124016203703704
  1
7
  7
YUGOTHIC_MEDIUM
 72
     1
 11
755.1538055606894
 21
111.8741843794932
 31
0.0
  0
TEXT
  5
3F8
  8
SAKUZU
 62
     1
 10
767.0523422670386
 20
106.7364610684919
 30
0.0
 40
2.124016203703704
  1
アジャスト
  7
YUGOTHIC_MEDIUM
 72
     1
 11
771.6038055606895
 21
106.7364610684919
 31
0.0
  0
TEXT
  5
3F9
  8
SAKUZU
 62
     1
 10
754.1423692732114
 20
106.7364610684919
 30
0.0
 40
2.124016203703704
  1
8
  7
YUGOTHIC_MEDIUM
 72
     1
 11
755.1538055606894
 21
106.7364610684919
 31
0.0
  0
TEXT
  5
3FA
  8
SAKUZU
 62
     1
 10
792.6680698359936
 20
106.5178049119853
 30
0.0
 40
2.124016203703704
  1
ＳＵＳ３０４
  7
YUGOTHIC_MEDIUM
 72
     1
 11
798.1298257883745
 21
106.5178049119853
 31
0.0
  0
POLYLINE
  5
3FB
  8
020
  6
CONTINUOUS
 62
     1
 66
     1
 10
0.0
 20
0.0
 30
0.0
 70
   129
  0
VERTEX
  5
3FC
  8
020
  6
CONTINUOUS
 62
     1
 10
749.9048257883746
 20
115.6089055129364
 30
0.0
  0
VERTEX
  5
3FD
  8
020
  6
CONTINUOUS
 62
     1
 10
760.4027853330043
 20
115.6089055129364
 30
0.0
  0
VERTEX
  5
3FE
  8
020
  6
CONTINUOUS
 62
     1
 10
760.4027853330043
 20
110.4089055129363
 30
0.0
  0
VERTEX
  5
3FF
  8
020
  6
CONTINUOUS
 62
     1
 10
749.9048257883746
 20
110.4089055129363
 30
0.0
  0
SEQEND
  5
400
  8
020
  6
CONTINUOUS
 62
     1
  0
POLYLINE
  5
401
  8
020
  6
CONTINUOUS
 62
     1
 66
     1
 10
0.0
 20
0.0
 30
0.0
 70
   129
  0
VERTEX
  5
402
  8
020
  6
CONTINUOUS
 62
     1
 10
760.4027853330043
 20
115.6089055129364
 30
0.0
  0
VERTEX
  5
403
  8
020
  6
CONTINUOUS
 62
     1
 10
782.8048257883746
 20
115.6089055129364
 30
0.0
  0
VERTEX
  5
404
  8
020
  6
CONTINUOUS
 62
     1
 10
782.8048257883746
 20
110.4089055129363
 30
0.0
  0
VERTEX
  5
405
  8
020
  6
CONTINUOUS
 62
     1
 10
760.4027853330043
 20
110.4089055129363
 30
0.0
  0
SEQEND
  5
406
  8
020
  6
CONTINUOUS
 62
     1
  0
POLYLINE
  5
407
  8
020
  6
CONTINUOUS
 62
     1
 66
     1
 10
0.0
 20
0.0
 30
0.0
 70
   129
  0
VERTEX
  5
408
  8
020
  6
CONTINUOUS
 62
     1
 10
782.8048257883746
 20
115.6089055129364
 30
0.0
  0
VERTEX
  5
409
  8
020
  6
CONTINUOUS
 62
     1
 10
813.4548257883746
 20
115.6089055129364
 30
0.0
  0
VERTEX
  5
40A
  8
020
  6
CONTINUOUS
 62
     1
 10
813.4548257883746
 20
110.4089055129363
 30
0.0
  0
VERTEX
  5
40B
  8
020
  6
CONTINUOUS
 62
     1
 10
782.8048257883746
 20
110.4089055129363
 30
0.0
  0
SEQEND
  5
40C
  8
020
  6
CONTINUOUS
 62
     1
  0
POLYLINE
  5
40D
  8
020
  6
CONTINUOUS
 62
     1
 66
     1
 10
0.0
 20
0.0
 30
0.0
 70
   129
  0
VERTEX
  5
40E
  8
020
  6
CONTINUOUS
 62
     1
 10
813.4548257883746
 20
115.6089055129364
 30
0.0
  0
VERTEX
  5
40F
  8
020
  6
CONTINUOUS
 62
     1
 10
846.5048257883745
 20
115.6089055129364
 30
0.0
  0
VERTEX
  5
410
  8
020
  6
CONTINUOUS
 62
     1
 10
846.5048257883745
 20
110.4089055129363
 30
0.0
  0
VERTEX
  5
411
  8
020
  6
CONTINUOUS
 62
     1
 10
813.4548257883746
 20
110.4089055129363
 30
0.0
  0
SEQEND
  5
412
  8
020
  6
CONTINUOUS
 62
     1
  0
POLYLINE
  5
413
  8
020
  6
CONTINUOUS
 62
     1
 66
     1
 10
0.0
 20
0.0
 30
0.0
 70
   129
  0
VERTEX
  5
414
  8
020
  6
CONTINUOUS
 62
     1
 10
749.9048257883746
 20
110.4089055129363
 30
0.0
  0
VERTEX
  5
415
  8
020
  6
CONTINUOUS
 62
     1
 10
760.4027853330043
 20
110.4089055129363
 30
0.0
  0
VERTEX
  5
416
  8
020
  6
CONTINUOUS
 62
     1
 10
760.4027853330043
 20
105.2089055129363
 30
0.0
  0
VERTEX
  5
417
  8
020
  6
CONTINUOUS
 62
     1
 10
749.9048257883746
 20
105.2089055129363
 30
0.0
  0
SEQEND
  5
418
  8
020
  6
CONTINUOUS
 62
     1
  0
POLYLINE
  5
419
  8
020
  6
CONTINUOUS
 62
     1
 66
     1
 10
0.0
 20
0.0
 30
0.0
 70
   129
  0
VERTEX
  5
41A
  8
020
  6
CONTINUOUS
 62
     1
 10
760.4027853330043
 20
110.4089055129363
 30
0.0
  0
VERTEX
  5
41B
  8
020
  6
CONTINUOUS
 62
     1
 10
782.8048257883746
 20
110.4089055129363
 30
0.0
  0
VERTEX
  5
41C
  8
020
  6
CONTINUOUS
 62
     1
 10
782.8048257883746
 20
105.2089055129363
 30
0.0
  0
VERTEX
  5
41D
  8
020
  6
CONTINUOUS
 62
     1
 10
760.4027853330043
 20
105.2089055129363
 30
0.0
  0
SEQEND
  5
41E
  8
020
  6
CONTINUOUS
 62
     1
  0
POLYLINE
  5
41F
  8
020
  6
CONTINUOUS
 62
     1
 66
     1
 10
0.0
 20
0.0
 30
0.0
 70
   129
  0
VERTEX
  5
420
  8
020
  6
CONTINUOUS
 62
     1
 10
782.8048257883746
 20
110.4089055129363
 30
0.0
  0
VERTEX
  5
421
  8
020
  6
CONTINUOUS
 62
     1
 10
813.4548257883746
 20
110.4089055129363
 30
0.0
  0
VERTEX
  5
422
  8
020
  6
CONTINUOUS
 62
     1
 10
813.4548257883746
 20
105.2089055129363
 30
0.0
  0
VERTEX
  5
423
  8
020
  6
CONTINUOUS
 62
     1
 10
782.8048257883746
 20
105.2089055129363
 30
0.0
  0
SEQEND
  5
424
  8
020
  6
CONTINUOUS
 62
     1
  0
POLYLINE
  5
425
  8
020
  6
CONTINUOUS
 62
     1
 66
     1
 10
0.0
 20
0.0
 30
0.0
 70
   129
  0
VERTEX
  5
426
  8
020
  6
CONTINUOUS
 62
     1
 10
813.4548257883746
 20
110.4089055129363
 30
0.0
  0
VERTEX
  5
427
  8
020
  6
CONTINUOUS
 62
     1
 10
846.5048257883745
 20
110.4089055129363
 30
0.0
  0
VERTEX
  5
428
  8
020
  6
CONTINUOUS
 62
     1
 10
846.5048257883745
 20
105.2089055129363
 30
0.0
  0
VERTEX
  5
429
  8
020
  6
CONTINUOUS
 62
     1
 10
813.4548257883746
 20
105.2089055129363
 30
0.0
  0
SEQEND
  5
42A
  8
020
  6
CONTINUOUS
 62
     1
  0
TEXT
  5
42B
  8
SAKUZU
 62
     1
 10
792.6680698359936
 20
111.9364610684919
 30
0.0
 40
2.124016203703704
  1
ＳＵＳ４３０
  7
YUGOTHIC_MEDIUM
 72
     1
 11
798.1298257883745
 21
111.9364610684919
 31
0.0
  0
TEXT
  5
42C
  8
SAKUZU
 62
     1
 10
820.6876590678783
 20
111.9364610684919
 30
0.0
 40
2.124016203703704
  1
t 0.8 NO.4仕上
  7
YUGOTHIC_MEDIUM
  0
TEXT
  5
42D
  8
SAKUZU
 62
     1
 10
820.6876590678783
 20
127.5791373176405
 30
0.0
 40
2.124016203703704
  1
t 0.8 NO.4仕上
  7
YUGOTHIC_MEDIUM
  0
TEXT
  5
42E
  8
SAKUZU
 62
     1
 10
815.9813344414707
 20
106.7892342706328
 30
0.0
 40
2.124016203703704
  1
調整幅：-5?＋30mm
  7
YUGOTHIC_MEDIUM
  0
TEXT
  5
42F
  8
SAKUZU
 62
     1
 10
792.7180698359937
 20
137.8123658327599
 30
0.0
 40
2.124016203703704
  1
ＳＵＳ４３０
  7
YUGOTHIC_MEDIUM
 72
     1
 11
798.1798257883746
 21
137.8123658327599
 31
0.0
  0
TEXT
  5
430
  8
SAKUZU
 62
     1
 10
768.8219073568138
 20
116.9889055129361
 30
0.0
 40
2.124016203703704
  1
可動棚
  7
YUGOTHIC_MEDIUM
 72
     1
 11
771.5527853330043
 21
116.9889055129361
 31
0.0
  0
TEXT
  5
431
  8
SAKUZU
 62
     1
 10
792.6680698359936
 20
117.136461068492
 30
0.0
 40
2.124016203703704
  1
ＳＵＳ４３０
  7
YUGOTHIC_MEDIUM
 72
     1
 11
798.1298257883745
 21
117.136461068492
 31
0.0
  0
TEXT
  5
432
  8
SAKUZU
 62
     1
 10
820.6876590678783
 20
117.136461068492
 30
0.0
 40
2.124016203703704
  1
t 0.8 NO.4仕上
  7
YUGOTHIC_MEDIUM
  0
LINE
  5
433
  8
SAKUZU
  6
CONTINUOUS
 62
     4
 10
-427.3263288984908
 20
6640.008637861433
 30
0.0
 11
-427.3263288984908
 21
6040.008637861433
 31
0.0
  0
LINE
  5
434
  8
SAKUZU
  6
CONTINUOUS
 62
     4
 10
-427.3263288984908
 20
6040.008637861433
 30
0.0
 11
472.6736711015112
 21
6040.008637861433
 31
0.0
  0
LINE
  5
435
  8
SAKUZU
  6
CONTINUOUS
 62
     4
 10
472.6736711015112
 20
6040.008637861433
 30
0.0
 11
472.6736711015112
 21
6640.008637861433
 31
0.0
  0
LINE
  5
436
  8
SAKUZU
  6
CONTINUOUS
 62
     4
 10
472.6736711015112
 20
6640.008637861433
 30
0.0
 11
-427.3263288984908
 21
6640.008637861433
 31
0.0
  0
LINE
  5
437
  8
SAKUZU
  6
CONTINUOUS
 62
     4
 10
472.6736711015112
 20
5615.110090843061
 30
0.0
 11
472.6736711015112
 21
5575.110090843061
 31
0.0
  0
LINE
  5
438
  8
SAKUZU
  6
CONTINUOUS
 62
     4
 10
472.6736711015112
 20
5615.110090843061
 30
0.0
 11
-427.3263288984908
 21
5615.110090843061
 31
0.0
  0
LINE
  5
439
  8
SAKUZU
  6
CONTINUOUS
 62
     4
 10
-427.3263288984908
 20
5615.110090843061
 30
0.0
 11
-427.3263288984908
 21
5575.110090843061
 31
0.0
  0
LINE
  5
43A
  8
SAKUZU
  6
CONTINUOUS
 62
     4
 10
-427.3263288984908
 20
5575.110090843061
 30
0.0
 11
472.6736711015112
 21
5575.110090843061
 31
0.0
  0
LINE
  5
43B
  8
SAKUZU
  6
CONTINUOUS
 62
     4
 10
-417.3263288984908
 20
5575.110090843061
 30
0.0
 11
-417.3263288984908
 21
4915.11009084306
 31
0.0
  0
LINE
  5
43C
  8
SAKUZU
  6
CONTINUOUS
 62
     4
 10
462.6736711015112
 20
4915.11009084306
 30
0.0
 11
462.6736711015112
 21
5575.110090843061
 31
0.0
  0
LINE
  5
43D
  8
SAKUZU
  6
CONTINUOUS
 62
     4
 10
-417.3263288984908
 20
4915.11009084306
 30
0.0
 11
462.6736711015112
 21
4915.11009084306
 31
0.0
  0
LINE
  5
43E
  8
SAKUZU
  6
CONTINUOUS
 62
     4
 10
-398.3263288984908
 20
4905.11009084306
 30
0.0
 11
-326.3263288984908
 21
4905.11009084306
 31
0.0
  0
ARC
  5
43F
  8
SAKUZU
  6
CONTINUOUS
 62
     4
 10
-326.3263288984908
 20
4910.11009084306
 30
0.0
 40
5.000000000000028
 50
269.9999938590595
 51
0.0
  0
ARC
  5
440
  8
SAKUZU
  6
CONTINUOUS
 62
     4
 10
-398.3263288984908
 20
4910.11009084306
 30
0.0
 40
5.0
 50
180.0
 51
269.9999938590595
  0
LINE
  5
441
  8
SAKUZU
  6
CONTINUOUS
 62
     4
 10
-321.3263288984908
 20
4910.11009084306
 30
0.0
 11
-321.3263288984908
 21
4915.11009084306
 31
0.0
  0
LINE
  5
442
  8
SAKUZU
  6
CONTINUOUS
 62
     4
 10
-403.3263288984908
 20
4915.11009084306
 30
0.0
 11
-403.3263288984908
 21
4910.11009084306
 31
0.0
  0
LINE
  5
443
  8
SAKUZU
  6
CONTINUOUS
 62
     4
 10
-381.3263288984908
 20
4765.11009084306
 30
0.0
 11
-343.3263288984908
 21
4765.11009084306
 31
0.0
  0
LINE
  5
444
  8
SAKUZU
  6
CONTINUOUS
 62
     4
 10
-343.3263288984908
 20
4765.11009084306
 30
0.0
 11
-343.3263288984908
 21
4785.11009084306
 31
0.0
  0
LINE
  5
445
  8
SAKUZU
  6
CONTINUOUS
 62
     4
 10
-381.3263288984908
 20
4785.11009084306
 30
0.0
 11
-381.3263288984908
 21
4765.11009084306
 31
0.0
  0
LINE
  5
446
  8
SAKUZU
  6
CONTINUOUS
 62
     4
 10
-387.3263288984908
 20
4785.11009084306
 30
0.0
 11
-337.3263288984908
 21
4785.11009084306
 31
0.0
  0
LINE
  5
447
  8
SAKUZU
  6
CONTINUOUS
 62
     4
 10
-394.3263288984908
 20
4905.11009084306
 30
0.0
 11
-387.3263288984908
 21
4785.11009084306
 31
0.0
  0
LINE
  5
448
  8
SAKUZU
  6
CONTINUOUS
 62
     4
 10
-330.3263288984908
 20
4905.11009084306
 30
0.0
 11
-337.3263288984908
 21
4785.11009084306
 31
0.0
  0
LINE
  5
449
  8
SAKUZU
  6
CONTINUOUS
 62
     4
 10
371.6736711015112
 20
4905.11009084306
 30
0.0
 11
443.6736711015112
 21
4905.11009084306
 31
0.0
  0
ARC
  5
44A
  8
SAKUZU
  6
CONTINUOUS
 62
     4
 10
443.6736711015112
 20
4910.11009084306
 30
0.0
 40
5.000000000000028
 50
269.9999938590595
 51
0.0
  0
ARC
  5
44B
  8
SAKUZU
  6
CONTINUOUS
 62
     4
 10
371.6736711015112
 20
4910.11009084306
 30
0.0
 40
5.000000000000057
 50
180.0
 51
269.9999938590595
  0
LINE
  5
44C
  8
SAKUZU
  6
CONTINUOUS
 62
     4
 10
448.6736711015112
 20
4910.11009084306
 30
0.0
 11
448.6736711015112
 21
4915.11009084306
 31
0.0
  0
LINE
  5
44D
  8
SAKUZU
  6
CONTINUOUS
 62
     4
 10
366.6736711015112
 20
4915.11009084306
 30
0.0
 11
366.6736711015112
 21
4910.11009084306
 31
0.0
  0
LINE
  5
44E
  8
SAKUZU
  6
CONTINUOUS
 62
     4
 10
388.6736711015112
 20
4765.11009084306
 30
0.0
 11
426.6736711015112
 21
4765.11009084306
 31
0.0
  0
LINE
  5
44F
  8
SAKUZU
  6
CONTINUOUS
 62
     4
 10
426.6736711015112
 20
4765.11009084306
 30
0.0
 11
426.6736711015112
 21
4785.11009084306
 31
0.0
  0
LINE
  5
450
  8
SAKUZU
  6
CONTINUOUS
 62
     4
 10
388.6736711015112
 20
4785.11009084306
 30
0.0
 11
388.6736711015112
 21
4765.11009084306
 31
0.0
  0
LINE
  5
451
  8
SAKUZU
  6
CONTINUOUS
 62
     4
 10
382.6736711015112
 20
4785.11009084306
 30
0.0
 11
432.6736711015112
 21
4785.11009084306
 31
0.0
  0
LINE
  5
452
  8
SAKUZU
  6
CONTINUOUS
 62
     4
 10
375.6736711015112
 20
4905.11009084306
 30
0.0
 11
382.6736711015112
 21
4785.11009084306
 31
0.0
  0
LINE
  5
453
  8
SAKUZU
  6
CONTINUOUS
 62
     4
 10
439.6736711015112
 20
4905.11009084306
 30
0.0
 11
432.6736711015112
 21
4785.11009084306
 31
0.0
  0
LINE
  5
454
  8
SAKUZU
  6
CONTINUOUS
 62
     4
 10
-365.3263288984908
 20
5575.110090843061
 30
0.0
 11
-365.3263288984908
 21
4915.11009084306
 31
0.0
  0
LINE
  5
455
  8
SAKUZU
  6
CONTINUOUS
 62
     4
 10
410.6736711015112
 20
5575.110090843061
 30
0.0
 11
410.6736711015112
 21
4915.11009084306
 31
0.0
  0
LINE
  5
456
  8
SAKUZU
  6
CONTINUOUS
 62
     4
 10
-365.3263288984908
 20
4965.11009084306
 30
0.0
 11
410.6736711015112
 21
4965.11009084306
 31
0.0
  0
LINE
  5
457
  8
SAKUZU
  6
CONTINUOUS
 62
     4
 10
10.67367110151008
 20
4965.11009084306
 30
0.0
 11
10.67367110151008
 21
5555.110090843061
 31
0.0
  0
LINE
  5
458
  8
SAKUZU
  6
VW-01____
 62
     4
 10
34.67367110151008
 20
5555.110090843061
 30
0.0
 11
34.67367110151008
 21
4965.11009084306
 31
0.0
  0
LINE
  5
459
  8
SAKUZU
  6
CONTINUOUS
 62
     4
 10
-365.3263288984908
 20
5555.110090843061
 30
0.0
 11
410.6736711015112
 21
5555.110090843061
 31
0.0
  0
LINE
  5
45A
  8
SAKUZU
  6
CONTINUOUS
 62
     4
 10
2002.633804099863
 20
5765.110090843061
 30
0.0
 11
2002.633804099863
 21
5575.110090843061
 31
0.0
  0
LINE
  5
45B
  8
SAKUZU
  6
CONTINUOUS
 62
     4
 10
2002.633804099863
 20
5575.110090843061
 30
0.0
 11
1402.633804099863
 21
5575.110090843061
 31
0.0
  0
LINE
  5
45C
  8
SAKUZU
  6
CONTINUOUS
 62
     4
 10
1402.633804099863
 20
5575.110090843061
 30
0.0
 11
1402.633804099863
 21
5610.110090843061
 31
0.0
  0
ARC
  5
45D
  8
SAKUZU
  6
CONTINUOUS
 62
     4
 10
1407.633804099863
 20
5610.110090843061
 30
0.0
 40
5.0
 50
90.0
 51
180.0
  0
LINE
  5
45E
  8
SAKUZU
  6
CONTINUOUS
 62
     4
 10
1407.633804099863
 20
5615.110090843061
 30
0.0
 11
1937.633804099863
 21
5615.110090843061
 31
0.0
  0
LINE
  5
45F
  8
SAKUZU
  6
CONTINUOUS
 62
     4
 10
1412.633804099863
 20
5575.110090843061
 30
0.0
 11
1412.633804099863
 21
4915.11009084306
 31
0.0
  0
LINE
  5
460
  8
SAKUZU
  6
CONTINUOUS
 62
     4
 10
1942.633804099863
 20
4915.11009084306
 30
0.0
 11
1942.633804099863
 21
5575.110090843061
 31
0.0
  0
LINE
  5
461
  8
SAKUZU
  6
CONTINUOUS
 62
     4
 10
1412.633804099863
 20
4915.11009084306
 30
0.0
 11
1942.633804099863
 21
4915.11009084306
 31
0.0
  0
LINE
  5
462
  8
SAKUZU
  6
CONTINUOUS
 62
     4
 10
1431.633804099863
 20
4905.11009084306
 30
0.0
 11
1503.633804099863
 21
4905.11009084306
 31
0.0
  0
ARC
  5
463
  8
SAKUZU
  6
CONTINUOUS
 62
     4
 10
1503.633804099863
 20
4910.11009084306
 30
0.0
 40
5.000000000000028
 50
269.9999938590621
 51
0.0
  0
ARC
  5
464
  8
SAKUZU
  6
CONTINUOUS
 62
     4
 10
1431.633804099863
 20
4910.11009084306
 30
0.0
 40
5.0
 50
180.0
 51
269.9999938590621
  0
LINE
  5
465
  8
SAKUZU
  6
CONTINUOUS
 62
     4
 10
1508.633804099863
 20
4910.11009084306
 30
0.0
 11
1508.633804099863
 21
4915.11009084306
 31
0.0
  0
LINE
  5
466
  8
SAKUZU
  6
CONTINUOUS
 62
     4
 10
1426.633804099863
 20
4915.11009084306
 30
0.0
 11
1426.633804099863
 21
4910.11009084306
 31
0.0
  0
LINE
  5
467
  8
SAKUZU
  6
CONTINUOUS
 62
     1
 10
1448.633804099863
 20
4765.110090843059
 30
0.0
 11
1486.633804099863
 21
4765.110090843059
 31
0.0
  0
LINE
  5
468
  8
SAKUZU
  6
CONTINUOUS
 62
     1
 10
1486.633804099863
 20
4765.110090843059
 30
0.0
 11
1486.633804099863
 21
4785.110090843059
 31
0.0
  0
LINE
  5
469
  8
SAKUZU
  6
CONTINUOUS
 62
     1
 10
1448.633804099863
 20
4785.110090843059
 30
0.0
 11
1448.633804099863
 21
4765.110090843059
 31
0.0
  0
LINE
  5
46A
  8
SAKUZU
  6
CONTINUOUS
 62
     1
 10
1442.633804099863
 20
4785.110090843059
 30
0.0
 11
1492.633804099863
 21
4785.110090843059
 31
0.0
  0
LINE
  5
46B
  8
SAKUZU
  6
CONTINUOUS
 62
     1
 10
1435.633804099863
 20
4905.11009084306
 30
0.0
 11
1442.633804099863
 21
4785.110090843059
 31
0.0
  0
LINE
  5
46C
  8
SAKUZU
  6
CONTINUOUS
 62
     1
 10
1499.633804099863
 20
4905.11009084306
 30
0.0
 11
1492.633804099863
 21
4785.110090843059
 31
0.0
  0
LINE
  5
46D
  8
SAKUZU
  6
CONTINUOUS
 62
     4
 10
1851.633804099863
 20
4905.11009084306
 30
0.0
 11
1923.633804099863
 21
4905.11009084306
 31
0.0
  0
ARC
  5
46E
  8
SAKUZU
  6
CONTINUOUS
 62
     4
 10
1923.633804099863
 20
4910.11009084306
 30
0.0
 40
5.000000000000028
 50
269.9999938590621
 51
0.0
  0
ARC
  5
46F
  8
SAKUZU
  6
CONTINUOUS
 62
     4
 10
1851.633804099863
 20
4910.11009084306
 30
0.0
 40
5.0
 50
180.0
 51
269.9999938590621
  0
LINE
  5
470
  8
SAKUZU
  6
CONTINUOUS
 62
     4
 10
1928.633804099863
 20
4910.11009084306
 30
0.0
 11
1928.633804099863
 21
4915.11009084306
 31
0.0
  0
LINE
  5
471
  8
SAKUZU
  6
CONTINUOUS
 62
     4
 10
1846.633804099863
 20
4915.11009084306
 30
0.0
 11
1846.633804099863
 21
4910.11009084306
 31
0.0
  0
LINE
  5
472
  8
SAKUZU
  6
CONTINUOUS
 62
     1
 10
1868.633804099863
 20
4765.110090843059
 30
0.0
 11
1906.633804099863
 21
4765.110090843059
 31
0.0
  0
LINE
  5
473
  8
SAKUZU
  6
CONTINUOUS
 62
     1
 10
1906.633804099863
 20
4765.110090843059
 30
0.0
 11
1906.633804099863
 21
4785.110090843059
 31
0.0
  0
LINE
  5
474
  8
SAKUZU
  6
CONTINUOUS
 62
     1
 10
1868.633804099863
 20
4785.110090843059
 30
0.0
 11
1868.633804099863
 21
4765.110090843059
 31
0.0
  0
LINE
  5
475
  8
SAKUZU
  6
CONTINUOUS
 62
     1
 10
1862.633804099863
 20
4785.110090843059
 30
0.0
 11
1912.633804099863
 21
4785.110090843059
 31
0.0
  0
LINE
  5
476
  8
SAKUZU
  6
CONTINUOUS
 62
     1
 10
1855.633804099863
 20
4905.11009084306
 30
0.0
 11
1862.633804099863
 21
4785.110090843059
 31
0.0
  0
LINE
  5
477
  8
SAKUZU
  6
CONTINUOUS
 62
     1
 10
1919.633804099863
 20
4905.11009084306
 30
0.0
 11
1912.633804099863
 21
4785.110090843059
 31
0.0
  0
LINE
  5
478
  8
SAKUZU
  6
VW-01____
 62
     4
 10
1412.633804099863
 20
4965.11009084306
 30
0.0
 11
1482.633804099863
 21
4965.11009084306
 31
0.0
  0
LINE
  5
479
  8
SAKUZU
  6
VW-01____
 62
     4
 10
1482.633804099863
 20
4985.11009084306
 30
0.0
 11
1942.633804099863
 21
4985.11009084306
 31
0.0
  0
LINE
  5
47A
  8
SAKUZU
  6
VW-01____
 62
     4
 10
1482.633804099863
 20
4965.11009084306
 30
0.0
 11
1482.633804099863
 21
4985.11009084306
 31
0.0
  0
LINE
  5
47B
  8
SAKUZU
  6
CONTINUOUS
 62
    17
 10
-349.3263288984908
 20
5315.776716819623
 30
0.0
 11
-291.3263288984908
 21
5315.776716819623
 31
0.0
  0
LINE
  5
47C
  8
SAKUZU
  6
CONTINUOUS
 62
    17
 10
-290.3263288984908
 20
5316.776716819623
 30
0.0
 11
-290.3263288984908
 21
5434.776716819623
 31
0.0
  0
LINE
  5
47D
  8
SAKUZU
  6
CONTINUOUS
 62
    17
 10
-291.3263288984908
 20
5435.776716819623
 30
0.0
 11
-349.3263288984908
 21
5435.776716819623
 31
0.0
  0
LINE
  5
47E
  8
SAKUZU
  6
CONTINUOUS
 62
    17
 10
-350.3263288984908
 20
5434.776716819623
 30
0.0
 11
-350.3263288984908
 21
5316.776716819623
 31
0.0
  0
LINE
  5
47F
  8
SAKUZU
  6
CONTINUOUS
 62
    17
 10
-328.8263288984908
 20
5332.776716819623
 30
0.0
 11
-311.8263288984908
 21
5332.776716819623
 31
0.0
  0
LINE
  5
480
  8
SAKUZU
  6
CONTINUOUS
 62
    17
 10
-309.3263288984908
 20
5335.276716819623
 30
0.0
 11
-309.3263288984908
 21
5416.276716819623
 31
0.0
  0
LINE
  5
481
  8
SAKUZU
  6
CONTINUOUS
 62
    17
 10
-311.8263288984908
 20
5418.776716819623
 30
0.0
 11
-328.8263288984908
 21
5418.776716819623
 31
0.0
  0
LINE
  5
482
  8
SAKUZU
  6
CONTINUOUS
 62
    17
 10
-331.3263288984908
 20
5416.276716819623
 30
0.0
 11
-331.3263288984908
 21
5335.276716819623
 31
0.0
  0
ARC
  5
483
  8
SAKUZU
  6
CONTINUOUS
 62
    17
 10
-328.8263288984908
 20
5416.276716819623
 30
0.0
 40
2.5
 50
90.0
 51
180.0
  0
ARC
  5
484
  8
SAKUZU
  6
CONTINUOUS
 62
    17
 10
-311.8263288984908
 20
5416.276716819623
 30
0.0
 40
2.500000000000014
 50
359.9999938590413
 51
90.0
  0
ARC
  5
485
  8
SAKUZU
  6
CONTINUOUS
 62
    17
 10
-311.8263288984908
 20
5335.276716819623
 30
0.0
 40
2.500000000000014
 50
269.9999938590569
 51
359.9999938590413
  0
ARC
  5
486
  8
SAKUZU
  6
CONTINUOUS
 62
    17
 10
-328.8263288984908
 20
5335.276716819623
 30
0.0
 40
2.5
 50
180.0
 51
269.9999938590569
  0
ARC
  5
487
  8
SAKUZU
  6
CONTINUOUS
 62
    17
 10
-291.3263288984908
 20
5434.776716819623
 30
0.0
 40
1.0
 50
0.0
 51
90.0
  0
ARC
  5
488
  8
SAKUZU
  6
CONTINUOUS
 62
    17
 10
-291.3263288984908
 20
5316.776716819623
 30
0.0
 40
1.000000000000006
 50
269.9999938590595
 51
0.0
  0
ARC
  5
489
  8
SAKUZU
  6
CONTINUOUS
 62
    17
 10
-349.3263288984908
 20
5316.776716819623
 30
0.0
 40
1.0
 50
180.0
 51
269.9999938590595
  0
ARC
  5
48A
  8
SAKUZU
  6
CONTINUOUS
 62
    17
 10
-349.3263288984908
 20
5434.776716819623
 30
0.0
 40
1.0
 50
90.0
 51
180.0
  0
LINE
  5
48B
  8
SAKUZU
  6
CONTINUOUS
 62
    17
 10
336.6736634721165
 20
5315.776716819623
 30
0.0
 11
394.6736634721167
 21
5315.776716819623
 31
0.0
  0
LINE
  5
48C
  8
SAKUZU
  6
CONTINUOUS
 62
    17
 10
395.6736634721167
 20
5316.776716819623
 30
0.0
 11
395.6736634721167
 21
5434.776716819623
 31
0.0
  0
LINE
  5
48D
  8
SAKUZU
  6
CONTINUOUS
 62
    17
 10
394.6736634721167
 20
5435.776716819623
 30
0.0
 11
336.6736634721165
 21
5435.776716819623
 31
0.0
  0
LINE
  5
48E
  8
SAKUZU
  6
CONTINUOUS
 62
    17
 10
335.6736634721165
 20
5434.776716819623
 30
0.0
 11
335.6736634721165
 21
5316.776716819623
 31
0.0
  0
LINE
  5
48F
  8
SAKUZU
  6
CONTINUOUS
 62
    17
 10
357.1736634721166
 20
5332.776716819623
 30
0.0
 11
374.1736634721167
 21
5332.776716819623
 31
0.0
  0
LINE
  5
490
  8
SAKUZU
  6
CONTINUOUS
 62
    17
 10
376.6736634721167
 20
5335.276716819623
 30
0.0
 11
376.6736634721167
 21
5416.276716819623
 31
0.0
  0
LINE
  5
491
  8
SAKUZU
  6
CONTINUOUS
 62
    17
 10
374.1736634721167
 20
5418.776716819623
 30
0.0
 11
357.1736634721166
 21
5418.776716819623
 31
0.0
  0
LINE
  5
492
  8
SAKUZU
  6
CONTINUOUS
 62
    17
 10
354.6736634721166
 20
5416.276716819623
 30
0.0
 11
354.6736634721166
 21
5335.276716819623
 31
0.0
  0
ARC
  5
493
  8
SAKUZU
  6
CONTINUOUS
 62
    17
 10
357.1736634721166
 20
5416.276716819623
 30
0.0
 40
2.5
 50
90.0
 51
180.0
  0
ARC
  5
494
  8
SAKUZU
  6
CONTINUOUS
 62
    17
 10
374.1736634721167
 20
5416.276716819623
 30
0.0
 40
2.500000000000014
 50
359.9999938590413
 51
90.0
  0
ARC
  5
495
  8
SAKUZU
  6
CONTINUOUS
 62
    17
 10
374.1736634721167
 20
5335.276716819623
 30
0.0
 40
2.500000000000014
 50
269.9999938590569
 51
359.9999938590413
  0
ARC
  5
496
  8
SAKUZU
  6
CONTINUOUS
 62
    17
 10
357.1736634721166
 20
5335.276716819623
 30
0.0
 40
2.5
 50
180.0
 51
269.9999938590569
  0
ARC
  5
497
  8
SAKUZU
  6
CONTINUOUS
 62
    17
 10
394.6736634721167
 20
5434.776716819623
 30
0.0
 40
1.0
 50
0.0
 51
90.0
  0
ARC
  5
498
  8
SAKUZU
  6
CONTINUOUS
 62
    17
 10
394.6736634721167
 20
5316.776716819623
 30
0.0
 40
1.000000000000006
 50
269.9999938590595
 51
0.0
  0
ARC
  5
499
  8
SAKUZU
  6
CONTINUOUS
 62
    17
 10
336.6736634721165
 20
5316.776716819623
 30
0.0
 40
1.000000000000057
 50
180.0
 51
269.9999938590595
  0
ARC
  5
49A
  8
SAKUZU
  6
CONTINUOUS
 62
    17
 10
336.6736634721165
 20
5434.776716819623
 30
0.0
 40
1.0
 50
90.0
 51
180.0
  0
DIMENSION
  5
49B
  8
SAKUZU
  6
CONTINUOUS
 62
     2
  2
*D5
 10
-427.3263288984908
 20
6840.008637861433
 30
0.0
 11
22.67367110151019
 21
6856.087758739809
 31
0.0
 70
    32
  3
SPEAC
 13
472.6736711015112
 23
6640.008637861433
 33
0.0
 14
-427.3263288984908
 24
6640.008637861433
 34
0.0
  0
DIMENSION
  5
49C
  8
SAKUZU
  6
CONTINUOUS
 62
     2
  2
*D6
 10
672.6736711015112
 20
6640.008637861433
 30
0.0
 11
656.5945502231355
 21
6340.008637861433
 31
0.0
 70
    32
  3
SPEAC
 13
472.6736711015114
 23
6040.008637861433
 33
0.0
 14
472.6736711015114
 24
6640.008637861433
 34
0.0
 50
-90.0
  0
DIMENSION
  5
49D
  8
SAKUZU
  6
CONTINUOUS
 62
     2
  2
*D7
 10
572.6736711015112
 20
5615.110090843061
 30
0.0
 11
556.5945502231355
 21
5585.110090843061
 31
0.0
 70
    32
  3
SPEAC
 13
462.6736711015112
 23
5555.110090843061
 33
0.0
 14
472.6736711015114
 24
5615.110090843061
 34
0.0
 50
-90.0
  0
DIMENSION
  5
49E
  8
SAKUZU
  6
CONTINUOUS
 62
     2
  2
*D8
 10
572.6736711015112
 20
5555.110090843061
 30
0.0
 11
556.5945502231355
 21
5260.11009084306
 31
0.0
 70
    32
  3
SPEAC
 13
462.6736711015112
 23
4965.11009084306
 33
0.0
 14
462.6736711015112
 24
5555.110090843061
 34
0.0
 50
-90.0
  0
DIMENSION
  5
49F
  8
SAKUZU
  6
CONTINUOUS
 62
     2
  2
*D9
 10
572.6736711015112
 20
4965.11009084306
 30
0.0
 11
556.5945502231355
 21
4940.11009084306
 31
0.0
 70
    32
  3
SPEAC
 13
462.6736711015112
 23
4915.11009084306
 33
0.0
 14
462.6736711015112
 24
4965.11009084306
 34
0.0
 50
-90.0
  0
DIMENSION
  5
4A2
  8
SAKUZU
  6
CONTINUOUS
 62
     2
  2
*D10
 10
1202.633804099863
 20
4765.110090843059
 30
0.0
 11
1186.554683221487
 21
5190.11009084306
 31
0.0
 70
    32
  3
SPEAC
 13
1407.633804099863
 23
5615.110090843061
 33
0.0
 14
1448.633804099863
 24
4765.110090843059
 34
0.0
 50
-90.0
  0
DIMENSION
  5
4A3
  8
SAKUZU
  6
CONTINUOUS
 62
     2
  2
*D11
 10
1302.633804099863
 20
5615.110090843061
 30
0.0
 11
1286.554683221487
 21
5595.110090843061
 31
0.0
 70
    32
  3
SPEAC
 13
1402.633804099863
 23
5575.110090843061
 33
0.0
 14
1407.633804099863
 24
5615.110090843061
 34
0.0
 50
-90.0
  0
DIMENSION
  5
4A6
  8
SAKUZU
  6
CONTINUOUS
 62
     2
  2
*D12
 10
1302.633804099863
 20
4765.110090843059
 30
0.0
 11
1286.554683221487
 21
4840.11009084306
 31
0.0
 70
    32
  3
SPEAC
 13
1412.633804099863
 23
4915.11009084306
 33
0.0
 14
1448.633804099863
 24
4765.110090843059
 34
0.0
 50
-90.0
  0
POLYLINE
  5
4A7
  8
SAKUZU
  6
VW-01____
 62
     4
 66
     1
 10
0.0
 20
0.0
 30
0.0
 70
   129
  0
VERTEX
  5
4A8
  8
SAKUZU
  6
VW-01____
 62
     4
 10
-350.3263288984908
 20
5275.110090843061
 30
0.0
  0
VERTEX
  5
4A9
  8
SAKUZU
  6
VW-01____
 62
     4
 10
395.6736711015112
 20
5275.110090843061
 30
0.0
  0
VERTEX
  5
4AA
  8
SAKUZU
  6
VW-01____
 62
     4
 10
395.6736711015112
 20
5245.110090843061
 30
0.0
  0
VERTEX
  5
4AB
  8
SAKUZU
  6
VW-01____
 62
     4
 10
-350.3263288984908
 20
5245.110090843061
 30
0.0
  0
SEQEND
  5
4AC
  8
SAKUZU
  6
VW-01____
 62
     4
  0
POLYLINE
  5
4AD
  8
SAKUZU
  6
VW-01____
 62
     4
 66
     1
 10
0.0
 20
0.0
 30
0.0
 70
   129
  0
VERTEX
  5
4AE
  8
SAKUZU
  6
VW-01____
 62
     4
 10
1502.633804099863
 20
5245.110090843061
 30
0.0
  0
VERTEX
  5
4AF
  8
SAKUZU
  6
VW-01____
 62
     4
 10
1937.633804099863
 20
5245.110090843061
 30
0.0
  0
VERTEX
  5
4B0
  8
SAKUZU
  6
VW-01____
 62
     4
 10
1937.633804099863
 20
5275.110090843061
 30
0.0
  0
VERTEX
  5
4B1
  8
SAKUZU
  6
VW-01____
 62
     4
 10
1502.633804099863
 20
5275.110090843061
 30
0.0
  0
SEQEND
  5
4B2
  8
SAKUZU
  6
VW-01____
 62
     4
  0
POLYLINE
  5
4B3
  8
SAKUZU
  6
VW-01____
 62
     4
 66
     1
 10
0.0
 20
0.0
 30
0.0
 70
   129
  0
VERTEX
  5
4B4
  8
SAKUZU
  6
VW-01____
 62
     4
 10
1422.633804099863
 20
5565.110090843061
 30
0.0
  0
VERTEX
  5
4B5
  8
SAKUZU
  6
VW-01____
 62
     4
 10
1442.633804099863
 20
5565.110090843061
 30
0.0
  0
VERTEX
  5
4B6
  8
SAKUZU
  6
VW-01____
 62
     4
 10
1442.633804099863
 20
4975.11009084306
 30
0.0
  0
VERTEX
  5
4B7
  8
SAKUZU
  6
VW-01____
 62
     4
 10
1422.633804099863
 20
4975.11009084306
 30
0.0
  0
SEQEND
  5
4B8
  8
SAKUZU
  6
VW-01____
 62
     4
  0
POLYLINE
  5
4B9
  8
SAKUZU
  6
VW-01____
 62
     4
 66
     1
 10
0.0
 20
0.0
 30
0.0
 70
   129
  0
VERTEX
  5
4BA
  8
SAKUZU
  6
VW-01____
 62
     4
 10
1452.633804099863
 20
4975.11009084306
 30
0.0
  0
VERTEX
  5
4BB
  8
SAKUZU
  6
VW-01____
 62
     4
 10
1472.633804099863
 20
4975.11009084306
 30
0.0
  0
VERTEX
  5
4BC
  8
SAKUZU
  6
VW-01____
 62
     4
 10
1472.633804099863
 20
5565.110090843061
 30
0.0
  0
VERTEX
  5
4BD
  8
SAKUZU
  6
VW-01____
 62
     4
 10
1452.633804099863
 20
5565.110090843061
 30
0.0
  0
SEQEND
  5
4BE
  8
SAKUZU
  6
VW-01____
 62
     4
  0
LINE
  5
4BF
  8
SAKUZU
  6
CONTINUOUS
 62
     4
 10
472.6736711015112
 20
6580.008637861433
 30
0.0
 11
-427.3263288984908
 21
6580.008637861433
 31
0.0
  0
DIMENSION
  5
4C0
  8
SAKUZU
  6
CONTINUOUS
 62
     2
  2
*D13
 10
585.1736711015114
 20
6640.008637861433
 30
0.0
 11
569.0945502231357
 21
6610.008637861433
 31
0.0
 70
    32
  3
SPEAC
 13
472.6736711015112
 23
6580.008637861433
 33
0.0
 14
472.6736711015114
 24
6640.008637861433
 34
0.0
 50
-90.0
  0
LINE
  5
4C1
  8
SAKUZU
  6
CONTINUOUS
 62
     4
 10
1947.633804099863
 20
5765.110090843061
 30
0.0
 11
2002.633804099863
 21
5765.110090843061
 31
0.0
  0
LINE
  5
4C2
  8
SAKUZU
  6
CONTINUOUS
 62
     4
 10
1942.633804099863
 20
5760.110090843061
 30
0.0
 11
1942.633804099863
 21
5620.110090843061
 31
0.0
  0
ARC
  5
4C3
  8
SAKUZU
  6
CONTINUOUS
 62
     4
 10
1947.633804099863
 20
5760.110090843061
 30
0.0
 40
5.0
 50
90.0
 51
180.0
  0
ARC
  5
4C4
  8
SAKUZU
  6
CONTINUOUS
 62
     4
 10
1937.633804099863
 20
5620.110090843061
 30
0.0
 40
5.0
 50
270.0
 51
0.0
  0
DIMENSION
  5
4C5
  8
SAKUZU
  6
CONTINUOUS
 62
     2
  2
*D14
 10
1202.633804099863
 20
5615.110090843061
 30
0.0
 11
1186.554683221487
 21
5690.110090843061
 31
0.0
 70
    32
  3
SPEAC
 13
1947.633804099863
 23
5765.110090843061
 33
0.0
 14
1407.633804099863
 24
5615.110090843061
 34
0.0
 50
-90.0
  0
POLYLINE
  5
4C6
  8
SAKUZU
  6
CONTINUOUS
 62
     1
 66
     1
 10
0.0
 20
0.0
 30
0.0
 70
   128
  0
VERTEX
  5
4C7
  8
SAKUZU
  6
CONTINUOUS
 62
     1
 10
-427.3263288984908
 20
5615.110090843061
 30
0.0
  0
VERTEX
  5
4C8
  8
SAKUZU
  6
CONTINUOUS
 62
     1
 10
-427.3263288984908
 20
5765.110090843061
 30
0.0
  0
VERTEX
  5
4C9
  8
SAKUZU
  6
CONTINUOUS
 62
     1
 10
472.6736711015108
 20
5765.110090843061
 30
0.0
  0
VERTEX
  5
4CA
  8
SAKUZU
  6
CONTINUOUS
 62
     1
 10
472.6736711015112
 20
5615.110090843061
 30
0.0
  0
SEQEND
  5
4CB
  8
SAKUZU
  6
CONTINUOUS
 62
     1
  0
LINE
  5
4CC
  8
SAKUZU
  6
CONTINUOUS
 62
     4
 10
-427.3263288984908
 20
3620.478241760087
 30
0.0
 11
-427.3263288984908
 21
3020.478241760087
 31
0.0
  0
LINE
  5
4CD
  8
SAKUZU
  6
CONTINUOUS
 62
     4
 10
-427.3263288984908
 20
3020.478241760087
 30
0.0
 11
472.6736711015096
 21
3020.478241760087
 31
0.0
  0
LINE
  5
4CE
  8
SAKUZU
  6
CONTINUOUS
 62
     4
 10
472.6736711015096
 20
3020.478241760087
 30
0.0
 11
472.6736711015096
 21
3620.478241760087
 31
0.0
  0
LINE
  5
4CF
  8
SAKUZU
  6
CONTINUOUS
 62
     4
 10
472.6736711015096
 20
3620.478241760087
 30
0.0
 11
-427.3263288984908
 21
3620.478241760087
 31
0.0
  0
LINE
  5
4D0
  8
SAKUZU
  6
CONTINUOUS
 62
     4
 10
472.6736711015096
 20
2595.579694741714
 30
0.0
 11
472.6736711015096
 21
2555.579694741714
 31
0.0
  0
LINE
  5
4D1
  8
SAKUZU
  6
CONTINUOUS
 62
     4
 10
472.6736711015096
 20
2595.579694741714
 30
0.0
 11
-427.3263288984908
 21
2595.579694741714
 31
0.0
  0
LINE
  5
4D2
  8
SAKUZU
  6
CONTINUOUS
 62
     4
 10
-427.3263288984908
 20
2595.579694741714
 30
0.0
 11
-427.3263288984908
 21
2555.579694741714
 31
0.0
  0
LINE
  5
4D3
  8
SAKUZU
  6
CONTINUOUS
 62
     4
 10
-427.3263288984908
 20
2555.579694741714
 30
0.0
 11
472.6736711015096
 21
2555.579694741714
 31
0.0
  0
LINE
  5
4D4
  8
SAKUZU
  6
CONTINUOUS
 62
     4
 10
-417.3263288984908
 20
2555.579694741714
 30
0.0
 11
-417.3263288984908
 21
1895.579694741714
 31
0.0
  0
LINE
  5
4D5
  8
SAKUZU
  6
CONTINUOUS
 62
     4
 10
462.6736711015096
 20
1895.579694741714
 30
0.0
 11
462.6736711015096
 21
2555.579694741714
 31
0.0
  0
LINE
  5
4D6
  8
SAKUZU
  6
CONTINUOUS
 62
     4
 10
-417.3263288984908
 20
1895.579694741714
 30
0.0
 11
462.6736711015096
 21
1895.579694741714
 31
0.0
  0
LINE
  5
4D7
  8
SAKUZU
  6
CONTINUOUS
 62
     4
 10
-398.3263288984908
 20
1885.579694741714
 30
0.0
 11
-326.3263288984908
 21
1885.579694741714
 31
0.0
  0
ARC
  5
4D8
  8
SAKUZU
  6
CONTINUOUS
 62
     4
 10
-326.3263288984908
 20
1890.579694741714
 30
0.0
 40
5.000000000000028
 50
269.9999938590595
 51
0.0
  0
ARC
  5
4D9
  8
SAKUZU
  6
CONTINUOUS
 62
     4
 10
-398.3263288984908
 20
1890.579694741714
 30
0.0
 40
5.0
 50
180.0
 51
269.9999938590595
  0
LINE
  5
4DA
  8
SAKUZU
  6
CONTINUOUS
 62
     4
 10
-321.3263288984908
 20
1890.579694741714
 30
0.0
 11
-321.3263288984908
 21
1895.579694741714
 31
0.0
  0
LINE
  5
4DB
  8
SAKUZU
  6
CONTINUOUS
 62
     4
 10
-403.3263288984908
 20
1895.579694741714
 30
0.0
 11
-403.3263288984908
 21
1890.579694741714
 31
0.0
  0
LINE
  5
4DC
  8
SAKUZU
  6
CONTINUOUS
 62
     4
 10
-381.3263288984908
 20
1745.579694741714
 30
0.0
 11
-343.3263288984908
 21
1745.579694741714
 31
0.0
  0
LINE
  5
4DD
  8
SAKUZU
  6
CONTINUOUS
 62
     4
 10
-343.3263288984908
 20
1745.579694741714
 30
0.0
 11
-343.3263288984908
 21
1765.579694741714
 31
0.0
  0
LINE
  5
4DE
  8
SAKUZU
  6
CONTINUOUS
 62
     4
 10
-381.3263288984908
 20
1765.579694741714
 30
0.0
 11
-381.3263288984908
 21
1745.579694741714
 31
0.0
  0
LINE
  5
4DF
  8
SAKUZU
  6
CONTINUOUS
 62
     4
 10
-387.3263288984908
 20
1765.579694741714
 30
0.0
 11
-337.3263288984908
 21
1765.579694741714
 31
0.0
  0
LINE
  5
4E0
  8
SAKUZU
  6
CONTINUOUS
 62
     4
 10
-394.3263288984908
 20
1885.579694741714
 30
0.0
 11
-387.3263288984908
 21
1765.579694741714
 31
0.0
  0
LINE
  5
4E1
  8
SAKUZU
  6
CONTINUOUS
 62
     4
 10
-330.3263288984908
 20
1885.579694741714
 30
0.0
 11
-337.3263288984908
 21
1765.579694741714
 31
0.0
  0
LINE
  5
4E2
  8
SAKUZU
  6
CONTINUOUS
 62
     4
 10
371.6736711015096
 20
1885.579694741714
 30
0.0
 11
443.6736711015096
 21
1885.579694741714
 31
0.0
  0
ARC
  5
4E3
  8
SAKUZU
  6
CONTINUOUS
 62
     4
 10
443.6736711015096
 20
1890.579694741714
 30
0.0
 40
5.000000000000028
 50
269.9999938590595
 51
0.0
  0
ARC
  5
4E4
  8
SAKUZU
  6
CONTINUOUS
 62
     4
 10
371.6736711015096
 20
1890.579694741714
 30
0.0
 40
5.0
 50
180.0
 51
269.9999938590595
  0
LINE
  5
4E5
  8
SAKUZU
  6
CONTINUOUS
 62
     4
 10
448.6736711015096
 20
1890.579694741714
 30
0.0
 11
448.6736711015096
 21
1895.579694741714
 31
0.0
  0
LINE
  5
4E6
  8
SAKUZU
  6
CONTINUOUS
 62
     4
 10
366.6736711015096
 20
1895.579694741714
 30
0.0
 11
366.6736711015096
 21
1890.579694741714
 31
0.0
  0
LINE
  5
4E7
  8
SAKUZU
  6
CONTINUOUS
 62
     4
 10
388.6736711015096
 20
1745.579694741714
 30
0.0
 11
426.6736711015096
 21
1745.579694741714
 31
0.0
  0
LINE
  5
4E8
  8
SAKUZU
  6
CONTINUOUS
 62
     4
 10
426.6736711015096
 20
1745.579694741714
 30
0.0
 11
426.6736711015096
 21
1765.579694741714
 31
0.0
  0
LINE
  5
4E9
  8
SAKUZU
  6
CONTINUOUS
 62
     4
 10
388.6736711015096
 20
1765.579694741714
 30
0.0
 11
388.6736711015096
 21
1745.579694741714
 31
0.0
  0
LINE
  5
4EA
  8
SAKUZU
  6
CONTINUOUS
 62
     4
 10
382.6736711015096
 20
1765.579694741714
 30
0.0
 11
432.6736711015096
 21
1765.579694741714
 31
0.0
  0
LINE
  5
4EB
  8
SAKUZU
  6
CONTINUOUS
 62
     4
 10
375.6736711015096
 20
1885.579694741714
 30
0.0
 11
382.6736711015096
 21
1765.579694741714
 31
0.0
  0
LINE
  5
4EC
  8
SAKUZU
  6
CONTINUOUS
 62
     4
 10
439.6736711015096
 20
1885.579694741714
 30
0.0
 11
432.6736711015096
 21
1765.579694741714
 31
0.0
  0
LINE
  5
4ED
  8
SAKUZU
  6
CONTINUOUS
 62
     4
 10
-365.3263288984908
 20
2555.579694741714
 30
0.0
 11
-365.3263288984908
 21
1895.579694741714
 31
0.0
  0
LINE
  5
4EE
  8
SAKUZU
  6
CONTINUOUS
 62
     4
 10
410.6736711015096
 20
2555.579694741714
 30
0.0
 11
410.6736711015096
 21
1895.579694741714
 31
0.0
  0
LINE
  5
4EF
  8
SAKUZU
  6
CONTINUOUS
 62
     4
 10
-365.3263288984908
 20
1945.579694741714
 30
0.0
 11
410.6736711015096
 21
1945.579694741714
 31
0.0
  0
LINE
  5
4F0
  8
SAKUZU
  6
CONTINUOUS
 62
     4
 10
10.67367110150963
 20
1945.579694741714
 30
0.0
 11
10.67367110150963
 21
2535.579694741714
 31
0.0
  0
LINE
  5
4F1
  8
SAKUZU
  6
VW-01____
 62
     4
 10
34.67367110150963
 20
2535.579694741714
 30
0.0
 11
34.67367110150963
 21
1945.579694741714
 31
0.0
  0
LINE
  5
4F2
  8
SAKUZU
  6
CONTINUOUS
 62
     4
 10
-365.3263288984908
 20
2535.579694741714
 30
0.0
 11
410.6736711015096
 21
2535.579694741714
 31
0.0
  0
LINE
  5
4F3
  8
SAKUZU
  6
CONTINUOUS
 62
     4
 10
2002.633804099863
 20
2595.579694741714
 30
0.0
 11
2002.633804099863
 21
2555.579694741714
 31
0.0
  0
LINE
  5
4F4
  8
SAKUZU
  6
CONTINUOUS
 62
     4
 10
2002.633804099863
 20
2555.579694741714
 30
0.0
 11
1402.633804099863
 21
2555.579694741714
 31
0.0
  0
LINE
  5
4F5
  8
SAKUZU
  6
CONTINUOUS
 62
     4
 10
1402.633804099863
 20
2555.579694741714
 30
0.0
 11
1402.633804099863
 21
2590.579694741714
 31
0.0
  0
ARC
  5
4F6
  8
SAKUZU
  6
CONTINUOUS
 62
     4
 10
1407.633804099863
 20
2590.579694741714
 30
0.0
 40
5.0
 50
90.0
 51
180.0
  0
LINE
  5
4F7
  8
SAKUZU
  6
CONTINUOUS
 62
     4
 10
1407.633804099863
 20
2595.579694741714
 30
0.0
 11
2002.633804099863
 21
2595.579694741714
 31
0.0
  0
LINE
  5
4F8
  8
SAKUZU
  6
CONTINUOUS
 62
     4
 10
1412.633804099863
 20
2555.579694741714
 30
0.0
 11
1412.633804099863
 21
1895.579694741714
 31
0.0
  0
LINE
  5
4F9
  8
SAKUZU
  6
CONTINUOUS
 62
     4
 10
1942.633804099863
 20
1895.579694741714
 30
0.0
 11
1942.633804099863
 21
2555.579694741714
 31
0.0
  0
LINE
  5
4FA
  8
SAKUZU
  6
CONTINUOUS
 62
     4
 10
1412.633804099863
 20
1895.579694741714
 30
0.0
 11
1942.633804099863
 21
1895.579694741714
 31
0.0
  0
LINE
  5
4FB
  8
SAKUZU
  6
CONTINUOUS
 62
     4
 10
1431.633804099863
 20
1885.579694741714
 30
0.0
 11
1503.633804099863
 21
1885.579694741714
 31
0.0
  0
ARC
  5
4FC
  8
SAKUZU
  6
CONTINUOUS
 62
     4
 10
1503.633804099863
 20
1890.579694741714
 30
0.0
 40
5.000000000000028
 50
269.9999938590621
 51
0.0
  0
ARC
  5
4FD
  8
SAKUZU
  6
CONTINUOUS
 62
     4
 10
1431.633804099863
 20
1890.579694741714
 30
0.0
 40
5.0
 50
180.0
 51
269.9999938590621
  0
LINE
  5
4FE
  8
SAKUZU
  6
CONTINUOUS
 62
     4
 10
1508.633804099863
 20
1890.579694741714
 30
0.0
 11
1508.633804099863
 21
1895.579694741714
 31
0.0
  0
LINE
  5
4FF
  8
SAKUZU
  6
CONTINUOUS
 62
     4
 10
1426.633804099863
 20
1895.579694741714
 30
0.0
 11
1426.633804099863
 21
1890.579694741714
 31
0.0
  0
LINE
  5
500
  8
SAKUZU
  6
CONTINUOUS
 62
     4
 10
1448.633804099863
 20
1745.579694741713
 30
0.0
 11
1486.633804099863
 21
1745.579694741713
 31
0.0
  0
LINE
  5
501
  8
SAKUZU
  6
CONTINUOUS
 62
     4
 10
1486.633804099863
 20
1745.579694741713
 30
0.0
 11
1486.633804099863
 21
1765.579694741713
 31
0.0
  0
LINE
  5
502
  8
SAKUZU
  6
CONTINUOUS
 62
     4
 10
1448.633804099863
 20
1765.579694741713
 30
0.0
 11
1448.633804099863
 21
1745.579694741713
 31
0.0
  0
LINE
  5
503
  8
SAKUZU
  6
CONTINUOUS
 62
     4
 10
1442.633804099863
 20
1765.579694741713
 30
0.0
 11
1492.633804099863
 21
1765.579694741713
 31
0.0
  0
LINE
  5
504
  8
SAKUZU
  6
CONTINUOUS
 62
     4
 10
1435.633804099863
 20
1885.579694741714
 30
0.0
 11
1442.633804099863
 21
1765.579694741713
 31
0.0
  0
LINE
  5
505
  8
SAKUZU
  6
CONTINUOUS
 62
     4
 10
1499.633804099863
 20
1885.579694741714
 30
0.0
 11
1492.633804099863
 21
1765.579694741713
 31
0.0
  0
LINE
  5
506
  8
SAKUZU
  6
CONTINUOUS
 62
     4
 10
1851.633804099863
 20
1885.579694741714
 30
0.0
 11
1923.633804099863
 21
1885.579694741714
 31
0.0
  0
ARC
  5
507
  8
SAKUZU
  6
CONTINUOUS
 62
     4
 10
1923.633804099863
 20
1890.579694741714
 30
0.0
 40
5.000000000000028
 50
269.9999938590621
 51
0.0
  0
ARC
  5
508
  8
SAKUZU
  6
CONTINUOUS
 62
     4
 10
1851.633804099863
 20
1890.579694741714
 30
0.0
 40
5.0
 50
180.0
 51
269.9999938590621
  0
LINE
  5
509
  8
SAKUZU
  6
CONTINUOUS
 62
     4
 10
1928.633804099863
 20
1890.579694741714
 30
0.0
 11
1928.633804099863
 21
1895.579694741714
 31
0.0
  0
LINE
  5
50A
  8
SAKUZU
  6
CONTINUOUS
 62
     4
 10
1846.633804099863
 20
1895.579694741714
 30
0.0
 11
1846.633804099863
 21
1890.579694741714
 31
0.0
  0
LINE
  5
50B
  8
SAKUZU
  6
CONTINUOUS
 62
     4
 10
1868.633804099863
 20
1745.579694741713
 30
0.0
 11
1906.633804099863
 21
1745.579694741713
 31
0.0
  0
LINE
  5
50C
  8
SAKUZU
  6
CONTINUOUS
 62
     4
 10
1906.633804099863
 20
1745.579694741713
 30
0.0
 11
1906.633804099863
 21
1765.579694741713
 31
0.0
  0
LINE
  5
50D
  8
SAKUZU
  6
CONTINUOUS
 62
     4
 10
1868.633804099863
 20
1765.579694741713
 30
0.0
 11
1868.633804099863
 21
1745.579694741713
 31
0.0
  0
LINE
  5
50E
  8
SAKUZU
  6
CONTINUOUS
 62
     4
 10
1862.633804099863
 20
1765.579694741713
 30
0.0
 11
1912.633804099863
 21
1765.579694741713
 31
0.0
  0
LINE
  5
50F
  8
SAKUZU
  6
CONTINUOUS
 62
     4
 10
1855.633804099863
 20
1885.579694741714
 30
0.0
 11
1862.633804099863
 21
1765.579694741713
 31
0.0
  0
LINE
  5
510
  8
SAKUZU
  6
CONTINUOUS
 62
     4
 10
1919.633804099863
 20
1885.579694741714
 30
0.0
 11
1912.633804099863
 21
1765.579694741713
 31
0.0
  0
LINE
  5
511
  8
SAKUZU
  6
VW-01____
 62
     4
 10
1412.633804099863
 20
1945.579694741714
 30
0.0
 11
1482.633804099863
 21
1945.579694741714
 31
0.0
  0
LINE
  5
512
  8
SAKUZU
  6
VW-01____
 62
     4
 10
1482.633804099863
 20
1965.579694741714
 30
0.0
 11
1942.633804099863
 21
1965.579694741714
 31
0.0
  0
LINE
  5
513
  8
SAKUZU
  6
VW-01____
 62
     4
 10
1482.633804099863
 20
1945.579694741714
 30
0.0
 11
1482.633804099863
 21
1965.579694741714
 31
0.0
  0
LINE
  5
514
  8
SAKUZU
  6
CONTINUOUS
 62
    17
 10
-349.3263288984908
 20
2296.246320718276
 30
0.0
 11
-291.3263288984908
 21
2296.246320718276
 31
0.0
  0
LINE
  5
515
  8
SAKUZU
  6
CONTINUOUS
 62
    17
 10
-290.3263288984908
 20
2297.246320718276
 30
0.0
 11
-290.3263288984908
 21
2415.246320718276
 31
0.0
  0
LINE
  5
516
  8
SAKUZU
  6
CONTINUOUS
 62
    17
 10
-291.3263288984908
 20
2416.246320718276
 30
0.0
 11
-349.3263288984908
 21
2416.246320718276
 31
0.0
  0
LINE
  5
517
  8
SAKUZU
  6
CONTINUOUS
 62
    17
 10
-350.3263288984908
 20
2415.246320718276
 30
0.0
 11
-350.3263288984908
 21
2297.246320718276
 31
0.0
  0
LINE
  5
518
  8
SAKUZU
  6
CONTINUOUS
 62
    17
 10
-328.8263288984908
 20
2313.246320718276
 30
0.0
 11
-311.8263288984908
 21
2313.246320718276
 31
0.0
  0
LINE
  5
519
  8
SAKUZU
  6
CONTINUOUS
 62
    17
 10
-309.3263288984908
 20
2315.746320718276
 30
0.0
 11
-309.3263288984908
 21
2396.746320718276
 31
0.0
  0
LINE
  5
51A
  8
SAKUZU
  6
CONTINUOUS
 62
    17
 10
-311.8263288984908
 20
2399.246320718276
 30
0.0
 11
-328.8263288984908
 21
2399.246320718276
 31
0.0
  0
LINE
  5
51B
  8
SAKUZU
  6
CONTINUOUS
 62
    17
 10
-331.3263288984908
 20
2396.746320718276
 30
0.0
 11
-331.3263288984908
 21
2315.746320718276
 31
0.0
  0
ARC
  5
51C
  8
SAKUZU
  6
CONTINUOUS
 62
    17
 10
-328.8263288984908
 20
2396.746320718276
 30
0.0
 40
2.5
 50
90.0
 51
180.0
  0
ARC
  5
51D
  8
SAKUZU
  6
CONTINUOUS
 62
    17
 10
-311.8263288984908
 20
2396.746320718276
 30
0.0
 40
2.500000000000014
 50
359.9999938590621
 51
90.0
  0
ARC
  5
51E
  8
SAKUZU
  6
CONTINUOUS
 62
    17
 10
-311.8263288984908
 20
2315.746320718276
 30
0.0
 40
2.500000000000014
 50
269.9999938590595
 51
359.9999938590622
  0
ARC
  5
51F
  8
SAKUZU
  6
CONTINUOUS
 62
    17
 10
-328.8263288984908
 20
2315.746320718276
 30
0.0
 40
2.5
 50
180.0
 51
269.9999938590621
  0
ARC
  5
520
  8
SAKUZU
  6
CONTINUOUS
 62
    17
 10
-291.3263288984908
 20
2415.246320718276
 30
0.0
 40
1.0
 50
0.0
 51
90.0
  0
ARC
  5
521
  8
SAKUZU
  6
CONTINUOUS
 62
    17
 10
-291.3263288984908
 20
2297.246320718276
 30
0.0
 40
1.000000000000006
 50
269.9999938590595
 51
0.0
  0
ARC
  5
522
  8
SAKUZU
  6
CONTINUOUS
 62
    17
 10
-349.3263288984908
 20
2297.246320718276
 30
0.0
 40
1.0
 50
180.0
 51
269.9999938590595
  0
ARC
  5
523
  8
SAKUZU
  6
CONTINUOUS
 62
    17
 10
-349.3263288984908
 20
2415.246320718276
 30
0.0
 40
1.0
 50
90.0
 51
180.0
  0
LINE
  5
524
  8
SAKUZU
  6
CONTINUOUS
 62
    17
 10
336.6736634721151
 20
2296.246320718276
 30
0.0
 11
394.6736634721151
 21
2296.246320718276
 31
0.0
  0
LINE
  5
525
  8
SAKUZU
  6
CONTINUOUS
 62
    17
 10
395.6736634721151
 20
2297.246320718276
 30
0.0
 11
395.6736634721151
 21
2415.246320718276
 31
0.0
  0
LINE
  5
526
  8
SAKUZU
  6
CONTINUOUS
 62
    17
 10
394.6736634721151
 20
2416.246320718276
 30
0.0
 11
336.6736634721151
 21
2416.246320718276
 31
0.0
  0
LINE
  5
527
  8
SAKUZU
  6
CONTINUOUS
 62
    17
 10
335.6736634721151
 20
2415.246320718276
 30
0.0
 11
335.6736634721151
 21
2297.246320718276
 31
0.0
  0
LINE
  5
528
  8
SAKUZU
  6
CONTINUOUS
 62
    17
 10
357.1736634721151
 20
2313.246320718276
 30
0.0
 11
374.1736634721151
 21
2313.246320718276
 31
0.0
  0
LINE
  5
529
  8
SAKUZU
  6
CONTINUOUS
 62
    17
 10
376.6736634721151
 20
2315.746320718276
 30
0.0
 11
376.6736634721151
 21
2396.746320718276
 31
0.0
  0
LINE
  5
52A
  8
SAKUZU
  6
CONTINUOUS
 62
    17
 10
374.1736634721151
 20
2399.246320718276
 30
0.0
 11
357.1736634721151
 21
2399.246320718276
 31
0.0
  0
LINE
  5
52B
  8
SAKUZU
  6
CONTINUOUS
 62
    17
 10
354.6736634721151
 20
2396.746320718276
 30
0.0
 11
354.6736634721151
 21
2315.746320718276
 31
0.0
  0
ARC
  5
52C
  8
SAKUZU
  6
CONTINUOUS
 62
    17
 10
357.1736634721151
 20
2396.746320718276
 30
0.0
 40
2.5
 50
90.0
 51
180.0
  0
ARC
  5
52D
  8
SAKUZU
  6
CONTINUOUS
 62
    17
 10
374.1736634721151
 20
2396.746320718276
 30
0.0
 40
2.500000000000014
 50
359.9999938590621
 51
90.0
  0
ARC
  5
52E
  8
SAKUZU
  6
CONTINUOUS
 62
    17
 10
374.1736634721151
 20
2315.746320718276
 30
0.0
 40
2.500000000000014
 50
269.9999938590569
 51
359.9999938590621
  0
ARC
  5
52F
  8
SAKUZU
  6
CONTINUOUS
 62
    17
 10
357.1736634721151
 20
2315.746320718276
 30
0.0
 40
2.5
 50
180.0
 51
269.9999938590569
  0
ARC
  5
530
  8
SAKUZU
  6
CONTINUOUS
 62
    17
 10
394.6736634721151
 20
2415.246320718276
 30
0.0
 40
1.0
 50
0.0
 51
90.0
  0
ARC
  5
531
  8
SAKUZU
  6
CONTINUOUS
 62
    17
 10
394.6736634721151
 20
2297.246320718276
 30
0.0
 40
1.000000000000006
 50
269.9999938590595
 51
0.0
  0
ARC
  5
532
  8
SAKUZU
  6
CONTINUOUS
 62
    17
 10
336.6736634721151
 20
2297.246320718276
 30
0.0
 40
1.0
 50
180.0
 51
269.9999938590595
  0
ARC
  5
533
  8
SAKUZU
  6
CONTINUOUS
 62
    17
 10
336.6736634721151
 20
2415.246320718276
 30
0.0
 40
1.0
 50
90.0
 51
180.0
  0
DIMENSION
  5
534
  8
SAKUZU
  6
CONTINUOUS
 62
     2
  2
*D15
 10
-427.3263288984908
 20
3820.478241760087
 30
0.0
 11
22.6736711015094
 21
3836.557362638463
 31
0.0
 70
    32
  3
SPEAC
 13
472.6736711015096
 23
3620.478241760087
 33
0.0
 14
-427.3263288984908
 24
3620.478241760087
 34
0.0
  0
DIMENSION
  5
535
  8
SAKUZU
  6
CONTINUOUS
 62
     2
  2
*D16
 10
672.6736711015096
 20
3620.478241760087
 30
0.0
 11
656.5945502231339
 21
3320.478241760087
 31
0.0
 70
    32
  3
SPEAC
 13
472.6736711015101
 23
3020.478241760087
 33
0.0
 14
472.6736711015101
 24
3620.478241760087
 34
0.0
 50
-90.0
  0
DIMENSION
  5
536
  8
SAKUZU
  6
CONTINUOUS
 62
     2
  2
*D17
 10
572.6736711015096
 20
2595.579694741714
 30
0.0
 11
556.5945502231339
 21
2565.579694741714
 31
0.0
 70
    32
  3
SPEAC
 13
462.6736711015096
 23
2535.579694741714
 33
0.0
 14
472.6736711015101
 24
2595.579694741714
 34
0.0
 50
-90.0
  0
DIMENSION
  5
537
  8
SAKUZU
  6
CONTINUOUS
 62
     2
  2
*D18
 10
572.6736711015096
 20
2535.579694741714
 30
0.0
 11
556.5945502231339
 21
2240.579694741714
 31
0.0
 70
    32
  3
SPEAC
 13
462.6736711015096
 23
1945.579694741714
 33
0.0
 14
462.6736711015096
 24
2535.579694741714
 34
0.0
 50
-90.0
  0
DIMENSION
  5
538
  8
SAKUZU
  6
CONTINUOUS
 62
     2
  2
*D19
 10
572.6736711015096
 20
1945.579694741714
 30
0.0
 11
556.5945502231339
 21
1920.579694741714
 31
0.0
 70
    32
  3
SPEAC
 13
462.6736711015096
 23
1895.579694741714
 33
0.0
 14
462.6736711015096
 24
1945.579694741714
 34
0.0
 50
-90.0
  0
DIMENSION
  5
53B
  8
SAKUZU
  6
CONTINUOUS
 62
     2
  2
*D20
 10
1202.633804099863
 20
1745.579694741713
 30
0.0
 11
1186.554683221487
 21
2170.579694741713
 31
0.0
 70
    32
  3
SPEAC
 13
1407.633804099863
 23
2595.579694741714
 33
0.0
 14
1448.633804099863
 24
1745.579694741713
 34
0.0
 50
-90.0
  0
DIMENSION
  5
53C
  8
SAKUZU
  6
CONTINUOUS
 62
     2
  2
*D21
 10
1302.633804099863
 20
2595.579694741714
 30
0.0
 11
1286.554683221487
 21
2575.579694741714
 31
0.0
 70
    32
  3
SPEAC
 13
1402.633804099863
 23
2555.579694741714
 33
0.0
 14
1407.633804099863
 24
2595.579694741714
 34
0.0
 50
-90.0
  0
DIMENSION
  5
53F
  8
SAKUZU
  6
CONTINUOUS
 62
     2
  2
*D22
 10
1302.633804099863
 20
1745.579694741713
 30
0.0
 11
1286.554683221487
 21
1820.579694741713
 31
0.0
 70
    32
  3
SPEAC
 13
1412.633804099863
 23
1895.579694741714
 33
0.0
 14
1448.633804099863
 24
1745.579694741713
 34
0.0
 50
-90.0
  0
POLYLINE
  5
540
  8
SAKUZU
  6
VW-01____
 62
     4
 66
     1
 10
0.0
 20
0.0
 30
0.0
 70
   129
  0
VERTEX
  5
541
  8
SAKUZU
  6
VW-01____
 62
     4
 10
-350.3263288984908
 20
2255.579694741714
 30
0.0
  0
VERTEX
  5
542
  8
SAKUZU
  6
VW-01____
 62
     4
 10
395.6736711015096
 20
2255.579694741714
 30
0.0
  0
VERTEX
  5
543
  8
SAKUZU
  6
VW-01____
 62
     4
 10
395.6736711015096
 20
2225.579694741714
 30
0.0
  0
VERTEX
  5
544
  8
SAKUZU
  6
VW-01____
 62
     4
 10
-350.3263288984908
 20
2225.579694741714
 30
0.0
  0
SEQEND
  5
545
  8
SAKUZU
  6
VW-01____
 62
     4
  0
POLYLINE
  5
546
  8
SAKUZU
  6
VW-01____
 62
     4
 66
     1
 10
0.0
 20
0.0
 30
0.0
 70
   129
  0
VERTEX
  5
547
  8
SAKUZU
  6
VW-01____
 62
     4
 10
1502.633804099863
 20
2225.579694741714
 30
0.0
  0
VERTEX
  5
548
  8
SAKUZU
  6
VW-01____
 62
     4
 10
1937.633804099863
 20
2225.579694741714
 30
0.0
  0
VERTEX
  5
549
  8
SAKUZU
  6
VW-01____
 62
     4
 10
1937.633804099863
 20
2255.579694741714
 30
0.0
  0
VERTEX
  5
54A
  8
SAKUZU
  6
VW-01____
 62
     4
 10
1502.633804099863
 20
2255.579694741714
 30
0.0
  0
SEQEND
  5
54B
  8
SAKUZU
  6
VW-01____
 62
     4
  0
POLYLINE
  5
54C
  8
SAKUZU
  6
VW-01____
 62
     4
 66
     1
 10
0.0
 20
0.0
 30
0.0
 70
   129
  0
VERTEX
  5
54D
  8
SAKUZU
  6
VW-01____
 62
     4
 10
1422.633804099863
 20
2545.579694741714
 30
0.0
  0
VERTEX
  5
54E
  8
SAKUZU
  6
VW-01____
 62
     4
 10
1442.633804099863
 20
2545.579694741714
 30
0.0
  0
VERTEX
  5
54F
  8
SAKUZU
  6
VW-01____
 62
     4
 10
1442.633804099863
 20
1955.579694741714
 30
0.0
  0
VERTEX
  5
550
  8
SAKUZU
  6
VW-01____
 62
     4
 10
1422.633804099863
 20
1955.579694741714
 30
0.0
  0
SEQEND
  5
551
  8
SAKUZU
  6
VW-01____
 62
     4
  0
POLYLINE
  5
552
  8
SAKUZU
  6
VW-01____
 62
     4
 66
     1
 10
0.0
 20
0.0
 30
0.0
 70
   129
  0
VERTEX
  5
553
  8
SAKUZU
  6
VW-01____
 62
     4
 10
1452.633804099863
 20
1955.579694741714
 30
0.0
  0
VERTEX
  5
554
  8
SAKUZU
  6
VW-01____
 62
     4
 10
1472.633804099863
 20
1955.579694741714
 30
0.0
  0
VERTEX
  5
555
  8
SAKUZU
  6
VW-01____
 62
     4
 10
1472.633804099863
 20
2545.579694741714
 30
0.0
  0
VERTEX
  5
556
  8
SAKUZU
  6
VW-01____
 62
     4
 10
1452.633804099863
 20
2545.579694741714
 30
0.0
  0
SEQEND
  5
557
  8
SAKUZU
  6
VW-01____
 62
     4
  0
POLYLINE
  5
558
  8
SAKUZU
 62
     4
 66
     1
 10
0.0
 20
0.0
 30
0.0
 70
   128
  0
VERTEX
  5
559
  8
SAKUZU
 62
     4
 10
1344.044166932762
 20
2768.240193221329
 30
0.0
  0
VERTEX
  5
55A
  8
SAKUZU
 62
     4
 10
1340.444166932762
 20
2768.240193221329
 30
0.0
  0
SEQEND
  5
55B
  8
SAKUZU
 62
     4
  0
TEXT
  5
55C
  8
SAKUZU
 62
     2
 10
1288.171559309481
 20
2704.030167395303
 30
0.0
 40
31.75824175824177
  1
R5
  7
YUGOTHIC_MEDIUM
  0
LINE
  5
55D
  8
SAKUZU
  6
CONTINUOUS
 62
     2
 10
1404.09827019393
 20
2594.115228647647
 30
0.0
 11
1363.871528958403
 21
2695.579694741713
 31
0.0
  0
LINE
  5
55E
  8
SAKUZU
  6
CONTINUOUS
 62
     2
 10
1404.09827019393
 20
2594.115228647647
 30
0.0
 11
1389.985479299566
 21
2614.75085641062
 31
0.0
  0
LINE
  5
55F
  8
SAKUZU
  6
CONTINUOUS
 62
     2
 10
1404.09827019393
 20
2594.115228647647
 30
0.0
 11
1399.598860141797
 21
2618.707001848918
 31
0.0
  0
LINE
  5
560
  8
SAKUZU
  6
CONTINUOUS
 62
     2
 10
1363.871528958403
 20
2695.579694741713
 30
0.0
 11
1287.871528958403
 21
2695.579694741713
 31
0.0
  0
TEXT
  5
561
  8
SAKUZU
 62
     2
 10
1286.707093215414
 20
5720.025029590717
 30
0.0
 40
31.75824175824177
  1
R5
  7
YUGOTHIC_MEDIUM
  0
LINE
  5
562
  8
SAKUZU
  6
CONTINUOUS
 62
     2
 10
1402.633804099863
 20
5610.110090843061
 30
0.0
 11
1362.407062864336
 21
5711.574556937127
 31
0.0
  0
LINE
  5
563
  8
SAKUZU
  6
CONTINUOUS
 62
     2
 10
1402.633804099863
 20
5610.110090843061
 30
0.0
 11
1388.521013205499
 21
5630.745718606034
 31
0.0
  0
LINE
  5
564
  8
SAKUZU
  6
CONTINUOUS
 62
     2
 10
1402.633804099863
 20
5610.110090843061
 30
0.0
 11
1398.13439404773
 21
5634.701864044332
 31
0.0
  0
LINE
  5
565
  8
SAKUZU
  6
CONTINUOUS
 62
     2
 10
1362.407062864337
 20
5711.574556937127
 30
0.0
 11
1286.407062864337
 21
5711.574556937127
 31
0.0
  0
LINE
  5
566
  8
SAKUZU
  6
CONTINUOUS
 62
     2
 10
1939.704871911728
 20
5613.039023031194
 30
0.0
 11
1841.169338005795
 21
5861.574556937127
 31
0.0
  0
LINE
  5
567
  8
SAKUZU
  6
CONTINUOUS
 62
     2
 10
1942.633804099863
 20
5760.110090843061
 30
0.0
 11
1841.169338015683
 21
5861.574556927239
 31
0.0
  0
LINE
  5
568
  8
SAKUZU
  6
CONTINUOUS
 62
     2
 10
1942.633804099863
 20
5760.110090843061
 30
0.0
 11
1921.667039901227
 21
5773.726066718436
 31
0.0
  0
LINE
  5
569
  8
SAKUZU
  6
CONTINUOUS
 62
     2
 10
1942.633804099863
 20
5760.110090843061
 30
0.0
 11
1929.017828224487
 21
5781.076855041695
 31
0.0
  0
LINE
  5
56A
  8
SAKUZU
  6
CONTINUOUS
 62
     2
 10
1939.704871904884
 20
5613.039023037577
 30
0.0
 11
1925.600851454565
 21
5633.68064620866
 31
0.0
  0
LINE
  5
56B
  8
SAKUZU
  6
CONTINUOUS
 62
     2
 10
1939.704871904884
 20
5613.039023037577
 30
0.0
 11
1935.215912604239
 21
5637.632706055724
 31
0.0
  0
LINE
  5
56C
  8
SAKUZU
  6
CONTINUOUS
 62
     2
 10
1917.169338005795
 20
5861.574556937127
 30
0.0
 11
1841.169338005795
 21
5861.574556937127
 31
0.0
  0
TEXT
  5
56D
  8
SAKUZU
 62
     2
 10
1847.700037491111
 20
5874.528403090974
 30
0.0
 40
31.75824175824177
  1
R5
  7
YUGOTHIC_MEDIUM
 72
     1
 11
1879.458279249353
 21
5906.286644849216
 31
0.0
 73
     3
  0
VIEWPORT
  5
56E
 67
     1
  8
0
 10
128.5
 20
97.5
 30
0.0
 40
314.226
 41
222.18
 68
     1
 69
     1
1001
ACAD
1000
MVIEW
1002
{
1070
    16
1010
0.0
1020
0.0
1030
0.0
1010
0.0
1020
0.0
1030
1.0
1040
0.0
1040
222.18
1040
128.5
1040
97.5
1040
50.0
1040
0.0
1040
0.0
1070
     0
1070
   100
1070
     0
1070
     3
1070
     0
1070
     0
1070
     0
1070
     0
1040
0.0
1040
0.0
1040
0.0
1040
10.0
1040
10.0
1040
10.0
1040
10.0
1070
     0
1002
{
1002
}
1002
}
  0
ENDSEC
  0
EOF
