  0
SECTION
  2
HEADER
  9
$ACADVER
  1
AC1009
  9
$DWGCODEPAGE
  3
dos932
  9
$INSBASE
 10
0.0
 20
0.0
 30
0.0
  9
$EXTMIN
 10
-727.5219478817198
 20
-7438.982332613569
 30
0.0
  9
$EXTMAX
 10
1912.348277659275
 20
-254.9646329610916
 30
0.0
  9
$LIMMIN
 10
0.0
 20
0.0
  9
$LIMMAX
 10
12.0
 20
9.0
  9
$ORTHOMODE
 70
     0
  9
$REGENMODE
 70
     1
  9
$FILLMODE
 70
     1
  9
$QTEXTMODE
 70
     0
  9
$MIRRTEXT
 70
     1
  9
$DRAGMODE
 70
     2
  9
$LTSCALE
 40
12.7
  9
$OSMODE
 70
    37
  9
$ATTMODE
 70
     1
  9
$TEXTSIZE
 40
0.2
  9
$TRACEWID
 40
1.0
  9
$TEXTSTYLE
  7
STANDARD
  9
$CLAYER
  8
020
  9
$CELTYPE
  6
BYLAYER
  9
$CECOLOR
 62
   256
  9
$DIMSCALE
 40
1.0
  9
$DIMASZ
 40
0.5007446289062499
  9
$DIMEXO
 40
3.0
  9
$DIMDLI
 40
10.16
  9
$DIMRND
 40
0.0
  9
$DIMDLE
 40
0.0
  9
$DIMEXE
 40
0.0
  9
$DIMTP
 40
0.0
  9
$DIMTM
 40
0.0
  9
$DIMTXT
 40
31.86024305555555
  9
$DIMCEN
 40
0.0
  9
$DIMTSZ
 40
0.0
  9
$DIMTOL
 70
     0
  9
$DIMLIM
 70
     0
  9
$DIMTIH
 70
     0
  9
$DIMTOH
 70
     0
  9
$DIMSE1
 70
     0
  9
$DIMSE2
 70
     0
  9
$DIMTAD
 70
     1
  9
$DIMZIN
 70
     8
  9
$DIMBLK
  1
DOT
  9
$DIMASO
 70
     1
  9
$DIMSHO
 70
     1
  9
$DIMPOST
  1
<>
  9
$DIMAPOST
  1
[]
  9
$DIMALT
 70
     0
  9
$DIMALTD
 70
     3
  9
$DIMALTF
 40
0.0393700787401575
  9
$DIMLFAC
 40
1.0
  9
$DIMTOFL
 70
     1
  9
$DIMTVP
 40
0.0
  9
$DIMTIX
 70
     1
  9
$DIMSOXD
 70
     0
  9
$DIMSAH
 70
     0
  9
$DIMBLK1
  1
DOT
  9
$DIMBLK2
  1
DOT
  9
$DIMSTYLE
  2
SPEAC
  9
$DIMCLRD
 70
     0
  9
$DIMCLRE
 70
     0
  9
$DIMCLRT
 70
     0
  9
$DIMTFAC
 40
1.0
  9
$DIMGAP
 40
0.1999999992549419
  9
$LUNITS
 70
     2
  9
$LUPREC
 70
     1
  9
$SKETCHINC
 40
0.1
  9
$FILLETRAD
 40
0.5
  9
$AUNITS
 70
     0
  9
$AUPREC
 70
     2
  9
$MENU
  1
.
  9
$ELEVATION
 40
0.0
  9
$PELEVATION
 40
0.0
  9
$THICKNESS
 40
0.0
  9
$LIMCHECK
 70
     0
  9
$CHAMFERA
 40
0.0
  9
$CHAMFERB
 40
0.0
  9
$SKPOLY
 70
     0
  9
$TDCREATE
 40
2459829.598521354
  9
$TDUPDATE
 40
2459829.59853243
  9
$TDINDWG
 40
0.0000000116
  9
$TDUSRTIMER
 40
0.0000000116
  9
$USRTIMER
 70
     1
  9
$ANGBASE
 50
0.0
  9
$ANGDIR
 70
     0
  9
$PDMODE
 70
     1
  9
$PDSIZE
 40
-2.0
  9
$PLINEWID
 40
0.0
  9
$COORDS
 70
     1
  9
$SPLFRAME
 70
     0
  9
$SPLINETYPE
 70
     6
  9
$SPLINESEGS
 70
     8
  9
$ATTDIA
 70
     0
  9
$ATTREQ
 70
     1
  9
$HANDLING
 70
     1
  9
$HANDSEED
  5
581
  9
$SURFTAB1
 70
     6
  9
$SURFTAB2
 70
     6
  9
$SURFTYPE
 70
     6
  9
$SURFU
 70
     6
  9
$SURFV
 70
     6
  9
$UCSNAME
  2

  9
$UCSORG
 10
0.0
 20
0.0
 30
0.0
  9
$UCSXDIR
 10
1.0
 20
0.0
 30
0.0
  9
$UCSYDIR
 10
0.0
 20
1.0
 30
0.0
  9
$PUCSNAME
  2

  9
$PUCSORG
 10
0.0
 20
0.0
 30
0.0
  9
$PUCSXDIR
 10
1.0
 20
0.0
 30
0.0
  9
$PUCSYDIR
 10
0.0
 20
1.0
 30
0.0
  9
$USERI1
 70
     0
  9
$USERI2
 70
     0
  9
$USERI3
 70
     0
  9
$USERI4
 70
     0
  9
$USERI5
 70
     0
  9
$USERR1
 40
0.0
  9
$USERR2
 40
0.0
  9
$USERR3
 40
0.0
  9
$USERR4
 40
0.0
  9
$USERR5
 40
0.0
  9
$WORLDVIEW
 70
     1
  9
$SHADEDGE
 70
     3
  9
$SHADEDIF
 70
    70
  9
$TILEMODE
 70
     1
  9
$MAXACTVP
 70
    64
  9
$PLIMCHECK
 70
     0
  9
$PEXTMIN
 10
1.000000000000000E+20
 20
1.000000000000000E+20
 30
1.000000000000000E+20
  9
$PEXTMAX
 10
-1.000000000000000E+20
 20
-1.000000000000000E+20
 30
-1.000000000000000E+20
  9
$PLIMMIN
 10
-20.0
 20
-7.5
  9
$PLIMMAX
 10
277.0
 20
202.5
  9
$UNITMODE
 70
     0
  9
$VISRETAIN
 70
     1
  9
$PLINEGEN
 70
     0
  9
$PSLTSCALE
 70
     1
  0
ENDSEC
  0
SECTION
  2
TABLES
  0
TABLE
  2
VPORT
 70
     1
  0
VPORT
  2
*ACTIVE
 70
     0
 10
0.0
 20
0.0
 11
1.0
 21
1.0
 12
592.4131648887774
 22
-3846.97348278733
 13
0.0
 23
0.0
 14
0.5
 24
0.5
 15
0.5
 25
0.5
 16
0.0
 26
0.0
 36
1.0
 17
0.0
 27
0.0
 37
0.0
 40
7184.017699652478
 41
0.3674643264963972
 42
2000.0
 43
0.0
 44
0.0
 50
0.0
 51
0.0
 71
     0
 72
   100
 73
     1
 74
     3
 75
     0
 76
     0
 77
     0
 78
     0
  0
ENDTAB
  0
TABLE
  2
LTYPE
 70
   198
  0
LTYPE
  2
CONTINUOUS
 70
     0
  3
Solid line
 72
    65
 73
     0
 40
0.0
  0
LTYPE
  2
ISO-04______
 70
     0
  3

 72
    65
 73
     4
 40
0.48
 49
0.48
 49
-0.0600000000000001
 49
0.01
 49
-0.0600000000000001
  0
LTYPE
  2
ISO-02___
 70
     0
  3

 72
    65
 73
     2
 40
0.24
 49
0.24
 49
-0.06
  0
LTYPE
  2
AI-LINETYPE-180
 70
     0
  3

 72
    65
 73
     2
 40
2.462962962847222
 49
0.462962962847222
 49
-2.222222309969844
  0
LTYPE
  2
AI-LINETYPE-179
 70
     0
  3

 72
    65
 73
     2
 40
2.462962962847222
 49
0.462962962847222
 49
-2.222222309969844
  0
LTYPE
  2
AI-LINETYPE-178
 70
     0
  3

 72
    65
 73
     2
 40
2.462962962847222
 49
0.462962962847222
 49
-2.222222309969844
  0
LTYPE
  2
AI-LINETYPE-177
 70
     0
  3

 72
    65
 73
     2
 40
2.462962962847222
 49
0.462962962847222
 49
-2.222222309969844
  0
LTYPE
  2
AI-LINETYPE-176
 70
     0
  3

 72
    65
 73
     2
 40
2.462962962847222
 49
0.462962962847222
 49
-2.222222309969844
  0
LTYPE
  2
AI-LINETYPE-175
 70
     0
  3

 72
    65
 73
     2
 40
2.462962962847222
 49
0.462962962847222
 49
-2.222222309969844
  0
LTYPE
  2
AI-LINETYPE-174
 70
     0
  3

 72
    65
 73
     2
 40
2.462962962847222
 49
0.462962962847222
 49
-2.222222309969844
  0
LTYPE
  2
AI-LINETYPE-173
 70
     0
  3

 72
    65
 73
     2
 40
2.462962962847222
 49
0.462962962847222
 49
-2.222222309969844
  0
LTYPE
  2
AI-LINETYPE-172
 70
     0
  3

 72
    65
 73
     2
 40
0.462962962847222
 49
0.462962962847222
 49
-1.851851851388889
  0
LTYPE
  2
AI-LINETYPE-171
 70
     0
  3

 72
    65
 73
     2
 40
2.462962962847222
 49
0.462962962847222
 49
-2.222222309969844
  0
LTYPE
  2
AI-LINETYPE-170
 70
     0
  3

 72
    65
 73
     2
 40
2.462962962847222
 49
0.462962962847222
 49
-2.222222309969844
  0
LTYPE
  2
AI-LINETYPE-169
 70
     0
  3

 72
    65
 73
     2
 40
2.462962962847222
 49
0.462962962847222
 49
-2.222222309969844
  0
LTYPE
  2
AI-LINETYPE-168
 70
     0
  3

 72
    65
 73
     2
 40
2.462962962847222
 49
0.462962962847222
 49
-2.222222309969844
  0
LTYPE
  2
AI-LINETYPE-167
 70
     0
  3

 72
    65
 73
     2
 40
2.462962962847222
 49
0.462962962847222
 49
-2.222222309969844
  0
LTYPE
  2
AI-LINETYPE-166
 70
     0
  3

 72
    65
 73
     2
 40
2.462962962847222
 49
0.462962962847222
 49
-2.222222309969844
  0
LTYPE
  2
AI-LINETYPE-165
 70
     0
  3

 72
    65
 73
     2
 40
2.462962962847222
 49
0.462962962847222
 49
-2.222222309969844
  0
LTYPE
  2
AI-LINETYPE-164
 70
     0
  3

 72
    65
 73
     2
 40
2.462962962847222
 49
0.462962962847222
 49
-2.222222309969844
  0
LTYPE
  2
AI-LINETYPE-163
 70
     0
  3

 72
    65
 73
     2
 40
2.462962962847222
 49
0.462962962847222
 49
-2.222222309969844
  0
LTYPE
  2
AI-LINETYPE-162
 70
     0
  3

 72
    65
 73
     2
 40
2.462962962847222
 49
0.462962962847222
 49
-2.222222309969844
  0
LTYPE
  2
AI-LINETYPE-161
 70
     0
  3

 72
    65
 73
     2
 40
2.462962962847222
 49
0.462962962847222
 49
-2.222222309969844
  0
LTYPE
  2
AI-LINETYPE-160
 70
     0
  3

 72
    65
 73
     2
 40
2.462962962847222
 49
0.462962962847222
 49
-2.222222309969844
  0
LTYPE
  2
AI-LINETYPE-159
 70
     0
  3

 72
    65
 73
     2
 40
2.462962962847222
 49
0.462962962847222
 49
-2.222222309969844
  0
LTYPE
  2
AI-LINETYPE-158
 70
     0
  3

 72
    65
 73
     2
 40
0.462962962847222
 49
0.462962962847222
 49
-1.851851851388889
  0
LTYPE
  2
AI-LINETYPE-157
 70
     0
  3

 72
    65
 73
     2
 40
2.462962962847222
 49
0.462962962847222
 49
-2.222222309969844
  0
LTYPE
  2
AI-LINETYPE-156
 70
     0
  3

 72
    65
 73
     2
 40
2.462962962847222
 49
0.462962962847222
 49
-2.222222309969844
  0
LTYPE
  2
AI-LINETYPE-155
 70
     0
  3

 72
    65
 73
     2
 40
2.462962962847222
 49
0.462962962847222
 49
-2.222222309969844
  0
LTYPE
  2
AI-LINETYPE-154
 70
     0
  3

 72
    65
 73
     2
 40
2.462962962847222
 49
0.462962962847222
 49
-2.222222309969844
  0
LTYPE
  2
AI-LINETYPE-153
 70
     0
  3

 72
    65
 73
     2
 40
2.462962962847222
 49
0.462962962847222
 49
-2.222222309969844
  0
LTYPE
  2
ISO-08_____
 70
     0
  3

 72
    65
 73
     4
 40
0.48
 49
0.48
 49
-0.0600000000000001
 49
0.12
 49
-0.0599999999999999
  0
LTYPE
  2
ISO-10______
 70
     0
  3

 72
    65
 73
     4
 40
0.24
 49
0.24
 49
-0.06
 49
0.01
 49
-0.06
  0
LTYPE
  2
VW-01____
 70
     0
  3

 72
    65
 73
     2
 40
0.083312
 49
0.083312
 49
-0.083312
  0
LTYPE
  2
AI-LINETYPE-152
 70
     0
  3

 72
    65
 73
     2
 40
1.333333385981906
 49
1.333333385981906
 49
-1.333333385981906
  0
LTYPE
  2
AI-LINETYPE-151
 70
     0
  3

 72
    65
 73
     2
 40
1.333333385981906
 49
1.333333385981906
 49
-1.333333385981906
  0
LTYPE
  2
AI-LINETYPE-150
 70
     0
  3

 72
    65
 73
     2
 40
1.333333385981906
 49
1.333333385981906
 49
-1.333333385981906
  0
LTYPE
  2
AI-LINETYPE-149
 70
     0
  3

 72
    65
 73
     2
 40
1.333333385981906
 49
1.333333385981906
 49
-1.333333385981906
  0
LTYPE
  2
AI-LINETYPE-148
 70
     0
  3

 72
    65
 73
     2
 40
1.333333385981906
 49
1.333333385981906
 49
-1.333333385981906
  0
LTYPE
  2
AI-LINETYPE-147
 70
     0
  3

 72
    65
 73
     2
 40
1.333333385981906
 49
1.333333385981906
 49
-1.333333385981906
  0
LTYPE
  2
AI-LINETYPE-146
 70
     0
  3

 72
    65
 73
     2
 40
1.333333385981906
 49
1.333333385981906
 49
-1.333333385981906
  0
LTYPE
  2
AI-LINETYPE-145
 70
     0
  3

 72
    65
 73
     2
 40
1.333333385981906
 49
1.333333385981906
 49
-1.333333385981906
  0
LTYPE
  2
AI-LINETYPE-144
 70
     0
  3

 72
    65
 73
     2
 40
5.333333332500001
 49
3.3333333325
 49
-3.3333333325
  0
LTYPE
  2
AI-LINETYPE-143
 70
     0
  3

 72
    65
 73
     2
 40
5.333333332500001
 49
3.3333333325
 49
-3.3333333325
  0
LTYPE
  2
AI-LINETYPE-142
 70
     0
  3

 72
    65
 73
     2
 40
5.333333332500001
 49
3.3333333325
 49
-3.3333333325
  0
LTYPE
  2
AI-LINETYPE-141
 70
     0
  3

 72
    65
 73
     2
 40
5.333333332500001
 49
3.3333333325
 49
-3.3333333325
  0
LTYPE
  2
AI-LINETYPE-140
 70
     0
  3

 72
    65
 73
     2
 40
5.333333332500001
 49
3.3333333325
 49
-3.3333333325
  0
LTYPE
  2
AI-LINETYPE-139
 70
     0
  3

 72
    65
 73
     2
 40
5.333333332500001
 49
3.3333333325
 49
-3.3333333325
  0
LTYPE
  2
AI-LINETYPE-138
 70
     0
  3

 72
    65
 73
     2
 40
5.333333332500001
 49
3.3333333325
 49
-3.3333333325
  0
LTYPE
  2
AI-LINETYPE-137
 70
     0
  3

 72
    65
 73
     2
 40
5.333333332500001
 49
3.3333333325
 49
-3.3333333325
  0
LTYPE
  2
AI-LINETYPE-136
 70
     0
  3

 72
    65
 73
     2
 40
5.333333332500001
 49
3.3333333325
 49
-3.3333333325
  0
LTYPE
  2
AI-LINETYPE-135
 70
     0
  3

 72
    65
 73
     2
 40
5.333333332500001
 49
3.3333333325
 49
-3.3333333325
  0
LTYPE
  2
AI-LINETYPE-134
 70
     0
  3

 72
    65
 73
     2
 40
5.333333332500001
 49
3.3333333325
 49
-3.3333333325
  0
LTYPE
  2
AI-LINETYPE-133
 70
     0
  3

 72
    65
 73
     2
 40
5.333333332500001
 49
3.3333333325
 49
-3.3333333325
  0
LTYPE
  2
AI-LINETYPE-132
 70
     0
  3

 72
    65
 73
     2
 40
5.333333332500001
 49
3.3333333325
 49
-3.3333333325
  0
LTYPE
  2
AI-LINETYPE-131
 70
     0
  3

 72
    65
 73
     2
 40
5.333333332500001
 49
3.3333333325
 49
-3.3333333325
  0
LTYPE
  2
AI-LINETYPE-130
 70
     0
  3

 72
    65
 73
     2
 40
5.333333332500001
 49
3.3333333325
 49
-3.3333333325
  0
LTYPE
  2
AI-LINETYPE-129
 70
     0
  3

 72
    65
 73
     2
 40
5.333333332500001
 49
3.3333333325
 49
-3.3333333325
  0
LTYPE
  2
AI-LINETYPE-128
 70
     0
  3

 72
    65
 73
     2
 40
5.333333332500001
 49
3.3333333325
 49
-3.3333333325
  0
LTYPE
  2
AI-LINETYPE-127
 70
     0
  3

 72
    65
 73
     2
 40
5.333333332500001
 49
3.3333333325
 49
-3.3333333325
  0
LTYPE
  2
AI-LINETYPE-126
 70
     0
  3

 72
    65
 73
     2
 40
5.333333332500001
 49
3.3333333325
 49
-3.3333333325
  0
LTYPE
  2
AI-LINETYPE-125
 70
     0
  3

 72
    65
 73
     2
 40
5.333333332500001
 49
3.3333333325
 49
-3.3333333325
  0
LTYPE
  2
AI-LINETYPE-124
 70
     0
  3

 72
    65
 73
     2
 40
5.333333332500001
 49
3.3333333325
 49
-3.3333333325
  0
LTYPE
  2
AI-LINETYPE-123
 70
     0
  3

 72
    65
 73
     2
 40
5.333333332500001
 49
3.3333333325
 49
-3.3333333325
  0
LTYPE
  2
AI-LINETYPE-122
 70
     0
  3

 72
    65
 73
     2
 40
5.333333332500001
 49
3.3333333325
 49
-3.3333333325
  0
LTYPE
  2
AI-LINETYPE-121
 70
     0
  3

 72
    65
 73
     2
 40
5.333333332500001
 49
3.3333333325
 49
-3.3333333325
  0
LTYPE
  2
AI-LINETYPE-120
 70
     0
  3

 72
    65
 73
     2
 40
5.333333332500001
 49
3.3333333325
 49
-3.3333333325
  0
LTYPE
  2
AI-LINETYPE-119
 70
     0
  3

 72
    65
 73
     2
 40
5.333333332500001
 49
3.3333333325
 49
-3.3333333325
  0
LTYPE
  2
AI-LINETYPE-118
 70
     0
  3

 72
    65
 73
     2
 40
5.333333332500001
 49
3.3333333325
 49
-3.3333333325
  0
LTYPE
  2
AI-LINETYPE-117
 70
     0
  3

 72
    65
 73
     2
 40
5.333333332500001
 49
3.3333333325
 49
-3.3333333325
  0
LTYPE
  2
AI-LINETYPE-116
 70
     0
  3

 72
    65
 73
     2
 40
5.333333332500001
 49
3.3333333325
 49
-3.3333333325
  0
LTYPE
  2
AI-LINETYPE-115
 70
     0
  3

 72
    65
 73
     2
 40
5.333333332500001
 49
3.3333333325
 49
-3.3333333325
  0
LTYPE
  2
AI-LINETYPE-114
 70
     0
  3

 72
    65
 73
     2
 40
5.333333332500001
 49
3.3333333325
 49
-3.3333333325
  0
LTYPE
  2
AI-LINETYPE-113
 70
     0
  3

 72
    65
 73
     2
 40
5.333333332500001
 49
3.3333333325
 49
-3.3333333325
  0
LTYPE
  2
AI-LINETYPE-112
 70
     0
  3

 72
    65
 73
     2
 40
5.333333332500001
 49
3.3333333325
 49
-3.3333333325
  0
LTYPE
  2
AI-LINETYPE-111
 70
     0
  3

 72
    65
 73
     2
 40
5.333333332500001
 49
3.3333333325
 49
-3.3333333325
  0
LTYPE
  2
AI-LINETYPE-110
 70
     0
  3

 72
    65
 73
     2
 40
5.333333332500001
 49
3.3333333325
 49
-3.3333333325
  0
LTYPE
  2
AI-LINETYPE-109
 70
     0
  3

 72
    65
 73
     2
 40
5.333333332500001
 49
3.3333333325
 49
-3.3333333325
  0
LTYPE
  2
AI-LINETYPE-108
 70
     0
  3

 72
    65
 73
     2
 40
5.333333332500001
 49
3.3333333325
 49
-3.3333333325
  0
LTYPE
  2
AI-LINETYPE-107
 70
     0
  3

 72
    65
 73
     2
 40
5.333333332500001
 49
3.3333333325
 49
-3.3333333325
  0
LTYPE
  2
AI-LINETYPE-106
 70
     0
  3

 72
    65
 73
     2
 40
5.333333332500001
 49
3.3333333325
 49
-3.3333333325
  0
LTYPE
  2
AI-LINETYPE-105
 70
     0
  3

 72
    65
 73
     2
 40
5.333333332500001
 49
3.3333333325
 49
-3.3333333325
  0
LTYPE
  2
AI-LINETYPE-104
 70
     0
  3

 72
    65
 73
     2
 40
5.333333332500001
 49
3.3333333325
 49
-3.3333333325
  0
LTYPE
  2
AI-LINETYPE-103
 70
     0
  3

 72
    65
 73
     2
 40
5.333333332500001
 49
3.3333333325
 49
-3.3333333325
  0
LTYPE
  2
AI-LINETYPE-102
 70
     0
  3

 72
    65
 73
     2
 40
5.333333332500001
 49
3.3333333325
 49
-3.3333333325
  0
LTYPE
  2
AI-LINETYPE-101
 70
     0
  3

 72
    65
 73
     2
 40
5.333333332500001
 49
3.3333333325
 49
-3.3333333325
  0
LTYPE
  2
AI-LINETYPE-100
 70
     0
  3

 72
    65
 73
     2
 40
5.333333332500001
 49
3.3333333325
 49
-3.3333333325
  0
LTYPE
  2
AI-LINETYPE-99
 70
     0
  3

 72
    65
 73
     2
 40
5.333333332500001
 49
3.3333333325
 49
-3.3333333325
  0
LTYPE
  2
AI-LINETYPE-98
 70
     0
  3

 72
    65
 73
     2
 40
5.333333332500001
 49
3.3333333325
 49
-3.3333333325
  0
LTYPE
  2
AI-LINETYPE-97
 70
     0
  3

 72
    65
 73
     2
 40
5.333333332500001
 49
3.3333333325
 49
-3.3333333325
  0
LTYPE
  2
AI-LINETYPE-96
 70
     0
  3

 72
    65
 73
     2
 40
5.333333332500001
 49
3.3333333325
 49
-3.3333333325
  0
LTYPE
  2
AI-LINETYPE-95
 70
     0
  3

 72
    65
 73
     2
 40
5.333333332500001
 49
3.3333333325
 49
-3.3333333325
  0
LTYPE
  2
AI-LINETYPE-94
 70
     0
  3

 72
    65
 73
     2
 40
5.333333332500001
 49
3.3333333325
 49
-3.3333333325
  0
LTYPE
  2
AI-LINETYPE-93
 70
     0
  3

 72
    65
 73
     2
 40
5.333333332500001
 49
3.3333333325
 49
-3.3333333325
  0
LTYPE
  2
AI-LINETYPE-92
 70
     0
  3

 72
    65
 73
     2
 40
5.333333332500001
 49
3.3333333325
 49
-3.3333333325
  0
LTYPE
  2
AI-LINETYPE-91
 70
     0
  3

 72
    65
 73
     2
 40
5.333333332500001
 49
3.3333333325
 49
-3.3333333325
  0
LTYPE
  2
AI-LINETYPE-90
 70
     0
  3

 72
    65
 73
     2
 40
5.333333332500001
 49
3.3333333325
 49
-3.3333333325
  0
LTYPE
  2
AI-LINETYPE-89
 70
     0
  3

 72
    65
 73
     2
 40
5.333333332500001
 49
3.3333333325
 49
-3.3333333325
  0
LTYPE
  2
AI-LINETYPE-88
 70
     0
  3

 72
    65
 73
     2
 40
5.333333332500001
 49
3.3333333325
 49
-3.3333333325
  0
LTYPE
  2
AI-LINETYPE-87
 70
     0
  3

 72
    65
 73
     2
 40
5.333333332500001
 49
3.3333333325
 49
-3.3333333325
  0
LTYPE
  2
AI-LINETYPE-86
 70
     0
  3

 72
    65
 73
     2
 40
5.333333332500001
 49
3.3333333325
 49
-3.3333333325
  0
LTYPE
  2
AI-LINETYPE-85
 70
     0
  3

 72
    65
 73
     2
 40
5.333333332500001
 49
3.3333333325
 49
-3.3333333325
  0
LTYPE
  2
AI-LINETYPE-84
 70
     0
  3

 72
    65
 73
     2
 40
5.333333332500001
 49
3.3333333325
 49
-3.3333333325
  0
LTYPE
  2
AI-LINETYPE-83
 70
     0
  3

 72
    65
 73
     2
 40
5.333333332500001
 49
3.3333333325
 49
-3.3333333325
  0
LTYPE
  2
AI-LINETYPE-82
 70
     0
  3

 72
    65
 73
     2
 40
5.333333332500001
 49
3.3333333325
 49
-3.3333333325
  0
LTYPE
  2
AI-LINETYPE-81
 70
     0
  3

 72
    65
 73
     2
 40
5.333333332500001
 49
3.3333333325
 49
-3.3333333325
  0
LTYPE
  2
AI-LINETYPE-80
 70
     0
  3

 72
    65
 73
     2
 40
5.333333332500001
 49
3.3333333325
 49
-3.3333333325
  0
LTYPE
  2
AI-LINETYPE-79
 70
     0
  3

 72
    65
 73
     2
 40
5.333333332500001
 49
3.3333333325
 49
-3.3333333325
  0
LTYPE
  2
AI-LINETYPE-78
 70
     0
  3

 72
    65
 73
     2
 40
5.333333332500001
 49
3.3333333325
 49
-3.3333333325
  0
LTYPE
  2
AI-LINETYPE-77
 70
     0
  3

 72
    65
 73
     2
 40
5.333333332500001
 49
3.3333333325
 49
-3.3333333325
  0
LTYPE
  2
AI-LINETYPE-76
 70
     0
  3

 72
    65
 73
     2
 40
5.333333332500001
 49
3.3333333325
 49
-3.3333333325
  0
LTYPE
  2
AI-LINETYPE-75
 70
     0
  3

 72
    65
 73
     2
 40
5.333333332500001
 49
3.3333333325
 49
-3.3333333325
  0
LTYPE
  2
AI-LINETYPE-74
 70
     0
  3

 72
    65
 73
     2
 40
5.333333332500001
 49
3.3333333325
 49
-3.3333333325
  0
LTYPE
  2
AI-LINETYPE-73
 70
     0
  3

 72
    65
 73
     2
 40
5.333333332500001
 49
3.3333333325
 49
-3.3333333325
  0
LTYPE
  2
AI-LINETYPE-72
 70
     0
  3

 72
    65
 73
     2
 40
5.333333332500001
 49
3.3333333325
 49
-3.3333333325
  0
LTYPE
  2
AI-LINETYPE-71
 70
     0
  3

 72
    65
 73
     2
 40
5.333333332500001
 49
3.3333333325
 49
-3.3333333325
  0
LTYPE
  2
AI-LINETYPE-70
 70
     0
  3

 72
    65
 73
     2
 40
5.333333332500001
 49
3.3333333325
 49
-3.3333333325
  0
LTYPE
  2
AI-LINETYPE-69
 70
     0
  3

 72
    65
 73
     2
 40
5.333333332500001
 49
3.3333333325
 49
-3.3333333325
  0
LTYPE
  2
AI-LINETYPE-68
 70
     0
  3

 72
    65
 73
     2
 40
5.333333332500001
 49
3.3333333325
 49
-3.3333333325
  0
LTYPE
  2
AI-LINETYPE-67
 70
     0
  3

 72
    65
 73
     2
 40
5.333333332500001
 49
3.3333333325
 49
-3.3333333325
  0
LTYPE
  2
AI-LINETYPE-66
 70
     0
  3

 72
    65
 73
     2
 40
5.333333332500001
 49
3.3333333325
 49
-3.3333333325
  0
LTYPE
  2
AI-LINETYPE-65
 70
     0
  3

 72
    65
 73
     2
 40
5.333333332500001
 49
3.3333333325
 49
-3.3333333325
  0
LTYPE
  2
AI-LINETYPE-64
 70
     0
  3

 72
    65
 73
     2
 40
5.333333332500001
 49
3.3333333325
 49
-3.3333333325
  0
LTYPE
  2
AI-LINETYPE-63
 70
     0
  3

 72
    65
 73
     2
 40
5.333333332500001
 49
3.3333333325
 49
-3.3333333325
  0
LTYPE
  2
AI-LINETYPE-62
 70
     0
  3

 72
    65
 73
     2
 40
5.333333332500001
 49
3.3333333325
 49
-3.3333333325
  0
LTYPE
  2
AI-LINETYPE-61
 70
     0
  3

 72
    65
 73
     2
 40
5.333333332500001
 49
3.3333333325
 49
-3.3333333325
  0
LTYPE
  2
AI-LINETYPE-60
 70
     0
  3

 72
    65
 73
     2
 40
5.333333332500001
 49
3.3333333325
 49
-3.3333333325
  0
LTYPE
  2
AI-LINETYPE-59
 70
     0
  3

 72
    65
 73
     2
 40
5.333333332500001
 49
3.3333333325
 49
-3.3333333325
  0
LTYPE
  2
AI-LINETYPE-58
 70
     0
  3

 72
    65
 73
     2
 40
5.333333332500001
 49
3.3333333325
 49
-3.3333333325
  0
LTYPE
  2
AI-LINETYPE-57
 70
     0
  3

 72
    65
 73
     2
 40
5.333333332500001
 49
3.3333333325
 49
-3.3333333325
  0
LTYPE
  2
AI-LINETYPE-56
 70
     0
  3

 72
    65
 73
     2
 40
5.333333332500001
 49
3.3333333325
 49
-3.3333333325
  0
LTYPE
  2
AI-LINETYPE-55
 70
     0
  3

 72
    65
 73
     2
 40
5.333333332500001
 49
3.3333333325
 49
-3.3333333325
  0
LTYPE
  2
AI-LINETYPE-54
 70
     0
  3

 72
    65
 73
     2
 40
5.333333332500001
 49
3.3333333325
 49
-3.3333333325
  0
LTYPE
  2
AI-LINETYPE-53
 70
     0
  3

 72
    65
 73
     2
 40
5.333333332500001
 49
3.3333333325
 49
-3.3333333325
  0
LTYPE
  2
AI-LINETYPE-52
 70
     0
  3

 72
    65
 73
     2
 40
5.333333332500001
 49
3.3333333325
 49
-3.3333333325
  0
LTYPE
  2
AI-LINETYPE-51
 70
     0
  3

 72
    65
 73
     2
 40
5.333333332500001
 49
3.3333333325
 49
-3.3333333325
  0
LTYPE
  2
AI-LINETYPE-50
 70
     0
  3

 72
    65
 73
     2
 40
5.333333332500001
 49
3.3333333325
 49
-3.3333333325
  0
LTYPE
  2
AI-LINETYPE-49
 70
     0
  3

 72
    65
 73
     2
 40
5.333333332500001
 49
3.3333333325
 49
-3.3333333325
  0
LTYPE
  2
AI-LINETYPE-48
 70
     0
  3

 72
    65
 73
     2
 40
5.333333332500001
 49
3.3333333325
 49
-3.3333333325
  0
LTYPE
  2
AI-LINETYPE-47
 70
     0
  3

 72
    65
 73
     2
 40
5.333333332500001
 49
3.3333333325
 49
-3.3333333325
  0
LTYPE
  2
AI-LINETYPE-46
 70
     0
  3

 72
    65
 73
     2
 40
5.333333332500001
 49
3.3333333325
 49
-3.3333333325
  0
LTYPE
  2
AI-LINETYPE-45
 70
     0
  3

 72
    65
 73
     2
 40
5.333333332500001
 49
3.3333333325
 49
-3.3333333325
  0
LTYPE
  2
AI-LINETYPE-44
 70
     0
  3

 72
    65
 73
     2
 40
5.333333332500001
 49
3.3333333325
 49
-3.3333333325
  0
LTYPE
  2
AI-LINETYPE-43
 70
     0
  3

 72
    65
 73
     2
 40
5.333333332500001
 49
3.3333333325
 49
-3.3333333325
  0
LTYPE
  2
AI-LINETYPE-42
 70
     0
  3

 72
    65
 73
     2
 40
5.333333332500001
 49
3.3333333325
 49
-3.3333333325
  0
LTYPE
  2
AI-LINETYPE-41
 70
     0
  3

 72
    65
 73
     2
 40
5.333333332500001
 49
3.3333333325
 49
-3.3333333325
  0
LTYPE
  2
AI-LINETYPE-40
 70
     0
  3

 72
    65
 73
     2
 40
5.333333332500001
 49
3.3333333325
 49
-3.3333333325
  0
LTYPE
  2
AI-LINETYPE-39
 70
     0
  3

 72
    65
 73
     2
 40
5.333333332500001
 49
3.3333333325
 49
-3.3333333325
  0
LTYPE
  2
AI-LINETYPE-38
 70
     0
  3

 72
    65
 73
     2
 40
5.333333332500001
 49
3.3333333325
 49
-3.3333333325
  0
LTYPE
  2
AI-LINETYPE-37
 70
     0
  3

 72
    65
 73
     2
 40
5.333333332500001
 49
3.3333333325
 49
-3.3333333325
  0
LTYPE
  2
AI-LINETYPE-36
 70
     0
  3

 72
    65
 73
     2
 40
5.333333332500001
 49
3.3333333325
 49
-3.3333333325
  0
LTYPE
  2
AI-LINETYPE-35
 70
     0
  3

 72
    65
 73
     2
 40
5.333333332500001
 49
3.3333333325
 49
-3.3333333325
  0
LTYPE
  2
AI-LINETYPE-34
 70
     0
  3

 72
    65
 73
     2
 40
5.333333332500001
 49
3.3333333325
 49
-3.3333333325
  0
LTYPE
  2
AI-LINETYPE-33
 70
     0
  3

 72
    65
 73
     2
 40
5.333333332500001
 49
3.3333333325
 49
-3.3333333325
  0
LTYPE
  2
AI-LINETYPE-32
 70
     0
  3

 72
    65
 73
     2
 40
5.333333332500001
 49
3.3333333325
 49
-3.3333333325
  0
LTYPE
  2
AI-LINETYPE-31
 70
     0
  3

 72
    65
 73
     2
 40
5.333333332500001
 49
3.3333333325
 49
-3.3333333325
  0
LTYPE
  2
AI-LINETYPE-30
 70
     0
  3

 72
    65
 73
     2
 40
5.333333332500001
 49
3.3333333325
 49
-3.3333333325
  0
LTYPE
  2
AI-LINETYPE-29
 70
     0
  3

 72
    65
 73
     2
 40
5.333333332500001
 49
3.3333333325
 49
-3.3333333325
  0
LTYPE
  2
AI-LINETYPE-28
 70
     0
  3

 72
    65
 73
     2
 40
5.333333332500001
 49
3.3333333325
 49
-3.3333333325
  0
LTYPE
  2
AI-LINETYPE-27
 70
     0
  3

 72
    65
 73
     2
 40
5.333333332500001
 49
3.3333333325
 49
-3.3333333325
  0
LTYPE
  2
AI-LINETYPE-26
 70
     0
  3

 72
    65
 73
     2
 40
5.333333332500001
 49
3.3333333325
 49
-3.3333333325
  0
LTYPE
  2
AI-LINETYPE-25
 70
     0
  3

 72
    65
 73
     2
 40
5.333333332500001
 49
3.3333333325
 49
-3.3333333325
  0
LTYPE
  2
AI-LINETYPE-24
 70
     0
  3

 72
    65
 73
     2
 40
5.333333332500001
 49
3.3333333325
 49
-3.3333333325
  0
LTYPE
  2
AI-LINETYPE-23
 70
     0
  3

 72
    65
 73
     2
 40
5.333333332500001
 49
3.3333333325
 49
-3.3333333325
  0
LTYPE
  2
AI-LINETYPE-22
 70
     0
  3

 72
    65
 73
     2
 40
5.333333332500001
 49
3.3333333325
 49
-3.3333333325
  0
LTYPE
  2
AI-LINETYPE-21
 70
     0
  3

 72
    65
 73
     2
 40
5.333333332500001
 49
3.3333333325
 49
-3.3333333325
  0
LTYPE
  2
AI-LINETYPE-20
 70
     0
  3

 72
    65
 73
     2
 40
5.333333332500001
 49
3.3333333325
 49
-3.3333333325
  0
LTYPE
  2
AI-LINETYPE-19
 70
     0
  3

 72
    65
 73
     2
 40
5.333333332500001
 49
3.3333333325
 49
-3.3333333325
  0
LTYPE
  2
AI-LINETYPE-18
 70
     0
  3

 72
    65
 73
     2
 40
5.333333332500001
 49
3.3333333325
 49
-3.3333333325
  0
LTYPE
  2
AI-LINETYPE-17
 70
     0
  3

 72
    65
 73
     2
 40
5.333333332500001
 49
3.3333333325
 49
-3.3333333325
  0
LTYPE
  2
AI-LINETYPE-16
 70
     0
  3

 72
    65
 73
     2
 40
5.333333332500001
 49
3.3333333325
 49
-3.3333333325
  0
LTYPE
  2
AI-LINETYPE-15
 70
     0
  3

 72
    65
 73
     2
 40
5.333333332500001
 49
3.3333333325
 49
-3.3333333325
  0
LTYPE
  2
AI-LINETYPE-14
 70
     0
  3

 72
    65
 73
     2
 40
5.333333332500001
 49
3.3333333325
 49
-3.3333333325
  0
LTYPE
  2
AI-LINETYPE-13
 70
     0
  3

 72
    65
 73
     2
 40
5.333333332500001
 49
3.3333333325
 49
-3.3333333325
  0
LTYPE
  2
AI-LINETYPE-12
 70
     0
  3

 72
    65
 73
     2
 40
5.333333332500001
 49
3.3333333325
 49
-3.3333333325
  0
LTYPE
  2
AI-LINETYPE-11
 70
     0
  3

 72
    65
 73
     2
 40
5.333333332500001
 49
3.3333333325
 49
-3.3333333325
  0
LTYPE
  2
AI-LINETYPE-10
 70
     0
  3

 72
    65
 73
     2
 40
5.333333332500001
 49
3.3333333325
 49
-3.3333333325
  0
LTYPE
  2
AI-LINETYPE-9
 70
     0
  3

 72
    65
 73
     2
 40
5.333333332500001
 49
3.3333333325
 49
-3.3333333325
  0
LTYPE
  2
AI-LINETYPE-8
 70
     0
  3

 72
    65
 73
     2
 40
5.333333332500001
 49
3.3333333325
 49
-3.3333333325
  0
LTYPE
  2
AI-LINETYPE-7
 70
     0
  3

 72
    65
 73
     2
 40
5.333333332500001
 49
3.3333333325
 49
-3.3333333325
  0
LTYPE
  2
AI-LINETYPE-6
 70
     0
  3

 72
    65
 73
     2
 40
5.333333332500001
 49
3.3333333325
 49
-3.3333333325
  0
LTYPE
  2
AI-LINETYPE-5
 70
     0
  3

 72
    65
 73
     2
 40
5.333333332500001
 49
3.3333333325
 49
-3.3333333325
  0
LTYPE
  2
AI-LINETYPE-4
 70
     0
  3

 72
    65
 73
     2
 40
5.333333332500001
 49
3.3333333325
 49
-3.3333333325
  0
LTYPE
  2
AI-LINETYPE-3
 70
     0
  3

 72
    65
 73
     2
 40
5.333333332500001
 49
3.3333333325
 49
-3.3333333325
  0
LTYPE
  2
AI-LINETYPE-2
 70
     0
  3

 72
    65
 73
     2
 40
5.333333332500001
 49
3.3333333325
 49
-3.3333333325
  0
LTYPE
  2
AI-LINETYPE-1
 70
     0
  3

 72
    65
 73
     2
 40
5.333333332500001
 49
3.3333333325
 49
-3.3333333325
  0
LTYPE
  2
______-12
 70
     0
  3

 72
    65
 73
     2
 40
0.015748031496063
 49
0.015748031496063
 49
-0.031496062992126
  0
LTYPE
  2
______-11
 70
     0
  3

 72
    65
 73
     4
 40
0.1968503937007874
 49
0.1968503937007874
 49
-0.031496062992126
 49
0.015748031496063
 49
-0.031496062992126
  0
LTYPE
  2
______-10
 70
     0
  3

 72
    65
 73
     6
 40
1.5
 49
1.5
 49
-0.1111139999999999
 49
0.2777720000000001
 49
-0.1111139999999999
 49
0.25
 49
-0.125
  0
LTYPE
  2
______-9
 70
     0
  3

 72
    65
 73
     4
 40
1.5
 49
1.5
 49
-0.1111139999999999
 49
0.2777720000000001
 49
-0.1111139999999999
  0
LTYPE
  2
______-8
 70
     0
  3

 72
    65
 73
     6
 40
0.25
 49
0.25
 49
-0.083312
 49
0.027772
 49
-0.055572
 49
0.027772
 49
-0.055572
  0
LTYPE
  2
______-7
 70
     0
  3

 72
    65
 73
     6
 40
0.25
 49
0.25
 49
-0.083312
 49
0.2500000000000001
 49
-0.083344
 49
0.027772
 49
-0.055572
  0
LTYPE
  2
______-6
 70
     0
  3

 72
    65
 73
     4
 40
0.25
 49
0.25
 49
-0.083312
 49
0.027772
 49
-0.055572
  0
LTYPE
  2
______-5
 70
     0
  3

 72
    65
 73
     2
 40
0.02777
 49
0.02777
 49
-0.055542
  0
LTYPE
  2
______-4
 70
     0
  3

 72
    65
 73
     2
 40
0.52777
 49
0.52777
 49
-0.083314
  0
LTYPE
  2
______-3
 70
     0
  3

 72
    65
 73
     2
 40
0.416656
 49
0.416656
 49
-0.083344
  0
LTYPE
  2
______-2
 70
     0
  3

 72
    65
 73
     2
 40
0.194428
 49
0.194428
 49
-0.083342
  0
LTYPE
  2
______-1
 70
     0
  3

 72
    65
 73
     2
 40
0.083312
 49
0.083312
 49
-0.083344
  0
ENDTAB
  0
TABLE
  2
LAYER
 70
    35
  0
LAYER
  2
0
 70
     0
 62
     7
  6
CONTINUOUS
  0
LAYER
  2
__-1
 70
     0
 62
     7
  6
CONTINUOUS
  0
LAYER
  2
020
 70
     0
 62
     1
  6
CONTINUOUS
  0
LAYER
  2
SAKUZU
 70
     0
 62
     7
  6
CONTINUOUS
  0
LAYER
  2
__-3
 70
     0
 62
     7
  6
CONTINUOUS
  0
LAYER
  2
LAYER0001
 70
     0
 62
     7
  6
CONTINUOUS
  0
LAYER
  2
LAYER0002
 70
     0
 62
     7
  6
CONTINUOUS
  0
LAYER
  2
DEFPOINTS
 70
     0
 62
     7
  6
CONTINUOUS
  0
ENDTAB
  0
TABLE
  2
STYLE
 70
     3
  0
STYLE
  2
STANDARD
 70
     0
 40
0.0
 41
1.0
 50
0.0
 71
     0
 42
0.2
  3
txt
  4
BIGFONT.SHX
  0
STYLE
  2
YUGOTHIC_MEDIUM
 70
     0
 40
0.0
 41
1.0
 50
0.0
 71
     0
 42
0.2
  3

  4
YuGothic Medium
  0
STYLE
  2
YUGOTHIC_BOLD
 70
     0
 40
0.0
 41
1.0
 50
0.0
 71
     0
 42
0.2
  3

  4
YuGothic Bold
  0
ENDTAB
  0
TABLE
  2
VIEW
 70
     0
  0
ENDTAB
  0
TABLE
  2
UCS
 70
     0
  0
ENDTAB
  0
TABLE
  2
APPID
 70
     3
  0
APPID
  2
ACAD
 70
     0
  0
APPID
  2
ACCMTRANSPARENCY
 70
     0
  0
APPID
  2
ACAECLAYERSTANDARD
 70
     0
  0
ENDTAB
  0
TABLE
  2
DIMSTYLE
 70
     2
  0
DIMSTYLE
  2
STANDARD
 70
     0
  3

  4

  5

  6

  7

 40
1.0
 41
0.18
 42
0.0625
 43
0.38
 44
0.18
 45
0.0
 46
0.0
 47
0.0
 48
0.0
140
0.18
141
0.09
142
0.0
143
25.4
144
1.0
145
0.0
146
1.0
147
0.09
 71
     0
 72
     0
 73
     1
 74
     1
 75
     0
 76
     0
 77
     0
 78
     0
170
     0
171
     2
172
     0
173
     0
174
     0
175
     0
176
     0
177
     0
178
     0
  0
DIMSTYLE
  2
SPEAC
 70
     0
  3
<>
  4
[]
  5
DOT
  6
DOT
  7
DOT
 40
1.0
 41
0.5007446289062499
 42
3.0
 43
10.16
 44
0.0
 45
0.0
 46
0.0
 47
0.0
 48
0.0
140
31.86024305555555
141
0.0
142
0.0
143
0.0393700787401575
144
1.0
145
0.0
146
1.0
147
0.1999999992549419
 71
     0
 72
     0
 73
     0
 74
     0
 75
     0
 76
     0
 77
     1
 78
     8
170
     0
171
     3
172
     1
173
     0
174
     1
175
     0
176
     0
177
     0
178
     0
  0
ENDTAB
  0
ENDSEC
  0
SECTION
  2
BLOCKS
  0
BLOCK
  8
0
  2
$MODEL_SPACE
 70
     0
 10
0.0
 20
0.0
 30
0.0
  3
$MODEL_SPACE
  1

  0
ENDBLK
  5
21
  8
0
  0
BLOCK
 67
     1
  8
0
  2
$PAPER_SPACE
 70
     0
 10
0.0
 20
0.0
 30
0.0
  3
$PAPER_SPACE
  1

  0
ENDBLK
  5
1D
 67
     1
  8
0
  0
BLOCK
  8
0
  2
____-1
 70
     0
 10
0.0
 20
0.0
 30
0.0
  3
____-1
  1

  0
ENDBLK
  5
71
  8
0
  0
BLOCK
  8
0
  2
____-2-1
 70
     0
 10
0.0
 20
0.0
 30
0.0
  3
____-2-1
  1

  0
LINE
  5
1C0
  8
__-3
  6
CONTINUOUS
 62
     7
 10
144.272
 20
-292.716385965512
 30
0.0
 11
-144.272
 21
-292.716385965512
 31
0.0
  0
TEXT
  5
1C1
  8
__-3
 62
     3
 10
94.48727566194626
 20
-297.0515464756034
 30
0.0
 40
2.389518229166667
  1
2022.08.31
  7
YUGOTHIC_MEDIUM
 11
94.48727566194626
 21
-295.8567873610201
 31
0.0
 73
     2
  0
TEXT
  5
1C2
  8
__-3
 62
     3
 10
129.4375369899762
 20
-297.0515464756034
 30
0.0
 40
2.389518229166667
  1
1:15(A4)
  7
YUGOTHIC_MEDIUM
 11
129.4375369899762
 21
-295.8567873610201
 31
0.0
 73
     2
  0
INSERT
  5
1C3
  8
__-3
 62
    17
  2
____-1
 10
0.0
 20
0.0
 30
0.0
  0
TEXT
  5
1C4
  8
__-3
 62
     3
 10
116.8075934565349
 20
-296.2695373610201
 30
0.0
 40
2.389518229166667
  1
SCALE:
  7
YUGOTHIC_MEDIUM
 11
116.8075934565349
 21
-293.8800191318535
 31
0.0
 73
     3
  0
TEXT
  5
1C5
  8
__-3
 62
     3
 10
-49.28778269347823
 20
-296.2695373610201
 30
0.0
 40
2.389518229166667
  1
NAME:
  7
YUGOTHIC_MEDIUM
 11
-49.28778269347823
 21
-293.8800191318535
 31
0.0
 73
     3
  0
TEXT
  5
1C6
  8
__-3
 62
     3
 10
83.83485407521394
 20
-296.2695373610201
 30
0.0
 40
2.389518229166667
  1
DATE:
  7
YUGOTHIC_MEDIUM
 11
83.83485407521394
 21
-293.8800191318535
 31
0.0
 73
     3
  0
TEXT
  5
1C7
  8
__-3
 62
     3
 10
49.94351325906834
 20
-296.2695373610201
 30
0.0
 40
2.389518229166667
  1
ID:
  7
YUGOTHIC_MEDIUM
 11
49.94351325906834
 21
-293.8800191318535
 31
0.0
 73
     3
  0
TEXT
  5
1C8
  8
__-3
 62
     3
 10
54.87692605681511
 20
-297.0515464756034
 30
0.0
 40
2.389518229166667
  1
KB-KC025-05
  7
YUGOTHIC_MEDIUM
 11
54.87692605681511
 21
-295.8567873610201
 31
0.0
 73
     2
  0
TEXT
  5
1C9
  8
__-3
 62
     3
 10
-36.90650480634043
 20
-297.0515464756034
 30
0.0
 40
2.389518229166667
  1
業務用キッチン  スノコ台 バックガードあり サイズオーダー
  7
YUGOTHIC_MEDIUM
 11
-36.90650480634043
 21
-295.8567873610201
 31
0.0
 73
     2
  0
ENDBLK
  5
74
  8
0
  0
BLOCK
  8
0
  2
____-3-1
 70
     0
 10
0.0
 20
0.0
 30
0.0
  3
____-3-1
  1

  0
ENDBLK
  5
77
  8
0
  0
BLOCK
  8
0
  2
____-4-1
 70
     0
 10
0.0
 20
0.0
 30
0.0
  3
____-4-1
  1

  0
LINE
  5
1CA
  8
__-3
  6
CONTINUOUS
 62
     7
 10
144.272
 20
-494.0649934273876
 30
0.0
 11
-144.272
 21
-494.0649934273876
 31
0.0
  0
TEXT
  5
1CB
  8
__-3
 62
     3
 10
94.48727566194626
 20
-498.4001539374789
 30
0.0
 40
2.389518229166667
  1
2022.08.31
  7
YUGOTHIC_MEDIUM
 11
94.48727566194626
 21
-497.2053948228956
 31
0.0
 73
     2
  0
TEXT
  5
1CC
  8
__-3
 62
     3
 10
129.4375369899762
 20
-498.4001539374789
 30
0.0
 40
2.389518229166667
  1
1:15(A4)
  7
YUGOTHIC_MEDIUM
 11
129.4375369899762
 21
-497.2053948228956
 31
0.0
 73
     2
  0
INSERT
  5
1CD
  8
__-3
 62
    17
  2
____-3-1
 10
0.0
 20
0.0
 30
0.0
  0
TEXT
  5
1CE
  8
__-3
 62
     3
 10
116.8075934565349
 20
-497.6181448228957
 30
0.0
 40
2.389518229166667
  1
SCALE:
  7
YUGOTHIC_MEDIUM
 11
116.8075934565349
 21
-495.228626593729
 31
0.0
 73
     3
  0
TEXT
  5
1CF
  8
__-3
 62
     3
 10
-49.28778269347823
 20
-497.6181448228957
 30
0.0
 40
2.389518229166667
  1
NAME:
  7
YUGOTHIC_MEDIUM
 11
-49.28778269347823
 21
-495.228626593729
 31
0.0
 73
     3
  0
TEXT
  5
1D0
  8
__-3
 62
     3
 10
83.83485407521394
 20
-497.6181448228957
 30
0.0
 40
2.389518229166667
  1
DATE:
  7
YUGOTHIC_MEDIUM
 11
83.83485407521394
 21
-495.228626593729
 31
0.0
 73
     3
  0
TEXT
  5
1D1
  8
__-3
 62
     3
 10
49.94351325906834
 20
-497.6181448228957
 30
0.0
 40
2.389518229166667
  1
ID:
  7
YUGOTHIC_MEDIUM
 11
49.94351325906834
 21
-495.228626593729
 31
0.0
 73
     3
  0
TEXT
  5
1D2
  8
__-3
 62
     3
 10
54.87692605681511
 20
-498.4001539374789
 30
0.0
 40
2.389518229166667
  1
KB-KC025-04
  7
YUGOTHIC_MEDIUM
 11
54.87692605681511
 21
-497.2053948228956
 31
0.0
 73
     2
  0
TEXT
  5
1D3
  8
__-3
 62
     3
 10
-36.90650480634043
 20
-498.4001539374789
 30
0.0
 40
2.389518229166667
  1
業務用キッチン  スノコ台 バックガードなし サイズオーダー
  7
YUGOTHIC_MEDIUM
 11
-36.90650480634043
 21
-497.2053948228956
 31
0.0
 73
     2
  0
ENDBLK
  5
7A
  8
0
  0
BLOCK
  8
0
  2
*D5
 70
     1
 10
0.0
 20
0.0
 30
0.0
  3
*D5
  1

  0
LINE
  5
1D4
  8
LAYER0001
  6
CONTINUOUS
 62
     0
 10
1309.348277659231
 20
-6968.982332613567
 30
0.0
 11
1007.598277670451
 21
-6968.982332613567
 31
0.0
  0
LINE
  5
1D5
  8
LAYER0001
  6
CONTINUOUS
 62
     0
 10
1309.348277659275
 20
-7168.982332613567
 30
0.0
 11
1007.598277670451
 21
-7168.982332613567
 31
0.0
  0
LINE
  5
1D6
  8
LAYER0001
  6
CONTINUOUS
 62
     0
 10
1007.598277670451
 20
-6969.483077242474
 30
0.0
 11
1007.598277670451
 21
-7168.481587984661
 31
0.0
  0
INSERT
  5
1D7
  8
LAYER0001
 62
     0
  2
_DOT
 10
1007.598277670451
 20
-6968.982332613567
 30
0.0
 41
0.5007446289062499
 42
0.5007446289062499
 43
0.5007446289062499
 50
90.0
  0
INSERT
  5
1D8
  8
LAYER0001
 62
     0
  2
_DOT
 10
1007.598277670451
 20
-7168.982332613567
 30
0.0
 41
0.5007446289062499
 42
0.5007446289062499
 43
0.5007446289062499
 50
270.0
  0
TEXT
  5
1D9
  8
LAYER0001
  6
CONTINUOUS
 62
     0
 10
1007.398277671196
 20
-7114.496965550065
 30
0.0
 40
31.86024305555555
  1
200
 50
90.0
  7
YUGOTHIC_MEDIUM
  0
POINT
  5
1DA
  8
DEFPOINTS
 62
     0
 10
1312.348277659231
 20
-6968.982332613567
 30
0.0
  0
POINT
  5
1DB
  8
DEFPOINTS
 62
     0
 10
1312.348277659275
 20
-7168.982332613567
 30
0.0
  0
POINT
  5
1DC
  8
DEFPOINTS
 62
     0
 10
1042.348277659275
 20
-7168.982332613567
 30
0.0
  0
ENDBLK
  5
7D
  8
0
  0
BLOCK
  8
0
  2
*D6
 70
     1
 10
0.0
 20
0.0
 30
0.0
  3
*D6
  1

  0
LINE
  5
1DD
  8
LAYER0001
  6
CONTINUOUS
 62
     0
 10
1314.348277659275
 20
-6318.982332613567
 30
0.0
 11
1007.598277670451
 21
-6318.982332613567
 31
0.0
  0
LINE
  5
1DE
  8
LAYER0001
  6
CONTINUOUS
 62
     0
 10
1309.348277659231
 20
-6968.982332613567
 30
0.0
 11
1007.598277670451
 21
-6968.982332613567
 31
0.0
  0
LINE
  5
1DF
  8
LAYER0001
  6
CONTINUOUS
 62
     0
 10
1007.598277670451
 20
-6319.483077242474
 30
0.0
 11
1007.598277670451
 21
-6968.481587984661
 31
0.0
  0
INSERT
  5
1E0
  8
LAYER0001
 62
     0
  2
_DOT
 10
1007.598277670451
 20
-6318.982332613567
 30
0.0
 41
0.5007446289062499
 42
0.5007446289062499
 43
0.5007446289062499
 50
90.0
  0
INSERT
  5
1E1
  8
LAYER0001
 62
     0
  2
_DOT
 10
1007.598277670451
 20
-6968.982332613567
 30
0.0
 41
0.5007446289062499
 42
0.5007446289062499
 43
0.5007446289062499
 50
270.0
  0
TEXT
  5
1E2
  8
LAYER0001
  6
CONTINUOUS
 62
     0
 10
1007.398277671196
 20
-6690.255542765684
 30
0.0
 40
31.86024305555555
  1
650
 50
90.0
  7
YUGOTHIC_MEDIUM
  0
POINT
  5
1E3
  8
DEFPOINTS
 62
     0
 10
1317.348277659275
 20
-6318.982332613567
 30
0.0
  0
POINT
  5
1E4
  8
DEFPOINTS
 62
     0
 10
1312.348277659231
 20
-6968.982332613567
 30
0.0
  0
POINT
  5
1E5
  8
DEFPOINTS
 62
     0
 10
1042.348277659275
 20
-6968.982332613567
 30
0.0
  0
ENDBLK
  5
80
  8
0
  0
BLOCK
  8
0
  2
*D7
 70
     1
 10
0.0
 20
0.0
 30
0.0
  3
*D7
  1

  0
LINE
  5
1E6
  8
LAYER0001
  6
CONTINUOUS
 62
     0
 10
1314.348277659275
 20
-6318.982332613567
 30
0.0
 11
907.5982776704507
 21
-6318.982332613567
 31
0.0
  0
LINE
  5
1E7
  8
LAYER0001
  6
CONTINUOUS
 62
     0
 10
1309.348277659275
 20
-7168.982332613567
 30
0.0
 11
907.5982776704507
 21
-7168.982332613567
 31
0.0
  0
LINE
  5
1E8
  8
LAYER0001
  6
CONTINUOUS
 62
     0
 10
907.5982776704507
 20
-6319.483077242474
 30
0.0
 11
907.5982776704507
 21
-7168.481587984661
 31
0.0
  0
INSERT
  5
1E9
  8
LAYER0001
 62
     0
  2
_DOT
 10
907.5982776704507
 20
-6318.982332613567
 30
0.0
 41
0.5007446289062499
 42
0.5007446289062499
 43
0.5007446289062499
 50
90.0
  0
INSERT
  5
1EA
  8
LAYER0001
 62
     0
  2
_DOT
 10
907.5982776704507
 20
-7168.982332613567
 30
0.0
 41
0.5007446289062499
 42
0.5007446289062499
 43
0.5007446289062499
 50
270.0
  0
TEXT
  5
1EB
  8
LAYER0001
  6
CONTINUOUS
 62
     0
 10
907.3982776711964
 20
-6789.496965550075
 30
0.0
 40
31.86024305555555
  1
850
 50
90.0
  7
YUGOTHIC_MEDIUM
  0
POINT
  5
1EC
  8
DEFPOINTS
 62
     0
 10
1317.348277659275
 20
-6318.982332613567
 30
0.0
  0
POINT
  5
1ED
  8
DEFPOINTS
 62
     0
 10
1312.348277659275
 20
-7168.982332613567
 30
0.0
  0
POINT
  5
1EE
  8
DEFPOINTS
 62
     0
 10
942.3482776592748
 20
-7168.982332613567
 30
0.0
  0
ENDBLK
  5
83
  8
0
  0
BLOCK
  8
0
  2
*D8
 70
     1
 10
0.0
 20
0.0
 30
0.0
  3
*D8
  1

  0
LINE
  5
1EF
  8
LAYER0001
  6
CONTINUOUS
 62
     0
 10
437.3013946402662
 20
-5419.005065823886
 30
0.0
 11
669.5513946514423
 21
-5419.005065823886
 31
0.0
  0
LINE
  5
1F0
  8
LAYER0001
  6
CONTINUOUS
 62
     0
 10
437.3013946402662
 20
-6019.005065823886
 30
0.0
 11
669.5513946514423
 21
-6019.005065823886
 31
0.0
  0
LINE
  5
1F1
  8
LAYER0001
  6
CONTINUOUS
 62
     0
 10
669.5513946514423
 20
-5419.505810452793
 30
0.0
 11
669.5513946514423
 21
-6018.50432119498
 31
0.0
  0
INSERT
  5
1F2
  8
LAYER0001
 62
     0
  2
_DOT
 10
669.5513946514423
 20
-5419.005065823886
 30
0.0
 41
0.5007446289062499
 42
0.5007446289062499
 43
0.5007446289062499
 50
90.0
  0
INSERT
  5
1F3
  8
LAYER0001
 62
     0
  2
_DOT
 10
669.5513946514423
 20
-6019.005065823886
 30
0.0
 41
0.5007446289062499
 42
0.5007446289062499
 43
0.5007446289062499
 50
270.0
  0
TEXT
  5
1F4
  8
LAYER0001
  6
CONTINUOUS
 62
     0
 10
669.351394652188
 20
-5765.278275976002
 30
0.0
 40
31.86024305555555
  1
600
 50
90.0
  7
YUGOTHIC_MEDIUM
  0
POINT
  5
1F5
  8
DEFPOINTS
 62
     0
 10
434.3013946402662
 20
-5419.005065823886
 30
0.0
  0
POINT
  5
1F6
  8
DEFPOINTS
 62
     0
 10
434.3013946402662
 20
-6019.005065823886
 30
0.0
  0
POINT
  5
1F7
  8
DEFPOINTS
 62
     0
 10
704.3013946402664
 20
-6019.005065823886
 30
0.0
  0
ENDBLK
  5
86
  8
0
  0
BLOCK
  8
0
  2
*D9
 70
     1
 10
0.0
 20
0.0
 30
0.0
  3
*D9
  1

  0
LINE
  5
1F8
  8
LAYER0001
  6
CONTINUOUS
 62
     0
 10
434.3013946402662
 20
-5416.005065823886
 30
0.0
 11
434.3013946402662
 21
-5234.255065835062
 31
0.0
  0
LINE
  5
1F9
  8
LAYER0001
  6
CONTINUOUS
 62
     0
 10
-555.6986053597338
 20
-5416.005065823886
 30
0.0
 11
-555.6986053597338
 21
-5234.255065835062
 31
0.0
  0
LINE
  5
1FA
  8
LAYER0001
  6
CONTINUOUS
 62
     0
 10
433.8006500113599
 20
-5234.255065835062
 30
0.0
 11
-555.1978607308276
 21
-5234.255065835062
 31
0.0
  0
INSERT
  5
1FB
  8
LAYER0001
 62
     0
  2
_DOT
 10
434.3013946402662
 20
-5234.255065835062
 30
0.0
 41
0.5007446289062499
 42
0.5007446289062499
 43
0.5007446289062499
  0
INSERT
  5
1FC
  8
LAYER0001
 62
     0
  2
_DOT
 10
-555.6986053597338
 20
-5234.255065835062
 30
0.0
 41
0.5007446289062499
 42
0.5007446289062499
 43
0.5007446289062499
 50
180.0
  0
TEXT
  5
1FD
  8
LAYER0001
  6
CONTINUOUS
 62
     0
 10
-106.2132382962418
 20
-5234.055065835808
 30
0.0
 40
31.86024305555555
  1
990
  7
YUGOTHIC_MEDIUM
  0
POINT
  5
1FE
  8
DEFPOINTS
 62
     0
 10
434.3013946402662
 20
-5419.005065823886
 30
0.0
  0
POINT
  5
1FF
  8
DEFPOINTS
 62
     0
 10
-555.6986053597338
 20
-5419.005065823886
 30
0.0
  0
POINT
  5
200
  8
DEFPOINTS
 62
     0
 10
-555.6986053597338
 20
-5269.005065823886
 30
0.0
  0
ENDBLK
  5
89
  8
0
  0
BLOCK
  8
0
  2
*D10
 70
     1
 10
0.0
 20
0.0
 30
0.0
  3
*D10
  1

  0
LINE
  5
201
  8
LAYER0001
  6
CONTINUOUS
 62
     0
 10
-522.6986053597338
 20
-7201.755302375009
 30
0.0
 11
-522.6986053597338
 21
-7404.232332624744
 31
0.0
  0
LINE
  5
202
  8
LAYER0001
  6
CONTINUOUS
 62
     0
 10
-555.6986053597338
 20
-7161.982332613569
 30
0.0
 11
-555.6986053597338
 21
-7404.232332624744
 31
0.0
  0
LINE
  5
203
  8
LAYER0001
  6
CONTINUOUS
 62
     0
 10
-555.6986053597338
 20
-7404.232332624744
 30
0.0
 11
-730.018572908871
 21
-7404.232332624744
 31
0.0
  0
LINE
  5
204
  8
LAYER0001
  6
CONTINUOUS
 62
     0
 10
-523.19934998864
 20
-7404.232332624744
 30
0.0
 11
-555.1978607308276
 21
-7404.232332624744
 31
0.0
  0
INSERT
  5
205
  8
LAYER0001
 62
     0
  2
_DOT
 10
-522.6986053597338
 20
-7404.232332624744
 30
0.0
 41
0.5007446289062499
 42
0.5007446289062499
 43
0.5007446289062499
  0
INSERT
  5
206
  8
LAYER0001
 62
     0
  2
_DOT
 10
-555.6986053597338
 20
-7404.232332624744
 30
0.0
 41
0.5007446289062499
 42
0.5007446289062499
 43
0.5007446289062499
 50
180.0
  0
TEXT
  5
207
  8
LAYER0001
  6
CONTINUOUS
 62
     0
 10
-734.3700362032669
 20
-7404.03233262549
 30
0.0
 40
31.86024305555555
  1
33
  7
YUGOTHIC_MEDIUM
  0
POINT
  5
208
  8
DEFPOINTS
 62
     0
 10
-522.6986053597338
 20
-7198.755302375009
 30
0.0
  0
POINT
  5
209
  8
DEFPOINTS
 62
     0
 10
-555.6986053597338
 20
-7158.982332613569
 30
0.0
  0
POINT
  5
20A
  8
DEFPOINTS
 62
     0
 10
-555.6986053597338
 20
-7438.982332613568
 30
0.0
  0
ENDBLK
  5
8C
  8
0
  0
BLOCK
  8
0
  2
*D11
 70
     1
 10
0.0
 20
0.0
 30
0.0
  3
*D11
  1

  0
LINE
  5
20B
  8
LAYER0001
  6
CONTINUOUS
 62
     0
 10
401.3013951171033
 20
-7201.755302375009
 30
0.0
 11
401.3013951171033
 21
-7404.232332624745
 31
0.0
  0
LINE
  5
20C
  8
LAYER0001
  6
CONTINUOUS
 62
     0
 10
-522.6986048828967
 20
-7201.755302375009
 30
0.0
 11
-522.6986048828967
 21
-7404.232332624745
 31
0.0
  0
LINE
  5
20D
  8
LAYER0001
  6
CONTINUOUS
 62
     0
 10
400.800650488197
 20
-7404.232332624745
 30
0.0
 11
-522.1978602539905
 21
-7404.232332624745
 31
0.0
  0
INSERT
  5
20E
  8
LAYER0001
 62
     0
  2
_DOT
 10
401.3013951171033
 20
-7404.232332624745
 30
0.0
 41
0.5007446289062499
 42
0.5007446289062499
 43
0.5007446289062499
  0
INSERT
  5
20F
  8
LAYER0001
 62
     0
  2
_DOT
 10
-522.6986048828967
 20
-7404.232332624745
 30
0.0
 41
0.5007446289062499
 42
0.5007446289062499
 43
0.5007446289062499
 50
180.0
  0
TEXT
  5
210
  8
LAYER0001
  6
CONTINUOUS
 62
     0
 10
-106.9718150350131
 20
-7404.032332625491
 30
0.0
 40
31.86024305555555
  1
924
  7
YUGOTHIC_MEDIUM
  0
POINT
  5
211
  8
DEFPOINTS
 62
     0
 10
401.3013951171033
 20
-7198.755302375009
 30
0.0
  0
POINT
  5
212
  8
DEFPOINTS
 62
     0
 10
-522.6986048828967
 20
-7198.755302375009
 30
0.0
  0
POINT
  5
213
  8
DEFPOINTS
 62
     0
 10
-522.6986048828967
 20
-7438.982332613569
 30
0.0
  0
ENDBLK
  5
8F
  8
0
  0
BLOCK
  8
0
  2
*D12
 70
     1
 10
0.0
 20
0.0
 30
0.0
  3
*D12
  1

  0
LINE
  5
214
  8
LAYER0001
  6
CONTINUOUS
 62
     0
 10
434.3013946402662
 20
-7161.982332613569
 30
0.0
 11
434.3013946402662
 21
-7404.232332624745
 31
0.0
  0
LINE
  5
215
  8
LAYER0001
  6
CONTINUOUS
 62
     0
 10
401.3013946402662
 20
-7201.755302375009
 30
0.0
 11
401.3013946402662
 21
-7404.232332624745
 31
0.0
  0
LINE
  5
216
  8
LAYER0001
  6
CONTINUOUS
 62
     0
 10
434.3013946402662
 20
-7404.232332624745
 30
0.0
 11
577.1213917533064
 21
-7404.232332624745
 31
0.0
  0
LINE
  5
217
  8
LAYER0001
  6
CONTINUOUS
 62
     0
 10
433.8006500113599
 20
-7404.232332624745
 30
0.0
 11
401.8021392691724
 21
-7404.232332624745
 31
0.0
  0
INSERT
  5
218
  8
LAYER0001
 62
     0
  2
_DOT
 10
434.3013946402662
 20
-7404.232332624745
 30
0.0
 41
0.5007446289062499
 42
0.5007446289062499
 43
0.5007446289062499
  0
INSERT
  5
219
  8
LAYER0001
 62
     0
  2
_DOT
 10
401.3013946402662
 20
-7404.232332624745
 30
0.0
 41
0.5007446289062499
 42
0.5007446289062499
 43
0.5007446289062499
 50
180.0
  0
TEXT
  5
21A
  8
LAYER0001
  6
CONTINUOUS
 62
     0
 10
520.786677799025
 20
-7404.032332625491
 30
0.0
 40
31.86024305555555
  1
33
  7
YUGOTHIC_MEDIUM
  0
POINT
  5
21B
  8
DEFPOINTS
 62
     0
 10
434.3013946402662
 20
-7158.982332613569
 30
0.0
  0
POINT
  5
21C
  8
DEFPOINTS
 62
     0
 10
401.3013946402662
 20
-7198.755302375009
 30
0.0
  0
POINT
  5
21D
  8
DEFPOINTS
 62
     0
 10
401.3013946402662
 20
-7438.982332613569
 30
0.0
  0
ENDBLK
  5
92
  8
0
  0
BLOCK
  8
0
  2
*D13
 70
     1
 10
0.0
 20
0.0
 30
0.0
  3
*D13
  1

  0
LINE
  5
21E
  8
LAYER0001
  6
CONTINUOUS
 62
     0
 10
1341.348277659275
 20
-7201.755302375009
 30
0.0
 11
1341.348277659275
 21
-7404.232332624745
 31
0.0
  0
LINE
  5
21F
  8
LAYER0001
  6
CONTINUOUS
 62
     0
 10
1312.348277659275
 20
-7191.755302375009
 30
0.0
 11
1312.348277659275
 21
-7404.232332624745
 31
0.0
  0
LINE
  5
220
  8
LAYER0001
  6
CONTINUOUS
 62
     0
 10
1312.348277659275
 20
-7404.232332624745
 30
0.0
 11
1143.620191095176
 21
-7404.232332624745
 31
0.0
  0
LINE
  5
221
  8
LAYER0001
  6
CONTINUOUS
 62
     0
 10
1340.847533030368
 20
-7404.232332624745
 30
0.0
 11
1312.849022288181
 21
-7404.232332624745
 31
0.0
  0
INSERT
  5
222
  8
LAYER0001
 62
     0
  2
_DOT
 10
1341.348277659275
 20
-7404.232332624745
 30
0.0
 41
0.5007446289062499
 42
0.5007446289062499
 43
0.5007446289062499
  0
INSERT
  5
223
  8
LAYER0001
 62
     0
  2
_DOT
 10
1312.348277659275
 20
-7404.232332624745
 30
0.0
 41
0.5007446289062499
 42
0.5007446289062499
 43
0.5007446289062499
 50
180.0
  0
TEXT
  5
224
  8
LAYER0001
  6
CONTINUOUS
 62
     0
 10
1139.26872780078
 20
-7404.032332625491
 30
0.0
 40
31.86024305555555
  1
29
  7
YUGOTHIC_MEDIUM
  0
POINT
  5
225
  8
DEFPOINTS
 62
     0
 10
1341.348277659275
 20
-7198.755302375009
 30
0.0
  0
POINT
  5
226
  8
DEFPOINTS
 62
     0
 10
1312.348277659275
 20
-7188.755302375009
 30
0.0
  0
POINT
  5
227
  8
DEFPOINTS
 62
     0
 10
1312.348277659275
 20
-7438.982332613569
 30
0.0
  0
ENDBLK
  5
95
  8
0
  0
BLOCK
  8
0
  2
*D14
 70
     1
 10
0.0
 20
0.0
 30
0.0
  3
*D14
  1

  0
LINE
  5
228
  8
LAYER0001
  6
CONTINUOUS
 62
     0
 10
1837.348277659275
 20
-7201.755302375009
 30
0.0
 11
1837.348277659275
 21
-7404.232332624745
 31
0.0
  0
LINE
  5
229
  8
LAYER0001
  6
CONTINUOUS
 62
     0
 10
1341.348277659275
 20
-7201.755302375009
 30
0.0
 11
1341.348277659275
 21
-7404.232332624745
 31
0.0
  0
LINE
  5
22A
  8
LAYER0001
  6
CONTINUOUS
 62
     0
 10
1836.847533030368
 20
-7404.232332624745
 30
0.0
 11
1341.849022288181
 21
-7404.232332624745
 31
0.0
  0
INSERT
  5
22B
  8
LAYER0001
 62
     0
  2
_DOT
 10
1837.348277659275
 20
-7404.232332624745
 30
0.0
 41
0.5007446289062499
 42
0.5007446289062499
 43
0.5007446289062499
  0
INSERT
  5
22C
  8
LAYER0001
 62
     0
  2
_DOT
 10
1341.348277659275
 20
-7404.232332624745
 30
0.0
 41
0.5007446289062499
 42
0.5007446289062499
 43
0.5007446289062499
 50
180.0
  0
TEXT
  5
22D
  8
LAYER0001
  6
CONTINUOUS
 62
     0
 10
1543.833644722767
 20
-7404.032332625491
 30
0.0
 40
31.86024305555555
  1
496
  7
YUGOTHIC_MEDIUM
  0
POINT
  5
22E
  8
DEFPOINTS
 62
     0
 10
1837.348277659275
 20
-7198.755302375009
 30
0.0
  0
POINT
  5
22F
  8
DEFPOINTS
 62
     0
 10
1341.348277659275
 20
-7198.755302375009
 30
0.0
  0
POINT
  5
230
  8
DEFPOINTS
 62
     0
 10
1341.348277659275
 20
-7438.982332613569
 30
0.0
  0
ENDBLK
  5
98
  8
0
  0
BLOCK
  8
0
  2
*D15
 70
     1
 10
0.0
 20
0.0
 30
0.0
  3
*D15
  1

  0
LINE
  5
231
  8
LAYER0001
  6
CONTINUOUS
 62
     0
 10
1912.348277659275
 20
-7191.755302375009
 30
0.0
 11
1912.348277659275
 21
-7404.232332624745
 31
0.0
  0
LINE
  5
232
  8
LAYER0001
  6
CONTINUOUS
 62
     0
 10
1837.348277659275
 20
-7201.755302375009
 30
0.0
 11
1837.348277659275
 21
-7404.232332624745
 31
0.0
  0
LINE
  5
233
  8
LAYER0001
  6
CONTINUOUS
 62
     0
 10
1911.847533030368
 20
-7404.232332624745
 30
0.0
 11
1837.849022288181
 21
-7404.232332624745
 31
0.0
  0
INSERT
  5
234
  8
LAYER0001
 62
     0
  2
_DOT
 10
1912.348277659275
 20
-7404.232332624745
 30
0.0
 41
0.5007446289062499
 42
0.5007446289062499
 43
0.5007446289062499
  0
INSERT
  5
235
  8
LAYER0001
 62
     0
  2
_DOT
 10
1837.348277659275
 20
-7404.232332624745
 30
0.0
 41
0.5007446289062499
 42
0.5007446289062499
 43
0.5007446289062499
 50
180.0
  0
TEXT
  5
236
  8
LAYER0001
  6
CONTINUOUS
 62
     0
 10
1844.505189034936
 20
-7404.032332625491
 30
0.0
 40
31.86024305555555
  1
75
  7
YUGOTHIC_MEDIUM
  0
POINT
  5
237
  8
DEFPOINTS
 62
     0
 10
1912.348277659275
 20
-7188.755302375009
 30
0.0
  0
POINT
  5
238
  8
DEFPOINTS
 62
     0
 10
1837.348277659275
 20
-7198.755302375009
 30
0.0
  0
POINT
  5
239
  8
DEFPOINTS
 62
     0
 10
1837.348277659275
 20
-7438.982332613569
 30
0.0
  0
ENDBLK
  5
9B
  8
0
  0
BLOCK
  8
0
  2
*D16
 70
     1
 10
0.0
 20
0.0
 30
0.0
  3
*D16
  1

  0
LINE
  5
23A
  8
LAYER0001
  6
CONTINUOUS
 62
     0
 10
1309.348277659231
 20
-3897.232027355282
 30
0.0
 11
1007.598277670451
 21
-3897.232027355282
 31
0.0
  0
LINE
  5
23B
  8
LAYER0001
  6
CONTINUOUS
 62
     0
 10
1309.348277659275
 20
-4097.232027355282
 30
0.0
 11
1007.598277670451
 21
-4097.232027355282
 31
0.0
  0
LINE
  5
23C
  8
LAYER0001
  6
CONTINUOUS
 62
     0
 10
1007.598277670451
 20
-3897.732771984188
 30
0.0
 11
1007.598277670451
 21
-4096.731282726376
 31
0.0
  0
INSERT
  5
23D
  8
LAYER0001
 62
     0
  2
_DOT
 10
1007.598277670451
 20
-3897.232027355282
 30
0.0
 41
0.5007446289062499
 42
0.5007446289062499
 43
0.5007446289062499
 50
90.0
  0
INSERT
  5
23E
  8
LAYER0001
 62
     0
  2
_DOT
 10
1007.598277670451
 20
-4097.232027355282
 30
0.0
 41
0.5007446289062499
 42
0.5007446289062499
 43
0.5007446289062499
 50
270.0
  0
TEXT
  5
23F
  8
LAYER0001
  6
CONTINUOUS
 62
     0
 10
1007.398277671196
 20
-4042.746660291779
 30
0.0
 40
31.86024305555555
  1
200
 50
90.0
  7
YUGOTHIC_MEDIUM
  0
POINT
  5
240
  8
DEFPOINTS
 62
     0
 10
1312.348277659231
 20
-3897.232027355282
 30
0.0
  0
POINT
  5
241
  8
DEFPOINTS
 62
     0
 10
1312.348277659275
 20
-4097.232027355282
 30
0.0
  0
POINT
  5
242
  8
DEFPOINTS
 62
     0
 10
1042.348277659275
 20
-4097.232027355282
 30
0.0
  0
ENDBLK
  5
9E
  8
0
  0
BLOCK
  8
0
  2
*D17
 70
     1
 10
0.0
 20
0.0
 30
0.0
  3
*D17
  1

  0
LINE
  5
243
  8
LAYER0001
  6
CONTINUOUS
 62
     0
 10
1314.348277659275
 20
-3247.23202735528
 30
0.0
 11
1007.598277670451
 21
-3247.23202735528
 31
0.0
  0
LINE
  5
244
  8
LAYER0001
  6
CONTINUOUS
 62
     0
 10
1309.348277659231
 20
-3897.232027355282
 30
0.0
 11
1007.598277670451
 21
-3897.232027355282
 31
0.0
  0
LINE
  5
245
  8
LAYER0001
  6
CONTINUOUS
 62
     0
 10
1007.598277670451
 20
-3247.732771984186
 30
0.0
 11
1007.598277670451
 21
-3896.731282726375
 31
0.0
  0
INSERT
  5
246
  8
LAYER0001
 62
     0
  2
_DOT
 10
1007.598277670451
 20
-3247.23202735528
 30
0.0
 41
0.5007446289062499
 42
0.5007446289062499
 43
0.5007446289062499
 50
90.0
  0
INSERT
  5
247
  8
LAYER0001
 62
     0
  2
_DOT
 10
1007.598277670451
 20
-3897.232027355282
 30
0.0
 41
0.5007446289062499
 42
0.5007446289062499
 43
0.5007446289062499
 50
270.0
  0
TEXT
  5
248
  8
LAYER0001
  6
CONTINUOUS
 62
     0
 10
1007.398277671196
 20
-3618.505237507398
 30
0.0
 40
31.86024305555555
  1
650
 50
90.0
  7
YUGOTHIC_MEDIUM
  0
POINT
  5
249
  8
DEFPOINTS
 62
     0
 10
1317.348277659275
 20
-3247.23202735528
 30
0.0
  0
POINT
  5
24A
  8
DEFPOINTS
 62
     0
 10
1312.348277659231
 20
-3897.232027355282
 30
0.0
  0
POINT
  5
24B
  8
DEFPOINTS
 62
     0
 10
1042.348277659275
 20
-3897.232027355282
 30
0.0
  0
ENDBLK
  5
A1
  8
0
  0
BLOCK
  8
0
  2
*D18
 70
     1
 10
0.0
 20
0.0
 30
0.0
  3
*D18
  1

  0
LINE
  5
24C
  8
LAYER0001
  6
CONTINUOUS
 62
     0
 10
1314.348277659275
 20
-3247.23202735528
 30
0.0
 11
907.5982776704507
 21
-3247.23202735528
 31
0.0
  0
LINE
  5
24D
  8
LAYER0001
  6
CONTINUOUS
 62
     0
 10
1309.348277659275
 20
-4097.232027355282
 30
0.0
 11
907.5982776704507
 21
-4097.232027355282
 31
0.0
  0
LINE
  5
24E
  8
LAYER0001
  6
CONTINUOUS
 62
     0
 10
907.5982776704507
 20
-3247.732771984186
 30
0.0
 11
907.5982776704507
 21
-4096.731282726376
 31
0.0
  0
INSERT
  5
24F
  8
LAYER0001
 62
     0
  2
_DOT
 10
907.5982776704507
 20
-3247.23202735528
 30
0.0
 41
0.5007446289062499
 42
0.5007446289062499
 43
0.5007446289062499
 50
90.0
  0
INSERT
  5
250
  8
LAYER0001
 62
     0
  2
_DOT
 10
907.5982776704507
 20
-4097.232027355282
 30
0.0
 41
0.5007446289062499
 42
0.5007446289062499
 43
0.5007446289062499
 50
270.0
  0
TEXT
  5
251
  8
LAYER0001
  6
CONTINUOUS
 62
     0
 10
907.3982776711955
 20
-3717.746660291788
 30
0.0
 40
31.86024305555555
  1
850
 50
90.0
  7
YUGOTHIC_MEDIUM
  0
POINT
  5
252
  8
DEFPOINTS
 62
     0
 10
1317.348277659275
 20
-3247.23202735528
 30
0.0
  0
POINT
  5
253
  8
DEFPOINTS
 62
     0
 10
1312.348277659275
 20
-4097.232027355282
 30
0.0
  0
POINT
  5
254
  8
DEFPOINTS
 62
     0
 10
942.3482776592748
 20
-4097.232027355282
 30
0.0
  0
ENDBLK
  5
A4
  8
0
  0
BLOCK
  8
0
  2
*D19
 70
     1
 10
0.0
 20
0.0
 30
0.0
  3
*D19
  1

  0
LINE
  5
255
  8
LAYER0001
  6
CONTINUOUS
 62
     0
 10
1854.348277659275
 20
-3097.23202735528
 30
0.0
 11
907.5982776704509
 21
-3097.23202735528
 31
0.0
  0
LINE
  5
256
  8
LAYER0001
  6
CONTINUOUS
 62
     0
 10
1314.348277659275
 20
-3247.23202735528
 30
0.0
 11
907.5982776704509
 21
-3247.23202735528
 31
0.0
  0
LINE
  5
257
  8
LAYER0001
  6
CONTINUOUS
 62
     0
 10
907.5982776704509
 20
-3097.732771984186
 30
0.0
 11
907.5982776704509
 21
-3246.731282726374
 31
0.0
  0
INSERT
  5
258
  8
LAYER0001
 62
     0
  2
_DOT
 10
907.5982776704509
 20
-3097.23202735528
 30
0.0
 41
0.5007446289062499
 42
0.5007446289062499
 43
0.5007446289062499
 50
90.0
  0
INSERT
  5
259
  8
LAYER0001
 62
     0
  2
_DOT
 10
907.5982776704509
 20
-3247.23202735528
 30
0.0
 41
0.5007446289062499
 42
0.5007446289062499
 43
0.5007446289062499
 50
270.0
  0
TEXT
  5
25A
  8
LAYER0001
  6
CONTINUOUS
 62
     0
 10
907.398277671196
 20
-3220.022391938614
 30
0.0
 40
31.86024305555555
  1
150
 50
90.0
  7
YUGOTHIC_MEDIUM
  0
POINT
  5
25B
  8
DEFPOINTS
 62
     0
 10
1857.348277659275
 20
-3097.23202735528
 30
0.0
  0
POINT
  5
25C
  8
DEFPOINTS
 62
     0
 10
1317.348277659275
 20
-3247.23202735528
 30
0.0
  0
POINT
  5
25D
  8
DEFPOINTS
 62
     0
 10
942.348277659275
 20
-3247.23202735528
 30
0.0
  0
ENDBLK
  5
A7
  8
0
  0
BLOCK
  8
0
  2
*D20
 70
     1
 10
0.0
 20
0.0
 30
0.0
  3
*D20
  1

  0
LINE
  5
25E
  8
LAYER0001
  6
CONTINUOUS
 62
     0
 10
437.3013946402662
 20
-2347.2547605656
 30
0.0
 11
569.5513946514423
 21
-2347.2547605656
 31
0.0
  0
LINE
  5
25F
  8
LAYER0001
  6
CONTINUOUS
 62
     0
 10
437.3013946402662
 20
-2407.2547605656
 30
0.0
 11
569.5513946514423
 21
-2407.2547605656
 31
0.0
  0
LINE
  5
260
  8
LAYER0001
  6
CONTINUOUS
 62
     0
 10
569.5513946514423
 20
-2347.2547605656
 30
0.0
 11
569.5513946514423
 21
-2207.5266740015
 31
0.0
  0
LINE
  5
261
  8
LAYER0001
  6
CONTINUOUS
 62
     0
 10
569.5513946514423
 20
-2347.755505194506
 30
0.0
 11
569.5513946514423
 21
-2406.754015936693
 31
0.0
  0
INSERT
  5
262
  8
LAYER0001
 62
     0
  2
_DOT
 10
569.5513946514423
 20
-2347.2547605656
 30
0.0
 41
0.5007446289062499
 42
0.5007446289062499
 43
0.5007446289062499
 50
90.0
  0
INSERT
  5
263
  8
LAYER0001
 62
     0
  2
_DOT
 10
569.5513946514423
 20
-2407.2547605656
 30
0.0
 41
0.5007446289062499
 42
0.5007446289062499
 43
0.5007446289062499
 50
270.0
  0
TEXT
  5
264
  8
LAYER0001
  6
CONTINUOUS
 62
     0
 10
569.3513946521873
 20
-2263.861387955782
 30
0.0
 40
31.86024305555555
  1
60
 50
90.0
  7
YUGOTHIC_MEDIUM
  0
POINT
  5
265
  8
DEFPOINTS
 62
     0
 10
434.3013946402662
 20
-2347.2547605656
 30
0.0
  0
POINT
  5
266
  8
DEFPOINTS
 62
     0
 10
434.3013946402662
 20
-2407.2547605656
 30
0.0
  0
POINT
  5
267
  8
DEFPOINTS
 62
     0
 10
604.3013946402664
 20
-2407.2547605656
 30
0.0
  0
ENDBLK
  5
AA
  8
0
  0
BLOCK
  8
0
  2
*D21
 70
     1
 10
0.0
 20
0.0
 30
0.0
  3
*D21
  1

  0
LINE
  5
268
  8
LAYER0001
  6
CONTINUOUS
 62
     0
 10
437.3013946402662
 20
-2347.2547605656
 30
0.0
 11
669.5513946514423
 21
-2347.2547605656
 31
0.0
  0
LINE
  5
269
  8
LAYER0001
  6
CONTINUOUS
 62
     0
 10
437.3013946402662
 20
-2947.2547605656
 30
0.0
 11
669.5513946514423
 21
-2947.2547605656
 31
0.0
  0
LINE
  5
26A
  8
LAYER0001
  6
CONTINUOUS
 62
     0
 10
669.5513946514423
 20
-2347.755505194506
 30
0.0
 11
669.5513946514423
 21
-2946.754015936693
 31
0.0
  0
INSERT
  5
26B
  8
LAYER0001
 62
     0
  2
_DOT
 10
669.5513946514423
 20
-2347.2547605656
 30
0.0
 41
0.5007446289062499
 42
0.5007446289062499
 43
0.5007446289062499
 50
90.0
  0
INSERT
  5
26C
  8
LAYER0001
 62
     0
  2
_DOT
 10
669.5513946514423
 20
-2947.2547605656
 30
0.0
 41
0.5007446289062499
 42
0.5007446289062499
 43
0.5007446289062499
 50
270.0
  0
TEXT
  5
26D
  8
LAYER0001
  6
CONTINUOUS
 62
     0
 10
669.3513946521873
 20
-2693.527970717716
 30
0.0
 40
31.86024305555555
  1
600
 50
90.0
  7
YUGOTHIC_MEDIUM
  0
POINT
  5
26E
  8
DEFPOINTS
 62
     0
 10
434.3013946402662
 20
-2347.2547605656
 30
0.0
  0
POINT
  5
26F
  8
DEFPOINTS
 62
     0
 10
434.3013946402662
 20
-2947.2547605656
 30
0.0
  0
POINT
  5
270
  8
DEFPOINTS
 62
     0
 10
704.3013946402664
 20
-2947.2547605656
 30
0.0
  0
ENDBLK
  5
AD
  8
0
  0
BLOCK
  8
0
  2
*D22
 70
     1
 10
0.0
 20
0.0
 30
0.0
  3
*D22
  1

  0
LINE
  5
271
  8
LAYER0001
  6
CONTINUOUS
 62
     0
 10
434.3013946402662
 20
-2344.2547605656
 30
0.0
 11
434.3013946402662
 21
-2162.504760576775
 31
0.0
  0
LINE
  5
272
  8
LAYER0001
  6
CONTINUOUS
 62
     0
 10
-555.6986053597338
 20
-2344.2547605656
 30
0.0
 11
-555.6986053597338
 21
-2162.504760576775
 31
0.0
  0
LINE
  5
273
  8
LAYER0001
  6
CONTINUOUS
 62
     0
 10
433.8006500113599
 20
-2162.504760576775
 30
0.0
 11
-555.1978607308276
 21
-2162.504760576775
 31
0.0
  0
INSERT
  5
274
  8
LAYER0001
 62
     0
  2
_DOT
 10
434.3013946402662
 20
-2162.504760576775
 30
0.0
 41
0.5007446289062499
 42
0.5007446289062499
 43
0.5007446289062499
  0
INSERT
  5
275
  8
LAYER0001
 62
     0
  2
_DOT
 10
-555.6986053597338
 20
-2162.504760576775
 30
0.0
 41
0.5007446289062499
 42
0.5007446289062499
 43
0.5007446289062499
 50
180.0
  0
TEXT
  5
276
  8
LAYER0001
  6
CONTINUOUS
 62
     0
 10
-106.2132382962418
 20
-2162.30476057752
 30
0.0
 40
31.86024305555555
  1
990
  7
YUGOTHIC_MEDIUM
  0
POINT
  5
277
  8
DEFPOINTS
 62
     0
 10
434.3013946402662
 20
-2347.2547605656
 30
0.0
  0
POINT
  5
278
  8
DEFPOINTS
 62
     0
 10
-555.6986053597338
 20
-2347.2547605656
 30
0.0
  0
POINT
  5
279
  8
DEFPOINTS
 62
     0
 10
-555.6986053597338
 20
-2197.2547605656
 30
0.0
  0
ENDBLK
  5
B0
  8
0
  0
BLOCK
  8
0
  2
*D23
 70
     1
 10
0.0
 20
0.0
 30
0.0
  3
*D23
  1

  0
LINE
  5
27A
  8
LAYER0001
  6
CONTINUOUS
 62
     0
 10
-522.6986053597338
 20
-4130.004997116722
 30
0.0
 11
-522.6986053597338
 21
-4332.482027366458
 31
0.0
  0
LINE
  5
27B
  8
LAYER0001
  6
CONTINUOUS
 62
     0
 10
-555.6986053597338
 20
-4090.232027355283
 30
0.0
 11
-555.6986053597338
 21
-4332.482027366458
 31
0.0
  0
LINE
  5
27C
  8
LAYER0001
  6
CONTINUOUS
 62
     0
 10
-555.6986053597338
 20
-4332.482027366458
 30
0.0
 11
-730.018572908871
 21
-4332.482027366458
 31
0.0
  0
LINE
  5
27D
  8
LAYER0001
  6
CONTINUOUS
 62
     0
 10
-523.19934998864
 20
-4332.482027366458
 30
0.0
 11
-555.1978607308276
 21
-4332.482027366458
 31
0.0
  0
INSERT
  5
27E
  8
LAYER0001
 62
     0
  2
_DOT
 10
-522.6986053597338
 20
-4332.482027366458
 30
0.0
 41
0.5007446289062499
 42
0.5007446289062499
 43
0.5007446289062499
  0
INSERT
  5
27F
  8
LAYER0001
 62
     0
  2
_DOT
 10
-555.6986053597338
 20
-4332.482027366458
 30
0.0
 41
0.5007446289062499
 42
0.5007446289062499
 43
0.5007446289062499
 50
180.0
  0
TEXT
  5
280
  8
LAYER0001
  6
CONTINUOUS
 62
     0
 10
-734.3700362032669
 20
-4332.282027367204
 30
0.0
 40
31.86024305555555
  1
33
  7
YUGOTHIC_MEDIUM
  0
POINT
  5
281
  8
DEFPOINTS
 62
     0
 10
-522.6986053597338
 20
-4127.004997116722
 30
0.0
  0
POINT
  5
282
  8
DEFPOINTS
 62
     0
 10
-555.6986053597338
 20
-4087.232027355283
 30
0.0
  0
POINT
  5
283
  8
DEFPOINTS
 62
     0
 10
-555.6986053597338
 20
-4367.232027355282
 30
0.0
  0
ENDBLK
  5
B3
  8
0
  0
BLOCK
  8
0
  2
*D24
 70
     1
 10
0.0
 20
0.0
 30
0.0
  3
*D24
  1

  0
LINE
  5
284
  8
LAYER0001
  6
CONTINUOUS
 62
     0
 10
401.3013951171033
 20
-4130.004997116722
 30
0.0
 11
401.3013951171033
 21
-4332.482027366458
 31
0.0
  0
LINE
  5
285
  8
LAYER0001
  6
CONTINUOUS
 62
     0
 10
-522.6986048828967
 20
-4130.004997116722
 30
0.0
 11
-522.6986048828967
 21
-4332.482027366458
 31
0.0
  0
LINE
  5
286
  8
LAYER0001
  6
CONTINUOUS
 62
     0
 10
400.800650488197
 20
-4332.482027366458
 30
0.0
 11
-522.1978602539905
 21
-4332.482027366458
 31
0.0
  0
INSERT
  5
287
  8
LAYER0001
 62
     0
  2
_DOT
 10
401.3013951171033
 20
-4332.482027366458
 30
0.0
 41
0.5007446289062499
 42
0.5007446289062499
 43
0.5007446289062499
  0
INSERT
  5
288
  8
LAYER0001
 62
     0
  2
_DOT
 10
-522.6986048828967
 20
-4332.482027366458
 30
0.0
 41
0.5007446289062499
 42
0.5007446289062499
 43
0.5007446289062499
 50
180.0
  0
TEXT
  5
289
  8
LAYER0001
  6
CONTINUOUS
 62
     0
 10
-106.9718150350131
 20
-4332.282027367204
 30
0.0
 40
31.86024305555555
  1
924
  7
YUGOTHIC_MEDIUM
  0
POINT
  5
28A
  8
DEFPOINTS
 62
     0
 10
401.3013951171033
 20
-4127.004997116722
 30
0.0
  0
POINT
  5
28B
  8
DEFPOINTS
 62
     0
 10
-522.6986048828967
 20
-4127.004997116722
 30
0.0
  0
POINT
  5
28C
  8
DEFPOINTS
 62
     0
 10
-522.6986048828967
 20
-4367.232027355282
 30
0.0
  0
ENDBLK
  5
B6
  8
0
  0
BLOCK
  8
0
  2
*D25
 70
     1
 10
0.0
 20
0.0
 30
0.0
  3
*D25
  1

  0
LINE
  5
28D
  8
LAYER0001
  6
CONTINUOUS
 62
     0
 10
434.3013946402662
 20
-4090.232027355283
 30
0.0
 11
434.3013946402662
 21
-4332.482027366458
 31
0.0
  0
LINE
  5
28E
  8
LAYER0001
  6
CONTINUOUS
 62
     0
 10
401.3013946402662
 20
-4130.004997116722
 30
0.0
 11
401.3013946402662
 21
-4332.482027366458
 31
0.0
  0
LINE
  5
28F
  8
LAYER0001
  6
CONTINUOUS
 62
     0
 10
434.3013946402662
 20
-4332.482027366458
 30
0.0
 11
577.1213917533064
 21
-4332.482027366458
 31
0.0
  0
LINE
  5
290
  8
LAYER0001
  6
CONTINUOUS
 62
     0
 10
433.8006500113599
 20
-4332.482027366458
 30
0.0
 11
401.8021392691724
 21
-4332.482027366458
 31
0.0
  0
INSERT
  5
291
  8
LAYER0001
 62
     0
  2
_DOT
 10
434.3013946402662
 20
-4332.482027366458
 30
0.0
 41
0.5007446289062499
 42
0.5007446289062499
 43
0.5007446289062499
  0
INSERT
  5
292
  8
LAYER0001
 62
     0
  2
_DOT
 10
401.3013946402662
 20
-4332.482027366458
 30
0.0
 41
0.5007446289062499
 42
0.5007446289062499
 43
0.5007446289062499
 50
180.0
  0
TEXT
  5
293
  8
LAYER0001
  6
CONTINUOUS
 62
     0
 10
520.786677799025
 20
-4332.282027367204
 30
0.0
 40
31.86024305555555
  1
33
  7
YUGOTHIC_MEDIUM
  0
POINT
  5
294
  8
DEFPOINTS
 62
     0
 10
434.3013946402662
 20
-4087.232027355283
 30
0.0
  0
POINT
  5
295
  8
DEFPOINTS
 62
     0
 10
401.3013946402662
 20
-4127.004997116722
 30
0.0
  0
POINT
  5
296
  8
DEFPOINTS
 62
     0
 10
401.3013946402662
 20
-4367.232027355282
 30
0.0
  0
ENDBLK
  5
B9
  8
0
  0
BLOCK
  8
0
  2
*D26
 70
     1
 10
0.0
 20
0.0
 30
0.0
  3
*D26
  1

  0
LINE
  5
297
  8
LAYER0001
  6
CONTINUOUS
 62
     0
 10
1341.348277659275
 20
-4130.004997116722
 30
0.0
 11
1341.348277659275
 21
-4332.482027366458
 31
0.0
  0
LINE
  5
298
  8
LAYER0001
  6
CONTINUOUS
 62
     0
 10
1312.348277659275
 20
-4120.004997116722
 30
0.0
 11
1312.348277659275
 21
-4332.482027366458
 31
0.0
  0
LINE
  5
299
  8
LAYER0001
  6
CONTINUOUS
 62
     0
 10
1312.348277659275
 20
-4332.482027366458
 30
0.0
 11
1143.620191095176
 21
-4332.482027366458
 31
0.0
  0
LINE
  5
29A
  8
LAYER0001
  6
CONTINUOUS
 62
     0
 10
1340.847533030368
 20
-4332.482027366458
 30
0.0
 11
1312.849022288181
 21
-4332.482027366458
 31
0.0
  0
INSERT
  5
29B
  8
LAYER0001
 62
     0
  2
_DOT
 10
1341.348277659275
 20
-4332.482027366458
 30
0.0
 41
0.5007446289062499
 42
0.5007446289062499
 43
0.5007446289062499
  0
INSERT
  5
29C
  8
LAYER0001
 62
     0
  2
_DOT
 10
1312.348277659275
 20
-4332.482027366458
 30
0.0
 41
0.5007446289062499
 42
0.5007446289062499
 43
0.5007446289062499
 50
180.0
  0
TEXT
  5
29D
  8
LAYER0001
  6
CONTINUOUS
 62
     0
 10
1139.26872780078
 20
-4332.282027367204
 30
0.0
 40
31.86024305555555
  1
29
  7
YUGOTHIC_MEDIUM
  0
POINT
  5
29E
  8
DEFPOINTS
 62
     0
 10
1341.348277659275
 20
-4127.004997116722
 30
0.0
  0
POINT
  5
29F
  8
DEFPOINTS
 62
     0
 10
1312.348277659275
 20
-4117.004997116722
 30
0.0
  0
POINT
  5
2A0
  8
DEFPOINTS
 62
     0
 10
1312.348277659275
 20
-4367.232027355282
 30
0.0
  0
ENDBLK
  5
BC
  8
0
  0
BLOCK
  8
0
  2
*D27
 70
     1
 10
0.0
 20
0.0
 30
0.0
  3
*D27
  1

  0
LINE
  5
2A1
  8
LAYER0001
  6
CONTINUOUS
 62
     0
 10
1837.348277659275
 20
-4130.004997116722
 30
0.0
 11
1837.348277659275
 21
-4332.482027366458
 31
0.0
  0
LINE
  5
2A2
  8
LAYER0001
  6
CONTINUOUS
 62
     0
 10
1341.348277659275
 20
-4130.004997116722
 30
0.0
 11
1341.348277659275
 21
-4332.482027366458
 31
0.0
  0
LINE
  5
2A3
  8
LAYER0001
  6
CONTINUOUS
 62
     0
 10
1836.847533030368
 20
-4332.482027366458
 30
0.0
 11
1341.849022288181
 21
-4332.482027366458
 31
0.0
  0
INSERT
  5
2A4
  8
LAYER0001
 62
     0
  2
_DOT
 10
1837.348277659275
 20
-4332.482027366458
 30
0.0
 41
0.5007446289062499
 42
0.5007446289062499
 43
0.5007446289062499
  0
INSERT
  5
2A5
  8
LAYER0001
 62
     0
  2
_DOT
 10
1341.348277659275
 20
-4332.482027366458
 30
0.0
 41
0.5007446289062499
 42
0.5007446289062499
 43
0.5007446289062499
 50
180.0
  0
TEXT
  5
2A6
  8
LAYER0001
  6
CONTINUOUS
 62
     0
 10
1543.833644722767
 20
-4332.282027367204
 30
0.0
 40
31.86024305555555
  1
496
  7
YUGOTHIC_MEDIUM
  0
POINT
  5
2A7
  8
DEFPOINTS
 62
     0
 10
1837.348277659275
 20
-4127.004997116722
 30
0.0
  0
POINT
  5
2A8
  8
DEFPOINTS
 62
     0
 10
1341.348277659275
 20
-4127.004997116722
 30
0.0
  0
POINT
  5
2A9
  8
DEFPOINTS
 62
     0
 10
1341.348277659275
 20
-4367.232027355282
 30
0.0
  0
ENDBLK
  5
BF
  8
0
  0
BLOCK
  8
0
  2
*D28
 70
     1
 10
0.0
 20
0.0
 30
0.0
  3
*D28
  1

  0
LINE
  5
2AA
  8
LAYER0001
  6
CONTINUOUS
 62
     0
 10
1912.348277659275
 20
-4120.004997116722
 30
0.0
 11
1912.348277659275
 21
-4332.482027366458
 31
0.0
  0
LINE
  5
2AB
  8
LAYER0001
  6
CONTINUOUS
 62
     0
 10
1837.348277659275
 20
-4130.004997116722
 30
0.0
 11
1837.348277659275
 21
-4332.482027366458
 31
0.0
  0
LINE
  5
2AC
  8
LAYER0001
  6
CONTINUOUS
 62
     0
 10
1911.847533030368
 20
-4332.482027366458
 30
0.0
 11
1837.849022288181
 21
-4332.482027366458
 31
0.0
  0
INSERT
  5
2AD
  8
LAYER0001
 62
     0
  2
_DOT
 10
1912.348277659275
 20
-4332.482027366458
 30
0.0
 41
0.5007446289062499
 42
0.5007446289062499
 43
0.5007446289062499
  0
INSERT
  5
2AE
  8
LAYER0001
 62
     0
  2
_DOT
 10
1837.348277659275
 20
-4332.482027366458
 30
0.0
 41
0.5007446289062499
 42
0.5007446289062499
 43
0.5007446289062499
 50
180.0
  0
TEXT
  5
2AF
  8
LAYER0001
  6
CONTINUOUS
 62
     0
 10
1844.505189034936
 20
-4332.282027367204
 30
0.0
 40
31.86024305555555
  1
75
  7
YUGOTHIC_MEDIUM
  0
POINT
  5
2B0
  8
DEFPOINTS
 62
     0
 10
1912.348277659275
 20
-4117.004997116722
 30
0.0
  0
POINT
  5
2B1
  8
DEFPOINTS
 62
     0
 10
1837.348277659275
 20
-4127.004997116722
 30
0.0
  0
POINT
  5
2B2
  8
DEFPOINTS
 62
     0
 10
1837.348277659275
 20
-4367.232027355282
 30
0.0
  0
ENDBLK
  5
C2
  8
0
  0
BLOCK
  8
0
  2
*D29
 70
     1
 10
0.0
 20
0.0
 30
0.0
  3
*D29
  1

  0
LINE
  5
2B3
  8
__-1
 62
     0
 10
1309.348277659275
 20
-6358.982332613567
 30
0.0
 11
1159.800000011176
 21
-6358.982332613567
 31
0.0
  0
LINE
  5
2B4
  8
__-1
 62
     0
 10
1319.848692867789
 20
-6318.982332613567
 30
0.0
 11
1159.800000011176
 21
-6318.982332613567
 31
0.0
  0
LINE
  5
2B5
  8
__-1
 62
     0
 10
1159.800000011176
 20
-6358.982332613567
 30
0.0
 11
1159.800000011176
 21
-6318.982332613567
 31
0.0
  0
LINE
  5
2B6
  8
__-1
 62
     0
 10
1159.800000011176
 20
-6359.483077242474
 30
0.0
 11
1159.800000011176
 21
-6359.98382187138
 31
0.0
  0
LINE
  5
2B7
  8
__-1
 62
     0
 10
1159.800000011176
 20
-6318.481587984661
 30
0.0
 11
1159.800000011176
 21
-6317.980843355755
 31
0.0
  0
INSERT
  5
2B8
  8
__-1
 62
     0
  2
_DOT
 10
1159.800000011176
 20
-6358.982332613567
 30
0.0
 41
0.5007446289062499
 42
0.5007446289062499
 43
0.5007446289062499
 50
90.0
  0
INSERT
  5
2B9
  8
__-1
 62
     0
  2
_DOT
 10
1159.800000011176
 20
-6318.982332613567
 30
0.0
 41
0.5007446289062499
 42
0.5007446289062499
 43
0.5007446289062499
 50
270.0
  0
TEXT
  5
2BA
  8
__-1
  6
CONTINUOUS
 62
     0
 10
1159.600000011922
 20
-6369.325421237906
 30
0.0
 40
31.86024305555555
  1
40
 50
90.0
  7
YUGOTHIC_MEDIUM
  0
POINT
  5
2BB
  8
DEFPOINTS
 62
     0
 10
1312.348277659275
 20
-6358.982332613567
 30
0.0
  0
POINT
  5
52C
  8
DEFPOINTS
 62
     0
 10
1322.848692867789
 20
-6318.982332613567
 30
0.0
  0
POINT
  5
52D
  8
DEFPOINTS
 62
     0
 10
1159.800000011176
 20
-6318.982332613567
 30
0.0
  0
ENDBLK
  5
C6
  8
0
  0
BLOCK
  8
0
  2
*D30
 70
     1
 10
0.0
 20
0.0
 30
0.0
  3
*D30
  1

  0
LINE
  5
2BC
  8
__-1
 62
     0
 10
1319.348277659275
 20
-3287.23202735528
 30
0.0
 11
1150.8
 21
-3287.23202735528
 31
0.0
  0
LINE
  5
2BD
  8
__-1
 62
     0
 10
1314.348277659275
 20
-3247.23202735528
 30
0.0
 11
1150.8
 21
-3247.23202735528
 31
0.0
  0
LINE
  5
2BE
  8
__-1
 62
     0
 10
1150.8
 20
-3287.23202735528
 30
0.0
 11
1150.8
 21
-3247.23202735528
 31
0.0
  0
LINE
  5
2BF
  8
__-1
 62
     0
 10
1150.8
 20
-3287.732771984186
 30
0.0
 11
1150.8
 21
-3288.233516613093
 31
0.0
  0
LINE
  5
2C0
  8
__-1
 62
     0
 10
1150.8
 20
-3246.731282726374
 30
0.0
 11
1150.8
 21
-3246.230538097467
 31
0.0
  0
INSERT
  5
2C1
  8
__-1
 62
     0
  2
_DOT
 10
1150.8
 20
-3287.23202735528
 30
0.0
 41
0.5007446289062499
 42
0.5007446289062499
 43
0.5007446289062499
 50
90.0
  0
INSERT
  5
2C2
  8
__-1
 62
     0
  2
_DOT
 10
1150.8
 20
-3247.23202735528
 30
0.0
 41
0.5007446289062499
 42
0.5007446289062499
 43
0.5007446289062499
 50
270.0
  0
TEXT
  5
2C3
  8
__-1
  6
CONTINUOUS
 62
     0
 10
1150.600000000745
 20
-3297.575115979619
 30
0.0
 40
31.86024305555555
  1
40
 50
90.0
  7
YUGOTHIC_MEDIUM
  0
POINT
  5
2C4
  8
DEFPOINTS
 62
     0
 10
1322.348277659275
 20
-3287.23202735528
 30
0.0
  0
POINT
  5
541
  8
DEFPOINTS
 62
     0
 10
1317.348277659275
 20
-3247.23202735528
 30
0.0
  0
POINT
  5
542
  8
DEFPOINTS
 62
     0
 10
1150.8
 20
-3247.23202735528
 30
0.0
  0
ENDBLK
  5
C9
  8
0
  0
BLOCK
  8
0
  2
*D31
 70
     1
 10
0.0
 20
0.0
 30
0.0
  3
*D31
  1

  0
LINE
  5
2C5
  8
__-1
  6
VW-01____
 62
     0
 10
-255.6986053597338
 20
-5774.511541713166
 30
0.0
 11
-255.6986053597338
 21
-5719.005065823886
 31
0.0
  0
LINE
  5
2C6
  8
__-1
  6
VW-01____
 62
     0
 10
-555.6986053597338
 20
-5774.511541713166
 30
0.0
 11
-555.6986053597338
 21
-5719.005065823886
 31
0.0
  0
LINE
  5
2C7
  8
__-1
  6
VW-01____
 62
     0
 10
-256.1993499886401
 20
-5719.005065823886
 30
0.0
 11
-555.1978607308276
 21
-5719.005065823886
 31
0.0
  0
INSERT
  5
2C8
  8
__-1
 62
     0
  2
_DOT
 10
-255.6986053597338
 20
-5719.005065823886
 30
0.0
 41
0.5007446289062499
 42
0.5007446289062499
 43
0.5007446289062499
  0
INSERT
  5
2C9
  8
__-1
 62
     0
  2
_DOT
 10
-555.6986053597338
 20
-5719.005065823886
 30
0.0
 41
0.5007446289062499
 42
0.5007446289062499
 43
0.5007446289062499
 50
180.0
  0
TEXT
  5
2CA
  8
__-1
  6
CONTINUOUS
 62
     0
 10
-451.2132382962417
 20
-5718.805065824632
 30
0.0
 40
31.86024305555555
  1
300
  7
YUGOTHIC_MEDIUM
  0
POINT
  5
2CB
  8
DEFPOINTS
 62
     0
 10
-255.6986053597338
 20
-5777.511541713166
 30
0.0
  0
POINT
  5
2CC
  8
DEFPOINTS
 62
     0
 10
-555.6986053597338
 20
-5777.511541713166
 30
0.0
  0
POINT
  5
2CD
  8
DEFPOINTS
 62
     0
 10
-555.6986053597338
 20
-5719.005065823886
 30
0.0
  0
ENDBLK
  5
CC
  8
0
  0
BLOCK
  8
0
  2
*D32
 70
     1
 10
0.0
 20
0.0
 30
0.0
  3
*D32
  1

  0
LINE
  5
2CE
  8
__-1
  6
VW-01____
 62
     0
 10
-255.6986053597338
 20
-2626.954303136144
 30
0.0
 11
-255.6986053597338
 21
-2680.0
 31
0.0
  0
LINE
  5
2CF
  8
__-1
  6
VW-01____
 62
     0
 10
-555.6986053597338
 20
-2626.954303136144
 30
0.0
 11
-555.6986053597338
 21
-2680.0
 31
0.0
  0
LINE
  5
2D0
  8
__-1
  6
VW-01____
 62
     0
 10
-256.1993499886401
 20
-2680.0
 30
0.0
 11
-555.1978607308276
 21
-2680.0
 31
0.0
  0
INSERT
  5
2D1
  8
__-1
 62
     0
  2
_DOT
 10
-255.6986053597338
 20
-2680.0
 30
0.0
 41
0.5007446289062499
 42
0.5007446289062499
 43
0.5007446289062499
  0
INSERT
  5
2D2
  8
__-1
 62
     0
  2
_DOT
 10
-555.6986053597338
 20
-2680.0
 30
0.0
 41
0.5007446289062499
 42
0.5007446289062499
 43
0.5007446289062499
 50
180.0
  0
TEXT
  5
2D3
  8
__-1
  6
CONTINUOUS
 62
     0
 10
-451.2132382962417
 20
-2679.800000000745
 30
0.0
 40
31.86024305555555
  1
300
  7
YUGOTHIC_MEDIUM
  0
POINT
  5
2D4
  8
DEFPOINTS
 62
     0
 10
-255.6986053597338
 20
-2623.954303136144
 30
0.0
  0
POINT
  5
2D5
  8
DEFPOINTS
 62
     0
 10
-555.6986053597338
 20
-2623.954303136144
 30
0.0
  0
POINT
  5
2D6
  8
DEFPOINTS
 62
     0
 10
-555.6986053597338
 20
-2680.0
 30
0.0
  0
ENDBLK
  5
CF
  8
0
  0
BLOCK
  8
0
  2
_DOT
 70
     0
 10
0.0
 20
0.0
 30
0.0
  3
_DOT
  1

  0
POLYLINE
  5
1BE
  8
0
  6
BYBLOCK
 62
     0
 66
     1
 10
0.0
 20
0.0
 30
0.0
 70
     1
 40
0.5
 41
0.5
  0
VERTEX
  5
57E
  8
0
  6
BYBLOCK
 62
     0
 10
-0.25
 20
0.0
 30
0.0
 42
1.0
  0
VERTEX
  5
57F
  8
0
  6
BYBLOCK
 62
     0
 10
0.25
 20
0.0
 30
0.0
 42
1.0
  0
SEQEND
  5
580
  8
0
  6
BYBLOCK
 62
     0
  0
LINE
  5
1BF
  8
0
  6
BYBLOCK
 62
     0
 10
-0.5
 20
0.0
 30
0.0
 11
-1.0
 21
0.0
 31
0.0
  0
ENDBLK
  5
1BD
  8
0
  0
ENDSEC
  0
SECTION
  2
ENTITIES
  0
POLYLINE
  5
2D7
  8
020
  6
CONTINUOUS
 62
     1
 66
     1
 10
0.0
 20
0.0
 30
0.0
 70
   129
  0
VERTEX
  5
2D8
  8
020
  6
CONTINUOUS
 62
     1
 10
749.9048257883746
 20
-254.9646329610916
 30
0.0
  0
VERTEX
  5
2D9
  8
020
  6
CONTINUOUS
 62
     1
 10
760.4027853330043
 20
-254.9646329610916
 30
0.0
  0
VERTEX
  5
2DA
  8
020
  6
CONTINUOUS
 62
     1
 10
760.4027853330043
 20
-260.1646329610916
 30
0.0
  0
VERTEX
  5
2DB
  8
020
  6
CONTINUOUS
 62
     1
 10
749.9048257883746
 20
-260.1646329610916
 30
0.0
  0
SEQEND
  5
2DC
  8
020
  6
CONTINUOUS
 62
     1
  0
TEXT
  5
2DD
  8
020
 62
     1
 10
753.1544014544509
 20
-258.4148551833136
 30
0.0
 40
2.124016203703704
  1
NO
  7
YUGOTHIC_MEDIUM
 11
753.1544014544509
 21
-256.2908389796099
 31
0.0
 73
     3
  0
TEXT
  5
2DE
  8
020
 62
     1
 10
768.7815833384673
 20
-258.4415218499802
 30
0.0
 40
2.124016203703704
  1
名称
  7
YUGOTHIC_MEDIUM
 11
768.7815833384673
 21
-256.3175056462765
 31
0.0
 73
     3
  0
POLYLINE
  5
2DF
  8
020
  6
CONTINUOUS
 62
     1
 66
     1
 10
0.0
 20
0.0
 30
0.0
 70
   129
  0
VERTEX
  5
2E0
  8
020
  6
CONTINUOUS
 62
     1
 10
760.4027853330043
 20
-254.9646329610916
 30
0.0
  0
VERTEX
  5
2E1
  8
020
  6
CONTINUOUS
 62
     1
 10
782.8048257883746
 20
-254.9646329610916
 30
0.0
  0
VERTEX
  5
2E2
  8
020
  6
CONTINUOUS
 62
     1
 10
782.8048257883746
 20
-260.1646329610916
 30
0.0
  0
VERTEX
  5
2E3
  8
020
  6
CONTINUOUS
 62
     1
 10
760.4027853330043
 20
-260.1646329610916
 30
0.0
  0
SEQEND
  5
2E4
  8
020
  6
CONTINUOUS
 62
     1
  0
POLYLINE
  5
2E5
  8
020
  6
CONTINUOUS
 62
     1
 66
     1
 10
0.0
 20
0.0
 30
0.0
 70
   129
  0
VERTEX
  5
2E6
  8
020
  6
CONTINUOUS
 62
     1
 10
782.8048257883746
 20
-254.9646329610916
 30
0.0
  0
VERTEX
  5
2E7
  8
020
  6
CONTINUOUS
 62
     1
 10
813.4548257883746
 20
-254.9646329610916
 30
0.0
  0
VERTEX
  5
2E8
  8
020
  6
CONTINUOUS
 62
     1
 10
813.4548257883746
 20
-260.1646329610916
 30
0.0
  0
VERTEX
  5
2E9
  8
020
  6
CONTINUOUS
 62
     1
 10
782.8048257883746
 20
-260.1646329610916
 30
0.0
  0
SEQEND
  5
2EA
  8
020
  6
CONTINUOUS
 62
     1
  0
TEXT
  5
2EB
  8
020
 62
     1
 10
795.1437146772635
 20
-258.4315218499805
 30
0.0
 40
2.124016203703704
  1
材質
  7
YUGOTHIC_MEDIUM
 11
795.1437146772635
 21
-256.3075056462768
 31
0.0
 73
     3
  0
POLYLINE
  5
2EC
  8
020
  6
CONTINUOUS
 62
     1
 66
     1
 10
0.0
 20
0.0
 30
0.0
 70
   129
  0
VERTEX
  5
2ED
  8
020
  6
CONTINUOUS
 62
     1
 10
749.9048257883746
 20
-260.1646329610913
 30
0.0
  0
VERTEX
  5
2EE
  8
020
  6
CONTINUOUS
 62
     1
 10
760.4027853330043
 20
-260.1646329610913
 30
0.0
  0
VERTEX
  5
2EF
  8
020
  6
CONTINUOUS
 62
     1
 10
760.4027853330043
 20
-265.3646329610914
 30
0.0
  0
VERTEX
  5
2F0
  8
020
  6
CONTINUOUS
 62
     1
 10
749.9048257883746
 20
-265.3646329610914
 30
0.0
  0
SEQEND
  5
2F1
  8
020
  6
CONTINUOUS
 62
     1
  0
POLYLINE
  5
2F2
  8
020
  6
CONTINUOUS
 62
     1
 66
     1
 10
0.0
 20
0.0
 30
0.0
 70
   129
  0
VERTEX
  5
2F3
  8
020
  6
CONTINUOUS
 62
     1
 10
760.4027853330043
 20
-260.1646329610913
 30
0.0
  0
VERTEX
  5
2F4
  8
020
  6
CONTINUOUS
 62
     1
 10
782.8048257883746
 20
-260.1646329610913
 30
0.0
  0
VERTEX
  5
2F5
  8
020
  6
CONTINUOUS
 62
     1
 10
782.8048257883746
 20
-265.3646329610914
 30
0.0
  0
VERTEX
  5
2F6
  8
020
  6
CONTINUOUS
 62
     1
 10
760.4027853330043
 20
-265.3646329610914
 30
0.0
  0
SEQEND
  5
2F7
  8
020
  6
CONTINUOUS
 62
     1
  0
POLYLINE
  5
2F8
  8
020
  6
CONTINUOUS
 62
     1
 66
     1
 10
0.0
 20
0.0
 30
0.0
 70
   129
  0
VERTEX
  5
2F9
  8
020
  6
CONTINUOUS
 62
     1
 10
782.8048257883746
 20
-260.1646329610913
 30
0.0
  0
VERTEX
  5
2FA
  8
020
  6
CONTINUOUS
 62
     1
 10
813.4548257883746
 20
-260.1646329610913
 30
0.0
  0
VERTEX
  5
2FB
  8
020
  6
CONTINUOUS
 62
     1
 10
813.4548257883746
 20
-265.3646329610914
 30
0.0
  0
VERTEX
  5
2FC
  8
020
  6
CONTINUOUS
 62
     1
 10
782.8048257883746
 20
-265.3646329610914
 30
0.0
  0
SEQEND
  5
2FD
  8
020
  6
CONTINUOUS
 62
     1
  0
TEXT
  5
2FE
  8
SAKUZU
 62
     1
 10
754.1113490455264
 20
-273.9794272507498
 30
0.0
 40
2.124016203703704
  1
3
  7
YUGOTHIC_MEDIUM
 72
     1
 11
755.1227853330043
 21
-273.9794272507498
 31
0.0
  0
TEXT
  5
2FF
  8
SAKUZU
 62
     1
 10
770.6424926742741
 20
-279.5846329610919
 30
0.0
 40
2.124016203703704
  1
脚
  7
YUGOTHIC_MEDIUM
 72
     1
 11
771.5527853330043
 21
-279.5846329610919
 31
0.0
  0
TEXT
  5
300
  8
SAKUZU
 62
     1
 10
767.1533624947238
 20
-269.0370774055358
 30
0.0
 40
2.124016203703704
  1
トップ補強
  7
YUGOTHIC_MEDIUM
 72
     1
 11
771.7048257883746
 21
-269.0370774055358
 31
0.0
  0
TEXT
  5
301
  8
SAKUZU
 62
     1
 10
754.2435129019592
 20
-269.0370774055358
 30
0.0
 40
2.124016203703704
  1
２
  7
YUGOTHIC_MEDIUM
 72
     1
 11
755.1538055606894
 21
-269.0370774055358
 31
0.0
  0
TEXT
  5
302
  8
SAKUZU
 62
     1
 10
754.2435129019592
 20
-263.837077405536
 30
0.0
 40
2.124016203703704
  1
１
  7
YUGOTHIC_MEDIUM
 72
     1
 11
755.1538055606894
 21
-263.837077405536
 31
0.0
  0
TEXT
  5
303
  8
SAKUZU
 62
     1
 10
768.9739478121841
 20
-263.837077405536
 30
0.0
 40
2.124016203703704
  1
トップ
  7
YUGOTHIC_MEDIUM
 72
     1
 11
771.7048257883746
 21
-263.837077405536
 31
0.0
  0
TEXT
  5
304
  8
SAKUZU
 62
     1
 10
792.6680698359936
 20
-263.837077405536
 30
0.0
 40
2.124016203703704
  1
ＳＵＳ４３０
  7
YUGOTHIC_MEDIUM
 72
     1
 11
798.1298257883745
 21
-263.837077405536
 31
0.0
  0
TEXT
  5
305
  8
SAKUZU
 62
     1
 10
754.0917974588376
 20
-279.4993540945349
 30
0.0
 40
2.124016203703704
  1
4
  7
YUGOTHIC_MEDIUM
 72
     1
 11
755.1538055606894
 21
-279.4993540945349
 31
0.0
  0
TEXT
  5
306
  8
SAKUZU
 62
     1
 10
792.6680698359936
 20
-279.4370774055361
 30
0.0
 40
2.124016203703704
  1
ＳＵＳ３０４
  7
YUGOTHIC_MEDIUM
 72
     1
 11
798.1298257883745
 21
-279.4370774055361
 31
0.0
  0
TEXT
  5
307
  8
SAKUZU
 62
     1
 10
767.0523422670386
 20
-284.6370774055359
 30
0.0
 40
2.124016203703704
  1
アジャスト
  7
YUGOTHIC_MEDIUM
 72
     1
 11
771.6038055606895
 21
-284.6370774055359
 31
0.0
  0
TEXT
  5
308
  8
SAKUZU
 62
     1
 10
754.1423692732114
 20
-284.6370774055359
 30
0.0
 40
2.124016203703704
  1
5
  7
YUGOTHIC_MEDIUM
 72
     1
 11
755.1538055606894
 21
-284.6370774055359
 31
0.0
  0
TEXT
  5
309
  8
SAKUZU
 62
     1
 10
792.6680698359936
 20
-284.8557335620427
 30
0.0
 40
2.124016203703704
  1
ＳＵＳ３０４
  7
YUGOTHIC_MEDIUM
 72
     1
 11
798.1298257883745
 21
-284.8557335620427
 31
0.0
  0
POLYLINE
  5
30A
  8
020
  6
CONTINUOUS
 62
     1
 66
     1
 10
0.0
 20
0.0
 30
0.0
 70
   129
  0
VERTEX
  5
30B
  8
020
  6
CONTINUOUS
 62
     1
 10
813.4548257883746
 20
-254.9646329610916
 30
0.0
  0
VERTEX
  5
30C
  8
020
  6
CONTINUOUS
 62
     1
 10
846.5048257883745
 20
-254.9646329610916
 30
0.0
  0
VERTEX
  5
30D
  8
020
  6
CONTINUOUS
 62
     1
 10
846.5048257883745
 20
-260.1646329610916
 30
0.0
  0
VERTEX
  5
30E
  8
020
  6
CONTINUOUS
 62
     1
 10
813.4548257883746
 20
-260.1646329610916
 30
0.0
  0
SEQEND
  5
30F
  8
020
  6
CONTINUOUS
 62
     1
  0
TEXT
  5
310
  8
020
 62
     1
 10
827.3687146772635
 20
-258.4315218499805
 30
0.0
 40
2.124016203703704
  1
仕様
  7
YUGOTHIC_MEDIUM
 11
827.3687146772635
 21
-256.3075056462768
 31
0.0
 73
     3
  0
POLYLINE
  5
311
  8
020
  6
CONTINUOUS
 62
     1
 66
     1
 10
0.0
 20
0.0
 30
0.0
 70
   129
  0
VERTEX
  5
312
  8
020
  6
CONTINUOUS
 62
     1
 10
813.4548257883746
 20
-260.1646329610913
 30
0.0
  0
VERTEX
  5
313
  8
020
  6
CONTINUOUS
 62
     1
 10
846.5048257883745
 20
-260.1646329610913
 30
0.0
  0
VERTEX
  5
314
  8
020
  6
CONTINUOUS
 62
     1
 10
846.5048257883745
 20
-265.3646329610914
 30
0.0
  0
VERTEX
  5
315
  8
020
  6
CONTINUOUS
 62
     1
 10
813.4548257883746
 20
-265.3646329610914
 30
0.0
  0
SEQEND
  5
316
  8
020
  6
CONTINUOUS
 62
     1
  0
POLYLINE
  5
317
  8
020
  6
CONTINUOUS
 62
     1
 66
     1
 10
0.0
 20
0.0
 30
0.0
 70
   129
  0
VERTEX
  5
318
  8
020
  6
CONTINUOUS
 62
     1
 10
749.9048257883746
 20
-265.3646329610916
 30
0.0
  0
VERTEX
  5
319
  8
020
  6
CONTINUOUS
 62
     1
 10
760.4027853330043
 20
-265.3646329610916
 30
0.0
  0
VERTEX
  5
31A
  8
020
  6
CONTINUOUS
 62
     1
 10
760.4027853330043
 20
-270.5646329610917
 30
0.0
  0
VERTEX
  5
31B
  8
020
  6
CONTINUOUS
 62
     1
 10
749.9048257883746
 20
-270.5646329610917
 30
0.0
  0
SEQEND
  5
31C
  8
020
  6
CONTINUOUS
 62
     1
  0
POLYLINE
  5
31D
  8
020
  6
CONTINUOUS
 62
     1
 66
     1
 10
0.0
 20
0.0
 30
0.0
 70
   129
  0
VERTEX
  5
31E
  8
020
  6
CONTINUOUS
 62
     1
 10
760.4027853330043
 20
-265.3646329610916
 30
0.0
  0
VERTEX
  5
31F
  8
020
  6
CONTINUOUS
 62
     1
 10
782.8048257883746
 20
-265.3646329610916
 30
0.0
  0
VERTEX
  5
320
  8
020
  6
CONTINUOUS
 62
     1
 10
782.8048257883746
 20
-270.5646329610917
 30
0.0
  0
VERTEX
  5
321
  8
020
  6
CONTINUOUS
 62
     1
 10
760.4027853330043
 20
-270.5646329610917
 30
0.0
  0
SEQEND
  5
322
  8
020
  6
CONTINUOUS
 62
     1
  0
POLYLINE
  5
323
  8
020
  6
CONTINUOUS
 62
     1
 66
     1
 10
0.0
 20
0.0
 30
0.0
 70
   129
  0
VERTEX
  5
324
  8
020
  6
CONTINUOUS
 62
     1
 10
782.8048257883746
 20
-265.3646329610916
 30
0.0
  0
VERTEX
  5
325
  8
020
  6
CONTINUOUS
 62
     1
 10
813.4548257883746
 20
-265.3646329610916
 30
0.0
  0
VERTEX
  5
326
  8
020
  6
CONTINUOUS
 62
     1
 10
813.4548257883746
 20
-270.5646329610917
 30
0.0
  0
VERTEX
  5
327
  8
020
  6
CONTINUOUS
 62
     1
 10
782.8048257883746
 20
-270.5646329610917
 30
0.0
  0
SEQEND
  5
328
  8
020
  6
CONTINUOUS
 62
     1
  0
POLYLINE
  5
329
  8
020
  6
CONTINUOUS
 62
     1
 66
     1
 10
0.0
 20
0.0
 30
0.0
 70
   129
  0
VERTEX
  5
32A
  8
020
  6
CONTINUOUS
 62
     1
 10
813.4548257883746
 20
-265.3646329610916
 30
0.0
  0
VERTEX
  5
32B
  8
020
  6
CONTINUOUS
 62
     1
 10
846.5048257883745
 20
-265.3646329610916
 30
0.0
  0
VERTEX
  5
32C
  8
020
  6
CONTINUOUS
 62
     1
 10
846.5048257883745
 20
-270.5646329610917
 30
0.0
  0
VERTEX
  5
32D
  8
020
  6
CONTINUOUS
 62
     1
 10
813.4548257883746
 20
-270.5646329610917
 30
0.0
  0
SEQEND
  5
32E
  8
020
  6
CONTINUOUS
 62
     1
  0
POLYLINE
  5
32F
  8
020
  6
CONTINUOUS
 62
     1
 66
     1
 10
0.0
 20
0.0
 30
0.0
 70
   129
  0
VERTEX
  5
330
  8
020
  6
CONTINUOUS
 62
     1
 10
749.9048257883746
 20
-270.5646329610919
 30
0.0
  0
VERTEX
  5
331
  8
020
  6
CONTINUOUS
 62
     1
 10
760.4027853330043
 20
-270.5646329610919
 30
0.0
  0
VERTEX
  5
332
  8
020
  6
CONTINUOUS
 62
     1
 10
760.4027853330043
 20
-275.7646329610917
 30
0.0
  0
VERTEX
  5
333
  8
020
  6
CONTINUOUS
 62
     1
 10
749.9048257883746
 20
-275.7646329610917
 30
0.0
  0
SEQEND
  5
334
  8
020
  6
CONTINUOUS
 62
     1
  0
POLYLINE
  5
335
  8
020
  6
CONTINUOUS
 62
     1
 66
     1
 10
0.0
 20
0.0
 30
0.0
 70
   129
  0
VERTEX
  5
336
  8
020
  6
CONTINUOUS
 62
     1
 10
760.4027853330043
 20
-270.5646329610919
 30
0.0
  0
VERTEX
  5
337
  8
020
  6
CONTINUOUS
 62
     1
 10
782.8048257883746
 20
-270.5646329610919
 30
0.0
  0
VERTEX
  5
338
  8
020
  6
CONTINUOUS
 62
     1
 10
782.8048257883746
 20
-275.7646329610917
 30
0.0
  0
VERTEX
  5
339
  8
020
  6
CONTINUOUS
 62
     1
 10
760.4027853330043
 20
-275.7646329610917
 30
0.0
  0
SEQEND
  5
33A
  8
020
  6
CONTINUOUS
 62
     1
  0
POLYLINE
  5
33B
  8
020
  6
CONTINUOUS
 62
     1
 66
     1
 10
0.0
 20
0.0
 30
0.0
 70
   129
  0
VERTEX
  5
33C
  8
020
  6
CONTINUOUS
 62
     1
 10
782.8048257883746
 20
-270.5646329610919
 30
0.0
  0
VERTEX
  5
33D
  8
020
  6
CONTINUOUS
 62
     1
 10
813.4548257883746
 20
-270.5646329610919
 30
0.0
  0
VERTEX
  5
33E
  8
020
  6
CONTINUOUS
 62
     1
 10
813.4548257883746
 20
-275.7646329610917
 30
0.0
  0
VERTEX
  5
33F
  8
020
  6
CONTINUOUS
 62
     1
 10
782.8048257883746
 20
-275.7646329610917
 30
0.0
  0
SEQEND
  5
340
  8
020
  6
CONTINUOUS
 62
     1
  0
POLYLINE
  5
341
  8
020
  6
CONTINUOUS
 62
     1
 66
     1
 10
0.0
 20
0.0
 30
0.0
 70
   129
  0
VERTEX
  5
342
  8
020
  6
CONTINUOUS
 62
     1
 10
813.4548257883746
 20
-270.5646329610919
 30
0.0
  0
VERTEX
  5
343
  8
020
  6
CONTINUOUS
 62
     1
 10
846.5048257883745
 20
-270.5646329610919
 30
0.0
  0
VERTEX
  5
344
  8
020
  6
CONTINUOUS
 62
     1
 10
846.5048257883745
 20
-275.7646329610917
 30
0.0
  0
VERTEX
  5
345
  8
020
  6
CONTINUOUS
 62
     1
 10
813.4548257883746
 20
-275.7646329610917
 30
0.0
  0
SEQEND
  5
346
  8
020
  6
CONTINUOUS
 62
     1
  0
POLYLINE
  5
347
  8
020
  6
CONTINUOUS
 62
     1
 66
     1
 10
0.0
 20
0.0
 30
0.0
 70
   129
  0
VERTEX
  5
348
  8
020
  6
CONTINUOUS
 62
     1
 10
749.9048257883746
 20
-275.7646329610915
 30
0.0
  0
VERTEX
  5
349
  8
020
  6
CONTINUOUS
 62
     1
 10
760.4027853330043
 20
-275.7646329610915
 30
0.0
  0
VERTEX
  5
34A
  8
020
  6
CONTINUOUS
 62
     1
 10
760.4027853330043
 20
-280.9646329610915
 30
0.0
  0
VERTEX
  5
34B
  8
020
  6
CONTINUOUS
 62
     1
 10
749.9048257883746
 20
-280.9646329610915
 30
0.0
  0
SEQEND
  5
34C
  8
020
  6
CONTINUOUS
 62
     1
  0
POLYLINE
  5
34D
  8
020
  6
CONTINUOUS
 62
     1
 66
     1
 10
0.0
 20
0.0
 30
0.0
 70
   129
  0
VERTEX
  5
34E
  8
020
  6
CONTINUOUS
 62
     1
 10
760.4027853330043
 20
-275.7646329610915
 30
0.0
  0
VERTEX
  5
34F
  8
020
  6
CONTINUOUS
 62
     1
 10
782.8048257883746
 20
-275.7646329610915
 30
0.0
  0
VERTEX
  5
350
  8
020
  6
CONTINUOUS
 62
     1
 10
782.8048257883746
 20
-280.9646329610915
 30
0.0
  0
VERTEX
  5
351
  8
020
  6
CONTINUOUS
 62
     1
 10
760.4027853330043
 20
-280.9646329610915
 30
0.0
  0
SEQEND
  5
352
  8
020
  6
CONTINUOUS
 62
     1
  0
POLYLINE
  5
353
  8
020
  6
CONTINUOUS
 62
     1
 66
     1
 10
0.0
 20
0.0
 30
0.0
 70
   129
  0
VERTEX
  5
354
  8
020
  6
CONTINUOUS
 62
     1
 10
782.8048257883746
 20
-275.7646329610915
 30
0.0
  0
VERTEX
  5
355
  8
020
  6
CONTINUOUS
 62
     1
 10
813.4548257883746
 20
-275.7646329610915
 30
0.0
  0
VERTEX
  5
356
  8
020
  6
CONTINUOUS
 62
     1
 10
813.4548257883746
 20
-280.9646329610915
 30
0.0
  0
VERTEX
  5
357
  8
020
  6
CONTINUOUS
 62
     1
 10
782.8048257883746
 20
-280.9646329610915
 30
0.0
  0
SEQEND
  5
358
  8
020
  6
CONTINUOUS
 62
     1
  0
POLYLINE
  5
359
  8
020
  6
CONTINUOUS
 62
     1
 66
     1
 10
0.0
 20
0.0
 30
0.0
 70
   129
  0
VERTEX
  5
35A
  8
020
  6
CONTINUOUS
 62
     1
 10
813.4548257883746
 20
-275.7646329610915
 30
0.0
  0
VERTEX
  5
35B
  8
020
  6
CONTINUOUS
 62
     1
 10
846.5048257883745
 20
-275.7646329610915
 30
0.0
  0
VERTEX
  5
35C
  8
020
  6
CONTINUOUS
 62
     1
 10
846.5048257883745
 20
-280.9646329610915
 30
0.0
  0
VERTEX
  5
35D
  8
020
  6
CONTINUOUS
 62
     1
 10
813.4548257883746
 20
-280.9646329610915
 30
0.0
  0
SEQEND
  5
35E
  8
020
  6
CONTINUOUS
 62
     1
  0
POLYLINE
  5
35F
  8
020
  6
CONTINUOUS
 62
     1
 66
     1
 10
0.0
 20
0.0
 30
0.0
 70
   129
  0
VERTEX
  5
360
  8
020
  6
CONTINUOUS
 62
     1
 10
749.9048257883746
 20
-280.9646329610918
 30
0.0
  0
VERTEX
  5
361
  8
020
  6
CONTINUOUS
 62
     1
 10
760.4027853330043
 20
-280.9646329610918
 30
0.0
  0
VERTEX
  5
362
  8
020
  6
CONTINUOUS
 62
     1
 10
760.4027853330043
 20
-286.1646329610918
 30
0.0
  0
VERTEX
  5
363
  8
020
  6
CONTINUOUS
 62
     1
 10
749.9048257883746
 20
-286.1646329610918
 30
0.0
  0
SEQEND
  5
364
  8
020
  6
CONTINUOUS
 62
     1
  0
POLYLINE
  5
365
  8
020
  6
CONTINUOUS
 62
     1
 66
     1
 10
0.0
 20
0.0
 30
0.0
 70
   129
  0
VERTEX
  5
366
  8
020
  6
CONTINUOUS
 62
     1
 10
760.4027853330043
 20
-280.9646329610918
 30
0.0
  0
VERTEX
  5
367
  8
020
  6
CONTINUOUS
 62
     1
 10
782.8048257883746
 20
-280.9646329610918
 30
0.0
  0
VERTEX
  5
368
  8
020
  6
CONTINUOUS
 62
     1
 10
782.8048257883746
 20
-286.1646329610918
 30
0.0
  0
VERTEX
  5
369
  8
020
  6
CONTINUOUS
 62
     1
 10
760.4027853330043
 20
-286.1646329610918
 30
0.0
  0
SEQEND
  5
36A
  8
020
  6
CONTINUOUS
 62
     1
  0
POLYLINE
  5
36B
  8
020
  6
CONTINUOUS
 62
     1
 66
     1
 10
0.0
 20
0.0
 30
0.0
 70
   129
  0
VERTEX
  5
36C
  8
020
  6
CONTINUOUS
 62
     1
 10
782.8048257883746
 20
-280.9646329610918
 30
0.0
  0
VERTEX
  5
36D
  8
020
  6
CONTINUOUS
 62
     1
 10
813.4548257883746
 20
-280.9646329610918
 30
0.0
  0
VERTEX
  5
36E
  8
020
  6
CONTINUOUS
 62
     1
 10
813.4548257883746
 20
-286.1646329610918
 30
0.0
  0
VERTEX
  5
36F
  8
020
  6
CONTINUOUS
 62
     1
 10
782.8048257883746
 20
-286.1646329610918
 30
0.0
  0
SEQEND
  5
370
  8
020
  6
CONTINUOUS
 62
     1
  0
POLYLINE
  5
371
  8
020
  6
CONTINUOUS
 62
     1
 66
     1
 10
0.0
 20
0.0
 30
0.0
 70
   129
  0
VERTEX
  5
372
  8
020
  6
CONTINUOUS
 62
     1
 10
813.4548257883746
 20
-280.9646329610918
 30
0.0
  0
VERTEX
  5
373
  8
020
  6
CONTINUOUS
 62
     1
 10
846.5048257883745
 20
-280.9646329610918
 30
0.0
  0
VERTEX
  5
374
  8
020
  6
CONTINUOUS
 62
     1
 10
846.5048257883745
 20
-286.1646329610918
 30
0.0
  0
VERTEX
  5
375
  8
020
  6
CONTINUOUS
 62
     1
 10
813.4548257883746
 20
-286.1646329610918
 30
0.0
  0
SEQEND
  5
376
  8
020
  6
CONTINUOUS
 62
     1
  0
TEXT
  5
377
  8
SAKUZU
 62
     1
 10
795.398947812184
 20
-268.9757939190544
 30
0.0
 40
2.124016203703704
  1
ホンデ
  7
YUGOTHIC_MEDIUM
 72
     1
 11
798.1298257883745
 21
-268.9757939190544
 31
0.0
  0
TEXT
  5
378
  8
SAKUZU
 62
     1
 10
820.6876590678783
 20
-263.837077405536
 30
0.0
 40
2.124016203703704
  1
t 1.0 NO.4仕上
  7
YUGOTHIC_MEDIUM
  0
TEXT
  5
379
  8
SAKUZU
 62
     1
 10
820.6876590678783
 20
-269.0370774055358
 30
0.0
 40
2.124016203703704
  1
t 1.0
  7
YUGOTHIC_MEDIUM
  0
TEXT
  5
37A
  8
SAKUZU
 62
     1
 10
823.7709367649117
 20
-279.4370774055361
 30
0.0
 40
2.124016203703704
  1
t 1.0 φ38
  7
YUGOTHIC_MEDIUM
  0
TEXT
  5
37B
  8
SAKUZU
 62
     1
 10
762.7136551534539
 20
-295.037077405536
 30
0.0
 40
2.124016203703704
  1
製品重量
  7
YUGOTHIC_MEDIUM
 72
     1
 11
766.3548257883746
 21
-295.037077405536
 31
0.0
  0
POLYLINE
  5
37C
  8
020
  6
CONTINUOUS
 62
     1
 66
     1
 10
0.0
 20
0.0
 30
0.0
 70
   129
  0
VERTEX
  5
37D
  8
020
  6
CONTINUOUS
 62
     1
 10
749.9048257883746
 20
-291.3646329610918
 30
0.0
  0
VERTEX
  5
37E
  8
020
  6
CONTINUOUS
 62
     1
 10
782.8048257883746
 20
-291.3646329610918
 30
0.0
  0
VERTEX
  5
37F
  8
020
  6
CONTINUOUS
 62
     1
 10
782.8048257883746
 20
-296.5646329610919
 30
0.0
  0
VERTEX
  5
380
  8
020
  6
CONTINUOUS
 62
     1
 10
749.9048257883746
 20
-296.5646329610919
 30
0.0
  0
SEQEND
  5
381
  8
020
  6
CONTINUOUS
 62
     1
  0
POLYLINE
  5
382
  8
020
  6
CONTINUOUS
 62
     1
 66
     1
 10
0.0
 20
0.0
 30
0.0
 70
   129
  0
VERTEX
  5
383
  8
020
  6
CONTINUOUS
 62
     1
 10
782.8048257883746
 20
-291.3646329610918
 30
0.0
  0
VERTEX
  5
384
  8
020
  6
CONTINUOUS
 62
     1
 10
846.5048257883745
 20
-291.3646329610918
 30
0.0
  0
VERTEX
  5
385
  8
020
  6
CONTINUOUS
 62
     1
 10
846.5048257883745
 20
-296.5646329610919
 30
0.0
  0
VERTEX
  5
386
  8
020
  6
CONTINUOUS
 62
     1
 10
782.8048257883746
 20
-296.5646329610919
 30
0.0
  0
SEQEND
  5
387
  8
020
  6
CONTINUOUS
 62
     1
  0
TEXT
  5
388
  8
LAYER0002
 62
     1
 10
800.3430023205616
 20
-295.1535218499808
 30
0.0
 40
2.124016203703704
  1
17.4kg（W900の場合）
  7
YUGOTHIC_MEDIUM
 72
     1
 11
814.6548257883746
 21
-295.1535218499808
 31
0.0
  0
TEXT
  5
389
  8
SAKUZU
 62
     1
 10
768.063655153454
 20
-274.5757440722028
 30
0.0
 40
2.124016203703704
  1
スノコ板
  7
YUGOTHIC_MEDIUM
 72
     1
 11
771.7048257883746
 21
-274.5757440722028
 31
0.0
  0
TEXT
  5
38A
  8
SAKUZU
 62
     1
 10
792.6680698359936
 20
-274.5757440722028
 30
0.0
 40
2.124016203703704
  1
ＳＵＳ４３０
  7
YUGOTHIC_MEDIUM
 72
     1
 11
798.1298257883745
 21
-274.5757440722028
 31
0.0
  0
TEXT
  5
38B
  8
SAKUZU
 62
     1
 10
820.6876590678783
 20
-274.5757440722028
 30
0.0
 40
2.124016203703704
  1
t 1.0 NO.4仕上
  7
YUGOTHIC_MEDIUM
  0
INSERT
  5
38C
  8
__-3
 62
    17
  2
____-2-1
 10
711.2328257883746
 20
-148.5000416295412
 30
0.0
  0
POLYLINE
  5
38D
  8
020
  6
CONTINUOUS
 62
     1
 66
     1
 10
0.0
 20
0.0
 30
0.0
 70
   129
  0
VERTEX
  5
38E
  8
020
  6
CONTINUOUS
 62
     1
 10
749.9048257883746
 20
-456.3132404229671
 30
0.0
  0
VERTEX
  5
38F
  8
020
  6
CONTINUOUS
 62
     1
 10
760.4027853330043
 20
-456.3132404229671
 30
0.0
  0
VERTEX
  5
390
  8
020
  6
CONTINUOUS
 62
     1
 10
760.4027853330043
 20
-461.5132404229671
 30
0.0
  0
VERTEX
  5
391
  8
020
  6
CONTINUOUS
 62
     1
 10
749.9048257883746
 20
-461.5132404229671
 30
0.0
  0
SEQEND
  5
392
  8
020
  6
CONTINUOUS
 62
     1
  0
TEXT
  5
393
  8
020
 62
     1
 10
753.1544014544509
 20
-459.7634626451891
 30
0.0
 40
2.124016203703704
  1
NO
  7
YUGOTHIC_MEDIUM
 11
753.1544014544509
 21
-457.6394464414853
 31
0.0
 73
     3
  0
TEXT
  5
394
  8
020
 62
     1
 10
768.7815833384673
 20
-459.7901293118557
 30
0.0
 40
2.124016203703704
  1
名称
  7
YUGOTHIC_MEDIUM
 11
768.7815833384673
 21
-457.666113108152
 31
0.0
 73
     3
  0
POLYLINE
  5
395
  8
020
  6
CONTINUOUS
 62
     1
 66
     1
 10
0.0
 20
0.0
 30
0.0
 70
   129
  0
VERTEX
  5
396
  8
020
  6
CONTINUOUS
 62
     1
 10
760.4027853330043
 20
-456.3132404229671
 30
0.0
  0
VERTEX
  5
397
  8
020
  6
CONTINUOUS
 62
     1
 10
782.8048257883746
 20
-456.3132404229671
 30
0.0
  0
VERTEX
  5
398
  8
020
  6
CONTINUOUS
 62
     1
 10
782.8048257883746
 20
-461.5132404229671
 30
0.0
  0
VERTEX
  5
399
  8
020
  6
CONTINUOUS
 62
     1
 10
760.4027853330043
 20
-461.5132404229671
 30
0.0
  0
SEQEND
  5
39A
  8
020
  6
CONTINUOUS
 62
     1
  0
POLYLINE
  5
39B
  8
020
  6
CONTINUOUS
 62
     1
 66
     1
 10
0.0
 20
0.0
 30
0.0
 70
   129
  0
VERTEX
  5
39C
  8
020
  6
CONTINUOUS
 62
     1
 10
782.8048257883746
 20
-456.3132404229671
 30
0.0
  0
VERTEX
  5
39D
  8
020
  6
CONTINUOUS
 62
     1
 10
813.4548257883746
 20
-456.3132404229671
 30
0.0
  0
VERTEX
  5
39E
  8
020
  6
CONTINUOUS
 62
     1
 10
813.4548257883746
 20
-461.5132404229671
 30
0.0
  0
VERTEX
  5
39F
  8
020
  6
CONTINUOUS
 62
     1
 10
782.8048257883746
 20
-461.5132404229671
 30
0.0
  0
SEQEND
  5
3A0
  8
020
  6
CONTINUOUS
 62
     1
  0
TEXT
  5
3A1
  8
020
 62
     1
 10
795.1437146772635
 20
-459.7801293118559
 30
0.0
 40
2.124016203703704
  1
材質
  7
YUGOTHIC_MEDIUM
 11
795.1437146772635
 21
-457.6561131081522
 31
0.0
 73
     3
  0
POLYLINE
  5
3A2
  8
020
  6
CONTINUOUS
 62
     1
 66
     1
 10
0.0
 20
0.0
 30
0.0
 70
   129
  0
VERTEX
  5
3A3
  8
020
  6
CONTINUOUS
 62
     1
 10
749.9048257883746
 20
-461.5132404229669
 30
0.0
  0
VERTEX
  5
3A4
  8
020
  6
CONTINUOUS
 62
     1
 10
760.4027853330043
 20
-461.5132404229669
 30
0.0
  0
VERTEX
  5
3A5
  8
020
  6
CONTINUOUS
 62
     1
 10
760.4027853330043
 20
-466.7132404229669
 30
0.0
  0
VERTEX
  5
3A6
  8
020
  6
CONTINUOUS
 62
     1
 10
749.9048257883746
 20
-466.7132404229669
 30
0.0
  0
SEQEND
  5
3A7
  8
020
  6
CONTINUOUS
 62
     1
  0
POLYLINE
  5
3A8
  8
020
  6
CONTINUOUS
 62
     1
 66
     1
 10
0.0
 20
0.0
 30
0.0
 70
   129
  0
VERTEX
  5
3A9
  8
020
  6
CONTINUOUS
 62
     1
 10
760.4027853330043
 20
-461.5132404229669
 30
0.0
  0
VERTEX
  5
3AA
  8
020
  6
CONTINUOUS
 62
     1
 10
782.8048257883746
 20
-461.5132404229669
 30
0.0
  0
VERTEX
  5
3AB
  8
020
  6
CONTINUOUS
 62
     1
 10
782.8048257883746
 20
-466.7132404229669
 30
0.0
  0
VERTEX
  5
3AC
  8
020
  6
CONTINUOUS
 62
     1
 10
760.4027853330043
 20
-466.7132404229669
 30
0.0
  0
SEQEND
  5
3AD
  8
020
  6
CONTINUOUS
 62
     1
  0
POLYLINE
  5
3AE
  8
020
  6
CONTINUOUS
 62
     1
 66
     1
 10
0.0
 20
0.0
 30
0.0
 70
   129
  0
VERTEX
  5
3AF
  8
020
  6
CONTINUOUS
 62
     1
 10
782.8048257883746
 20
-461.5132404229669
 30
0.0
  0
VERTEX
  5
3B0
  8
020
  6
CONTINUOUS
 62
     1
 10
813.4548257883746
 20
-461.5132404229669
 30
0.0
  0
VERTEX
  5
3B1
  8
020
  6
CONTINUOUS
 62
     1
 10
813.4548257883746
 20
-466.7132404229669
 30
0.0
  0
VERTEX
  5
3B2
  8
020
  6
CONTINUOUS
 62
     1
 10
782.8048257883746
 20
-466.7132404229669
 30
0.0
  0
SEQEND
  5
3B3
  8
020
  6
CONTINUOUS
 62
     1
  0
TEXT
  5
3B4
  8
SAKUZU
 62
     1
 10
754.1113490455264
 20
-475.3280347126254
 30
0.0
 40
2.124016203703704
  1
3
  7
YUGOTHIC_MEDIUM
 72
     1
 11
755.1227853330043
 21
-475.3280347126254
 31
0.0
  0
TEXT
  5
3B5
  8
SAKUZU
 62
     1
 10
770.6424926742741
 20
-480.9332404229674
 30
0.0
 40
2.124016203703704
  1
脚
  7
YUGOTHIC_MEDIUM
 72
     1
 11
771.5527853330043
 21
-480.9332404229674
 31
0.0
  0
TEXT
  5
3B6
  8
SAKUZU
 62
     1
 10
767.1533624947238
 20
-470.3856848674113
 30
0.0
 40
2.124016203703704
  1
トップ補強
  7
YUGOTHIC_MEDIUM
 72
     1
 11
771.7048257883746
 21
-470.3856848674113
 31
0.0
  0
TEXT
  5
3B7
  8
SAKUZU
 62
     1
 10
754.2435129019592
 20
-470.3856848674113
 30
0.0
 40
2.124016203703704
  1
２
  7
YUGOTHIC_MEDIUM
 72
     1
 11
755.1538055606894
 21
-470.3856848674113
 31
0.0
  0
TEXT
  5
3B8
  8
SAKUZU
 62
     1
 10
754.2435129019592
 20
-465.1856848674115
 30
0.0
 40
2.124016203703704
  1
１
  7
YUGOTHIC_MEDIUM
 72
     1
 11
755.1538055606894
 21
-465.1856848674115
 31
0.0
  0
TEXT
  5
3B9
  8
SAKUZU
 62
     1
 10
768.9739478121841
 20
-465.1856848674115
 30
0.0
 40
2.124016203703704
  1
トップ
  7
YUGOTHIC_MEDIUM
 72
     1
 11
771.7048257883746
 21
-465.1856848674115
 31
0.0
  0
TEXT
  5
3BA
  8
SAKUZU
 62
     1
 10
792.6680698359936
 20
-465.1856848674115
 30
0.0
 40
2.124016203703704
  1
ＳＵＳ４３０
  7
YUGOTHIC_MEDIUM
 72
     1
 11
798.1298257883745
 21
-465.1856848674115
 31
0.0
  0
TEXT
  5
3BB
  8
SAKUZU
 62
     1
 10
754.0917974588376
 20
-480.8479615564104
 30
0.0
 40
2.124016203703704
  1
4
  7
YUGOTHIC_MEDIUM
 72
     1
 11
755.1538055606894
 21
-480.8479615564104
 31
0.0
  0
TEXT
  5
3BC
  8
SAKUZU
 62
     1
 10
792.6680698359936
 20
-480.7856848674116
 30
0.0
 40
2.124016203703704
  1
ＳＵＳ３０４
  7
YUGOTHIC_MEDIUM
 72
     1
 11
798.1298257883745
 21
-480.7856848674116
 31
0.0
  0
TEXT
  5
3BD
  8
SAKUZU
 62
     1
 10
767.0523422670386
 20
-485.9856848674115
 30
0.0
 40
2.124016203703704
  1
アジャスト
  7
YUGOTHIC_MEDIUM
 72
     1
 11
771.6038055606895
 21
-485.9856848674115
 31
0.0
  0
TEXT
  5
3BE
  8
SAKUZU
 62
     1
 10
754.1423692732114
 20
-485.9856848674115
 30
0.0
 40
2.124016203703704
  1
5
  7
YUGOTHIC_MEDIUM
 72
     1
 11
755.1538055606894
 21
-485.9856848674115
 31
0.0
  0
TEXT
  5
3BF
  8
SAKUZU
 62
     1
 10
792.6680698359936
 20
-486.2043410239182
 30
0.0
 40
2.124016203703704
  1
ＳＵＳ３０４
  7
YUGOTHIC_MEDIUM
 72
     1
 11
798.1298257883745
 21
-486.2043410239182
 31
0.0
  0
POLYLINE
  5
3C0
  8
020
  6
CONTINUOUS
 62
     1
 66
     1
 10
0.0
 20
0.0
 30
0.0
 70
   129
  0
VERTEX
  5
3C1
  8
020
  6
CONTINUOUS
 62
     1
 10
813.4548257883746
 20
-456.3132404229671
 30
0.0
  0
VERTEX
  5
3C2
  8
020
  6
CONTINUOUS
 62
     1
 10
846.5048257883745
 20
-456.3132404229671
 30
0.0
  0
VERTEX
  5
3C3
  8
020
  6
CONTINUOUS
 62
     1
 10
846.5048257883745
 20
-461.5132404229671
 30
0.0
  0
VERTEX
  5
3C4
  8
020
  6
CONTINUOUS
 62
     1
 10
813.4548257883746
 20
-461.5132404229671
 30
0.0
  0
SEQEND
  5
3C5
  8
020
  6
CONTINUOUS
 62
     1
  0
TEXT
  5
3C6
  8
020
 62
     1
 10
827.3687146772635
 20
-459.7801293118559
 30
0.0
 40
2.124016203703704
  1
仕様
  7
YUGOTHIC_MEDIUM
 11
827.3687146772635
 21
-457.6561131081522
 31
0.0
 73
     3
  0
POLYLINE
  5
3C7
  8
020
  6
CONTINUOUS
 62
     1
 66
     1
 10
0.0
 20
0.0
 30
0.0
 70
   129
  0
VERTEX
  5
3C8
  8
020
  6
CONTINUOUS
 62
     1
 10
813.4548257883746
 20
-461.5132404229669
 30
0.0
  0
VERTEX
  5
3C9
  8
020
  6
CONTINUOUS
 62
     1
 10
846.5048257883745
 20
-461.5132404229669
 30
0.0
  0
VERTEX
  5
3CA
  8
020
  6
CONTINUOUS
 62
     1
 10
846.5048257883745
 20
-466.7132404229669
 30
0.0
  0
VERTEX
  5
3CB
  8
020
  6
CONTINUOUS
 62
     1
 10
813.4548257883746
 20
-466.7132404229669
 30
0.0
  0
SEQEND
  5
3CC
  8
020
  6
CONTINUOUS
 62
     1
  0
POLYLINE
  5
3CD
  8
020
  6
CONTINUOUS
 62
     1
 66
     1
 10
0.0
 20
0.0
 30
0.0
 70
   129
  0
VERTEX
  5
3CE
  8
020
  6
CONTINUOUS
 62
     1
 10
749.9048257883746
 20
-466.7132404229671
 30
0.0
  0
VERTEX
  5
3CF
  8
020
  6
CONTINUOUS
 62
     1
 10
760.4027853330043
 20
-466.7132404229671
 30
0.0
  0
VERTEX
  5
3D0
  8
020
  6
CONTINUOUS
 62
     1
 10
760.4027853330043
 20
-471.9132404229672
 30
0.0
  0
VERTEX
  5
3D1
  8
020
  6
CONTINUOUS
 62
     1
 10
749.9048257883746
 20
-471.9132404229672
 30
0.0
  0
SEQEND
  5
3D2
  8
020
  6
CONTINUOUS
 62
     1
  0
POLYLINE
  5
3D3
  8
020
  6
CONTINUOUS
 62
     1
 66
     1
 10
0.0
 20
0.0
 30
0.0
 70
   129
  0
VERTEX
  5
3D4
  8
020
  6
CONTINUOUS
 62
     1
 10
760.4027853330043
 20
-466.7132404229671
 30
0.0
  0
VERTEX
  5
3D5
  8
020
  6
CONTINUOUS
 62
     1
 10
782.8048257883746
 20
-466.7132404229671
 30
0.0
  0
VERTEX
  5
3D6
  8
020
  6
CONTINUOUS
 62
     1
 10
782.8048257883746
 20
-471.9132404229672
 30
0.0
  0
VERTEX
  5
3D7
  8
020
  6
CONTINUOUS
 62
     1
 10
760.4027853330043
 20
-471.9132404229672
 30
0.0
  0
SEQEND
  5
3D8
  8
020
  6
CONTINUOUS
 62
     1
  0
POLYLINE
  5
3D9
  8
020
  6
CONTINUOUS
 62
     1
 66
     1
 10
0.0
 20
0.0
 30
0.0
 70
   129
  0
VERTEX
  5
3DA
  8
020
  6
CONTINUOUS
 62
     1
 10
782.8048257883746
 20
-466.7132404229671
 30
0.0
  0
VERTEX
  5
3DB
  8
020
  6
CONTINUOUS
 62
     1
 10
813.4548257883746
 20
-466.7132404229671
 30
0.0
  0
VERTEX
  5
3DC
  8
020
  6
CONTINUOUS
 62
     1
 10
813.4548257883746
 20
-471.9132404229672
 30
0.0
  0
VERTEX
  5
3DD
  8
020
  6
CONTINUOUS
 62
     1
 10
782.8048257883746
 20
-471.9132404229672
 30
0.0
  0
SEQEND
  5
3DE
  8
020
  6
CONTINUOUS
 62
     1
  0
POLYLINE
  5
3DF
  8
020
  6
CONTINUOUS
 62
     1
 66
     1
 10
0.0
 20
0.0
 30
0.0
 70
   129
  0
VERTEX
  5
3E0
  8
020
  6
CONTINUOUS
 62
     1
 10
813.4548257883746
 20
-466.7132404229671
 30
0.0
  0
VERTEX
  5
3E1
  8
020
  6
CONTINUOUS
 62
     1
 10
846.5048257883745
 20
-466.7132404229671
 30
0.0
  0
VERTEX
  5
3E2
  8
020
  6
CONTINUOUS
 62
     1
 10
846.5048257883745
 20
-471.9132404229672
 30
0.0
  0
VERTEX
  5
3E3
  8
020
  6
CONTINUOUS
 62
     1
 10
813.4548257883746
 20
-471.9132404229672
 30
0.0
  0
SEQEND
  5
3E4
  8
020
  6
CONTINUOUS
 62
     1
  0
POLYLINE
  5
3E5
  8
020
  6
CONTINUOUS
 62
     1
 66
     1
 10
0.0
 20
0.0
 30
0.0
 70
   129
  0
VERTEX
  5
3E6
  8
020
  6
CONTINUOUS
 62
     1
 10
749.9048257883746
 20
-471.9132404229674
 30
0.0
  0
VERTEX
  5
3E7
  8
020
  6
CONTINUOUS
 62
     1
 10
760.4027853330043
 20
-471.9132404229674
 30
0.0
  0
VERTEX
  5
3E8
  8
020
  6
CONTINUOUS
 62
     1
 10
760.4027853330043
 20
-477.1132404229672
 30
0.0
  0
VERTEX
  5
3E9
  8
020
  6
CONTINUOUS
 62
     1
 10
749.9048257883746
 20
-477.1132404229672
 30
0.0
  0
SEQEND
  5
3EA
  8
020
  6
CONTINUOUS
 62
     1
  0
POLYLINE
  5
3EB
  8
020
  6
CONTINUOUS
 62
     1
 66
     1
 10
0.0
 20
0.0
 30
0.0
 70
   129
  0
VERTEX
  5
3EC
  8
020
  6
CONTINUOUS
 62
     1
 10
760.4027853330043
 20
-471.9132404229674
 30
0.0
  0
VERTEX
  5
3ED
  8
020
  6
CONTINUOUS
 62
     1
 10
782.8048257883746
 20
-471.9132404229674
 30
0.0
  0
VERTEX
  5
3EE
  8
020
  6
CONTINUOUS
 62
     1
 10
782.8048257883746
 20
-477.1132404229672
 30
0.0
  0
VERTEX
  5
3EF
  8
020
  6
CONTINUOUS
 62
     1
 10
760.4027853330043
 20
-477.1132404229672
 30
0.0
  0
SEQEND
  5
3F0
  8
020
  6
CONTINUOUS
 62
     1
  0
POLYLINE
  5
3F1
  8
020
  6
CONTINUOUS
 62
     1
 66
     1
 10
0.0
 20
0.0
 30
0.0
 70
   129
  0
VERTEX
  5
3F2
  8
020
  6
CONTINUOUS
 62
     1
 10
782.8048257883746
 20
-471.9132404229674
 30
0.0
  0
VERTEX
  5
3F3
  8
020
  6
CONTINUOUS
 62
     1
 10
813.4548257883746
 20
-471.9132404229674
 30
0.0
  0
VERTEX
  5
3F4
  8
020
  6
CONTINUOUS
 62
     1
 10
813.4548257883746
 20
-477.1132404229672
 30
0.0
  0
VERTEX
  5
3F5
  8
020
  6
CONTINUOUS
 62
     1
 10
782.8048257883746
 20
-477.1132404229672
 30
0.0
  0
SEQEND
  5
3F6
  8
020
  6
CONTINUOUS
 62
     1
  0
POLYLINE
  5
3F7
  8
020
  6
CONTINUOUS
 62
     1
 66
     1
 10
0.0
 20
0.0
 30
0.0
 70
   129
  0
VERTEX
  5
3F8
  8
020
  6
CONTINUOUS
 62
     1
 10
813.4548257883746
 20
-471.9132404229674
 30
0.0
  0
VERTEX
  5
3F9
  8
020
  6
CONTINUOUS
 62
     1
 10
846.5048257883745
 20
-471.9132404229674
 30
0.0
  0
VERTEX
  5
3FA
  8
020
  6
CONTINUOUS
 62
     1
 10
846.5048257883745
 20
-477.1132404229672
 30
0.0
  0
VERTEX
  5
3FB
  8
020
  6
CONTINUOUS
 62
     1
 10
813.4548257883746
 20
-477.1132404229672
 30
0.0
  0
SEQEND
  5
3FC
  8
020
  6
CONTINUOUS
 62
     1
  0
POLYLINE
  5
3FD
  8
020
  6
CONTINUOUS
 62
     1
 66
     1
 10
0.0
 20
0.0
 30
0.0
 70
   129
  0
VERTEX
  5
3FE
  8
020
  6
CONTINUOUS
 62
     1
 10
749.9048257883746
 20
-477.113240422967
 30
0.0
  0
VERTEX
  5
3FF
  8
020
  6
CONTINUOUS
 62
     1
 10
760.4027853330043
 20
-477.113240422967
 30
0.0
  0
VERTEX
  5
400
  8
020
  6
CONTINUOUS
 62
     1
 10
760.4027853330043
 20
-482.3132404229671
 30
0.0
  0
VERTEX
  5
401
  8
020
  6
CONTINUOUS
 62
     1
 10
749.9048257883746
 20
-482.3132404229671
 30
0.0
  0
SEQEND
  5
402
  8
020
  6
CONTINUOUS
 62
     1
  0
POLYLINE
  5
403
  8
020
  6
CONTINUOUS
 62
     1
 66
     1
 10
0.0
 20
0.0
 30
0.0
 70
   129
  0
VERTEX
  5
404
  8
020
  6
CONTINUOUS
 62
     1
 10
760.4027853330043
 20
-477.113240422967
 30
0.0
  0
VERTEX
  5
405
  8
020
  6
CONTINUOUS
 62
     1
 10
782.8048257883746
 20
-477.113240422967
 30
0.0
  0
VERTEX
  5
406
  8
020
  6
CONTINUOUS
 62
     1
 10
782.8048257883746
 20
-482.3132404229671
 30
0.0
  0
VERTEX
  5
407
  8
020
  6
CONTINUOUS
 62
     1
 10
760.4027853330043
 20
-482.3132404229671
 30
0.0
  0
SEQEND
  5
408
  8
020
  6
CONTINUOUS
 62
     1
  0
POLYLINE
  5
409
  8
020
  6
CONTINUOUS
 62
     1
 66
     1
 10
0.0
 20
0.0
 30
0.0
 70
   129
  0
VERTEX
  5
40A
  8
020
  6
CONTINUOUS
 62
     1
 10
782.8048257883746
 20
-477.113240422967
 30
0.0
  0
VERTEX
  5
40B
  8
020
  6
CONTINUOUS
 62
     1
 10
813.4548257883746
 20
-477.113240422967
 30
0.0
  0
VERTEX
  5
40C
  8
020
  6
CONTINUOUS
 62
     1
 10
813.4548257883746
 20
-482.3132404229671
 30
0.0
  0
VERTEX
  5
40D
  8
020
  6
CONTINUOUS
 62
     1
 10
782.8048257883746
 20
-482.3132404229671
 30
0.0
  0
SEQEND
  5
40E
  8
020
  6
CONTINUOUS
 62
     1
  0
POLYLINE
  5
40F
  8
020
  6
CONTINUOUS
 62
     1
 66
     1
 10
0.0
 20
0.0
 30
0.0
 70
   129
  0
VERTEX
  5
410
  8
020
  6
CONTINUOUS
 62
     1
 10
813.4548257883746
 20
-477.113240422967
 30
0.0
  0
VERTEX
  5
411
  8
020
  6
CONTINUOUS
 62
     1
 10
846.5048257883745
 20
-477.113240422967
 30
0.0
  0
VERTEX
  5
412
  8
020
  6
CONTINUOUS
 62
     1
 10
846.5048257883745
 20
-482.3132404229671
 30
0.0
  0
VERTEX
  5
413
  8
020
  6
CONTINUOUS
 62
     1
 10
813.4548257883746
 20
-482.3132404229671
 30
0.0
  0
SEQEND
  5
414
  8
020
  6
CONTINUOUS
 62
     1
  0
POLYLINE
  5
415
  8
020
  6
CONTINUOUS
 62
     1
 66
     1
 10
0.0
 20
0.0
 30
0.0
 70
   129
  0
VERTEX
  5
416
  8
020
  6
CONTINUOUS
 62
     1
 10
749.9048257883746
 20
-482.3132404229673
 30
0.0
  0
VERTEX
  5
417
  8
020
  6
CONTINUOUS
 62
     1
 10
760.4027853330043
 20
-482.3132404229673
 30
0.0
  0
VERTEX
  5
418
  8
020
  6
CONTINUOUS
 62
     1
 10
760.4027853330043
 20
-487.5132404229673
 30
0.0
  0
VERTEX
  5
419
  8
020
  6
CONTINUOUS
 62
     1
 10
749.9048257883746
 20
-487.5132404229673
 30
0.0
  0
SEQEND
  5
41A
  8
020
  6
CONTINUOUS
 62
     1
  0
POLYLINE
  5
41B
  8
020
  6
CONTINUOUS
 62
     1
 66
     1
 10
0.0
 20
0.0
 30
0.0
 70
   129
  0
VERTEX
  5
41C
  8
020
  6
CONTINUOUS
 62
     1
 10
760.4027853330043
 20
-482.3132404229673
 30
0.0
  0
VERTEX
  5
41D
  8
020
  6
CONTINUOUS
 62
     1
 10
782.8048257883746
 20
-482.3132404229673
 30
0.0
  0
VERTEX
  5
41E
  8
020
  6
CONTINUOUS
 62
     1
 10
782.8048257883746
 20
-487.5132404229673
 30
0.0
  0
VERTEX
  5
41F
  8
020
  6
CONTINUOUS
 62
     1
 10
760.4027853330043
 20
-487.5132404229673
 30
0.0
  0
SEQEND
  5
420
  8
020
  6
CONTINUOUS
 62
     1
  0
POLYLINE
  5
421
  8
020
  6
CONTINUOUS
 62
     1
 66
     1
 10
0.0
 20
0.0
 30
0.0
 70
   129
  0
VERTEX
  5
422
  8
020
  6
CONTINUOUS
 62
     1
 10
782.8048257883746
 20
-482.3132404229673
 30
0.0
  0
VERTEX
  5
423
  8
020
  6
CONTINUOUS
 62
     1
 10
813.4548257883746
 20
-482.3132404229673
 30
0.0
  0
VERTEX
  5
424
  8
020
  6
CONTINUOUS
 62
     1
 10
813.4548257883746
 20
-487.5132404229673
 30
0.0
  0
VERTEX
  5
425
  8
020
  6
CONTINUOUS
 62
     1
 10
782.8048257883746
 20
-487.5132404229673
 30
0.0
  0
SEQEND
  5
426
  8
020
  6
CONTINUOUS
 62
     1
  0
POLYLINE
  5
427
  8
020
  6
CONTINUOUS
 62
     1
 66
     1
 10
0.0
 20
0.0
 30
0.0
 70
   129
  0
VERTEX
  5
428
  8
020
  6
CONTINUOUS
 62
     1
 10
813.4548257883746
 20
-482.3132404229673
 30
0.0
  0
VERTEX
  5
429
  8
020
  6
CONTINUOUS
 62
     1
 10
846.5048257883745
 20
-482.3132404229673
 30
0.0
  0
VERTEX
  5
42A
  8
020
  6
CONTINUOUS
 62
     1
 10
846.5048257883745
 20
-487.5132404229673
 30
0.0
  0
VERTEX
  5
42B
  8
020
  6
CONTINUOUS
 62
     1
 10
813.4548257883746
 20
-487.5132404229673
 30
0.0
  0
SEQEND
  5
42C
  8
020
  6
CONTINUOUS
 62
     1
  0
TEXT
  5
42D
  8
SAKUZU
 62
     1
 10
795.398947812184
 20
-470.3244013809299
 30
0.0
 40
2.124016203703704
  1
ホンデ
  7
YUGOTHIC_MEDIUM
 72
     1
 11
798.1298257883745
 21
-470.3244013809299
 31
0.0
  0
TEXT
  5
42E
  8
SAKUZU
 62
     1
 10
820.6876590678783
 20
-465.1856848674115
 30
0.0
 40
2.124016203703704
  1
t 1.0 NO.4仕上
  7
YUGOTHIC_MEDIUM
  0
TEXT
  5
42F
  8
SAKUZU
 62
     1
 10
820.6876590678783
 20
-470.3856848674113
 30
0.0
 40
2.124016203703704
  1
t 1.0
  7
YUGOTHIC_MEDIUM
  0
TEXT
  5
430
  8
SAKUZU
 62
     1
 10
823.7709367649117
 20
-480.7856848674116
 30
0.0
 40
2.124016203703704
  1
t 1.0 φ38
  7
YUGOTHIC_MEDIUM
  0
TEXT
  5
431
  8
SAKUZU
 62
     1
 10
762.7136551534539
 20
-496.3856848674116
 30
0.0
 40
2.124016203703704
  1
製品重量
  7
YUGOTHIC_MEDIUM
 72
     1
 11
766.3548257883746
 21
-496.3856848674116
 31
0.0
  0
POLYLINE
  5
432
  8
020
  6
CONTINUOUS
 62
     1
 66
     1
 10
0.0
 20
0.0
 30
0.0
 70
   129
  0
VERTEX
  5
433
  8
020
  6
CONTINUOUS
 62
     1
 10
749.9048257883746
 20
-492.7132404229674
 30
0.0
  0
VERTEX
  5
434
  8
020
  6
CONTINUOUS
 62
     1
 10
782.8048257883746
 20
-492.7132404229674
 30
0.0
  0
VERTEX
  5
435
  8
020
  6
CONTINUOUS
 62
     1
 10
782.8048257883746
 20
-497.9132404229674
 30
0.0
  0
VERTEX
  5
436
  8
020
  6
CONTINUOUS
 62
     1
 10
749.9048257883746
 20
-497.9132404229674
 30
0.0
  0
SEQEND
  5
437
  8
020
  6
CONTINUOUS
 62
     1
  0
POLYLINE
  5
438
  8
020
  6
CONTINUOUS
 62
     1
 66
     1
 10
0.0
 20
0.0
 30
0.0
 70
   129
  0
VERTEX
  5
439
  8
020
  6
CONTINUOUS
 62
     1
 10
782.8048257883746
 20
-492.7132404229674
 30
0.0
  0
VERTEX
  5
43A
  8
020
  6
CONTINUOUS
 62
     1
 10
846.5048257883745
 20
-492.7132404229674
 30
0.0
  0
VERTEX
  5
43B
  8
020
  6
CONTINUOUS
 62
     1
 10
846.5048257883745
 20
-497.9132404229674
 30
0.0
  0
VERTEX
  5
43C
  8
020
  6
CONTINUOUS
 62
     1
 10
782.8048257883746
 20
-497.9132404229674
 30
0.0
  0
SEQEND
  5
43D
  8
020
  6
CONTINUOUS
 62
     1
  0
TEXT
  5
43E
  8
LAYER0002
 62
     1
 10
800.3430023205616
 20
-496.5021293118564
 30
0.0
 40
2.124016203703704
  1
16.5kg（W900の場合）
  7
YUGOTHIC_MEDIUM
 72
     1
 11
814.6548257883746
 21
-496.5021293118564
 31
0.0
  0
TEXT
  5
43F
  8
SAKUZU
 62
     1
 10
768.063655153454
 20
-475.9243515340784
 30
0.0
 40
2.124016203703704
  1
スノコ板
  7
YUGOTHIC_MEDIUM
 72
     1
 11
771.7048257883746
 21
-475.9243515340784
 31
0.0
  0
TEXT
  5
440
  8
SAKUZU
 62
     1
 10
792.6680698359936
 20
-475.9243515340784
 30
0.0
 40
2.124016203703704
  1
ＳＵＳ４３０
  7
YUGOTHIC_MEDIUM
 72
     1
 11
798.1298257883745
 21
-475.9243515340784
 31
0.0
  0
TEXT
  5
441
  8
SAKUZU
 62
     1
 10
820.6876590678783
 20
-475.9243515340784
 30
0.0
 40
2.124016203703704
  1
t 1.0 NO.4仕上
  7
YUGOTHIC_MEDIUM
  0
INSERT
  5
442
  8
__-3
 62
    17
  2
____-4-1
 10
711.2328257883746
 20
-148.5000416295412
 30
0.0
  0
LINE
  5
443
  8
0
  6
CONTINUOUS
 62
     4
 10
1912.348277659275
 20
-6318.982332613567
 30
0.0
 11
1317.348277659275
 21
-6318.982332613567
 31
0.0
  0
LINE
  5
444
  8
0
  6
CONTINUOUS
 62
     4
 10
1912.348277659275
 20
-6358.982332613567
 30
0.0
 11
1312.348277659275
 21
-6358.982332613567
 31
0.0
  0
LINE
  5
445
  8
0
  6
CONTINUOUS
 62
     4
 10
-555.6986053597338
 20
-6358.982332613567
 30
0.0
 11
434.3013946402662
 21
-6358.982332613567
 31
0.0
  0
LINE
  5
446
  8
0
  6
CONTINUOUS
 62
     4
 10
434.3013946402662
 20
-6318.982332613567
 30
0.0
 11
-555.6986053597338
 21
-6318.982332613567
 31
0.0
  0
LINE
  5
447
  8
0
  6
CONTINUOUS
 62
     4
 10
-555.6986053597338
 20
-6358.982332613567
 30
0.0
 11
-555.6986053597338
 21
-6318.982332613567
 31
0.0
  0
LINE
  5
448
  8
0
  6
CONTINUOUS
 62
     4
 10
434.3013946402662
 20
-6318.982332613567
 30
0.0
 11
434.3013946402662
 21
-6358.982332613567
 31
0.0
  0
LINE
  5
449
  8
0
  6
CONTINUOUS
 62
     4
 10
1312.348277659275
 20
-6358.982332613567
 30
0.0
 11
1312.348277659275
 21
-6323.982332613567
 31
0.0
  0
ARC
  5
44A
  8
0
  6
CONTINUOUS
 62
     4
 10
1317.348277659275
 20
-6323.982332613567
 30
0.0
 40
5.000000000000007
 50
90.00000307048978
 51
180.0
  0
LINE
  5
44B
  8
0
  6
CONTINUOUS
 62
     4
 10
1912.348277659275
 20
-6318.982332613567
 30
0.0
 11
1912.348277659275
 21
-6358.982332613567
 31
0.0
  0
LINE
  5
44C
  8
0
  6
CONTINUOUS
 62
     4
 10
1322.348277659275
 20
-6358.982332613567
 30
0.0
 11
1322.348277659275
 21
-6968.982332613567
 31
0.0
  0
LINE
  5
44D
  8
0
  6
CONTINUOUS
 62
     4
 10
1818.348277659275
 20
-6358.982332613567
 30
0.0
 11
1818.348277659275
 21
-6968.982332613567
 31
0.0
  0
LINE
  5
44E
  8
0
  6
CONTINUOUS
 62
     4
 10
1856.348277659275
 20
-7123.982332613569
 30
0.0
 11
1856.348277659275
 21
-7013.982332613567
 31
0.0
  0
LINE
  5
44F
  8
0
  6
CONTINUOUS
 62
     4
 10
1821.94828376279
 20
-7130.982332613569
 30
0.0
 11
1821.94828376279
 21
-7153.982332613569
 31
0.0
  0
LINE
  5
450
  8
0
  6
CONTINUOUS
 62
     4
 10
1821.94828376279
 20
-7153.982332613569
 30
0.0
 11
1852.748271555759
 21
-7153.982332613569
 31
0.0
  0
LINE
  5
451
  8
0
  6
CONTINUOUS
 62
     4
 10
1852.748271555759
 20
-7153.982332613569
 30
0.0
 11
1852.748271555759
 21
-7130.982332613569
 31
0.0
  0
LINE
  5
452
  8
0
  6
CONTINUOUS
 62
     4
 10
1823.748271555759
 20
-7153.982332613569
 30
0.0
 11
1823.748271555759
 21
-7168.982332613567
 31
0.0
  0
LINE
  5
453
  8
0
  6
CONTINUOUS
 62
     4
 10
1823.748271555759
 20
-7168.982332613567
 30
0.0
 11
1850.94828376279
 21
-7168.982332613567
 31
0.0
  0
LINE
  5
454
  8
0
  6
CONTINUOUS
 62
     4
 10
1850.94828376279
 20
-7168.982332613567
 30
0.0
 11
1850.94828376279
 21
-7153.982332613569
 31
0.0
  0
LINE
  5
455
  8
0
  6
CONTINUOUS
 62
     4
 10
1360.3482767056
 20
-7123.982332613569
 30
0.0
 11
1360.3482767056
 21
-7013.982332613567
 31
0.0
  0
LINE
  5
456
  8
0
  6
CONTINUOUS
 62
     4
 10
1325.94827708707
 20
-7130.982332613569
 30
0.0
 11
1325.94827708707
 21
-7153.982332613569
 31
0.0
  0
LINE
  5
457
  8
0
  6
CONTINUOUS
 62
     4
 10
1325.94827708707
 20
-7153.982332613569
 30
0.0
 11
1356.748278231479
 21
-7153.982332613569
 31
0.0
  0
LINE
  5
458
  8
0
  6
CONTINUOUS
 62
     4
 10
1356.748278231479
 20
-7153.982332613569
 30
0.0
 11
1356.748278231479
 21
-7130.982332613569
 31
0.0
  0
LINE
  5
459
  8
0
  6
CONTINUOUS
 62
     4
 10
1327.748276324131
 20
-7153.982332613569
 30
0.0
 11
1327.748276324131
 21
-7168.982332613567
 31
0.0
  0
LINE
  5
45A
  8
0
  6
CONTINUOUS
 62
     4
 10
1327.748276324131
 20
-7168.982332613567
 30
0.0
 11
1354.948278994419
 21
-7168.982332613567
 31
0.0
  0
LINE
  5
45B
  8
0
  6
CONTINUOUS
 62
     4
 10
1354.948278994419
 20
-7168.982332613567
 30
0.0
 11
1354.948278994419
 21
-7153.982332613569
 31
0.0
  0
LINE
  5
45C
  8
0
  6
CONTINUOUS
 62
     4
 10
1856.348277659275
 20
-6968.982332613567
 30
0.0
 11
1856.348277659275
 21
-6358.982332613567
 31
0.0
  0
LINE
  5
45D
  8
0
  6
CONTINUOUS
 62
     4
 10
1818.348277659275
 20
-7013.982332613567
 30
0.0
 11
1818.348277659275
 21
-7123.982332613569
 31
0.0
  0
LINE
  5
45E
  8
0
  6
CONTINUOUS
 62
     4
 10
1360.3482767056
 20
-6968.982332613567
 30
0.0
 11
1360.3482767056
 21
-6358.982332613567
 31
0.0
  0
LINE
  5
45F
  8
0
  6
CONTINUOUS
 62
     4
 10
1322.348277382401
 20
-7013.982332613569
 30
0.0
 11
1322.3482767056
 21
-7123.982332613569
 31
0.0
  0
LINE
  5
460
  8
0
  6
CONTINUOUS
 62
     4
 10
-503.698635877312
 20
-6968.982332613567
 30
0.0
 11
-503.698635877312
 21
-6358.982332613567
 31
0.0
  0
LINE
  5
461
  8
0
  6
CONTINUOUS
 62
     4
 10
-541.698635877312
 20
-7013.982332613567
 30
0.0
 11
-541.698635877312
 21
-7123.982332613569
 31
0.0
  0
LINE
  5
462
  8
0
  6
CONTINUOUS
 62
     4
 10
-538.0986354958422
 20
-7130.982332613569
 30
0.0
 11
-538.0986354958422
 21
-7153.982332613569
 31
0.0
  0
LINE
  5
463
  8
0
  6
CONTINUOUS
 62
     4
 10
-538.0986354958422
 20
-7153.982332613569
 30
0.0
 11
-507.2986343514331
 21
-7153.982332613569
 31
0.0
  0
LINE
  5
464
  8
0
  6
CONTINUOUS
 62
     4
 10
-507.2986343514331
 20
-7153.982332613569
 30
0.0
 11
-507.2986343514331
 21
-7130.982332613569
 31
0.0
  0
LINE
  5
465
  8
0
  6
CONTINUOUS
 62
     4
 10
-536.2986362587817
 20
-7153.982332613569
 30
0.0
 11
-536.2986362587817
 21
-7168.982332613569
 31
0.0
  0
LINE
  5
466
  8
0
  6
CONTINUOUS
 62
     4
 10
-536.2986362587817
 20
-7168.982332613569
 30
0.0
 11
-509.0986335884936
 21
-7168.982332613569
 31
0.0
  0
LINE
  5
467
  8
0
  6
CONTINUOUS
 62
     4
 10
-509.0986335884936
 20
-7168.982332613569
 30
0.0
 11
-509.0986335884936
 21
-7153.982332613569
 31
0.0
  0
LINE
  5
468
  8
0
  6
CONTINUOUS
 62
     4
 10
382.3014251578443
 20
-6358.982332613567
 30
0.0
 11
382.3014251578443
 21
-6968.982332613567
 31
0.0
  0
LINE
  5
469
  8
0
  6
CONTINUOUS
 62
     4
 10
420.3014251578443
 20
-7123.982332613569
 30
0.0
 11
420.3014251578443
 21
-7013.982332613567
 31
0.0
  0
LINE
  5
46A
  8
0
  6
CONTINUOUS
 62
     4
 10
385.9014007437818
 20
-7130.982332613569
 30
0.0
 11
385.9014007437818
 21
-7153.982332613569
 31
0.0
  0
LINE
  5
46B
  8
0
  6
CONTINUOUS
 62
     4
 10
385.9014007437818
 20
-7153.982332613569
 30
0.0
 11
416.7014495719068
 21
-7153.982332613569
 31
0.0
  0
LINE
  5
46C
  8
0
  6
CONTINUOUS
 62
     4
 10
416.7014495719068
 20
-7153.982332613569
 30
0.0
 11
416.7014495719068
 21
-7130.982332613569
 31
0.0
  0
LINE
  5
46D
  8
0
  6
CONTINUOUS
 62
     4
 10
387.7014495719068
 20
-7153.982332613569
 30
0.0
 11
387.7014495719068
 21
-7168.982332613569
 31
0.0
  0
LINE
  5
46E
  8
0
  6
CONTINUOUS
 62
     4
 10
387.7014495719068
 20
-7168.982332613569
 30
0.0
 11
414.9014007437818
 21
-7168.982332613569
 31
0.0
  0
LINE
  5
46F
  8
0
  6
CONTINUOUS
 62
     4
 10
414.9014007437818
 20
-7168.982332613569
 30
0.0
 11
414.9014007437818
 21
-7153.982332613569
 31
0.0
  0
LINE
  5
470
  8
0
  6
CONTINUOUS
 62
     4
 10
420.3014251578443
 20
-6968.982332613567
 30
0.0
 11
420.3014251578443
 21
-6358.982332613567
 31
0.0
  0
LINE
  5
471
  8
0
  6
CONTINUOUS
 62
     4
 10
382.3014251578443
 20
-7013.982332613567
 30
0.0
 11
382.3014251578443
 21
-7123.982332613569
 31
0.0
  0
LINE
  5
472
  8
0
  6
CONTINUOUS
 62
     4
 10
-503.698635877312
 20
-7123.982332613569
 30
0.0
 11
-503.698635877312
 21
-7013.982332613567
 31
0.0
  0
LINE
  5
473
  8
0
  6
CONTINUOUS
 62
     4
 10
-541.698635877312
 20
-6358.982332613567
 30
0.0
 11
-541.698635877312
 21
-6968.982332613567
 31
0.0
  0
LINE
  5
474
  8
0
  6
CONTINUOUS
 62
     4
 10
1818.348277659275
 20
-7123.982332613569
 30
0.0
 11
1856.348277659275
 21
-7123.982332613569
 31
0.0
  0
ARC
  5
475
  8
0
  6
CONTINUOUS
 62
     4
 10
1818.348277659275
 20
-7125.982332613569
 30
0.0
 40
2.0
 50
90.0
 51
180.0
  0
ARC
  5
476
  8
0
  6
CONTINUOUS
 62
     4
 10
1856.348277659275
 20
-7125.982332613569
 30
0.0
 40
2.0
 50
0.0
 51
90.0
  0
LINE
  5
477
  8
0
  6
CONTINUOUS
 62
     4
 10
1858.348277659275
 20
-7125.982332613569
 30
0.0
 11
1858.348277659275
 21
-7130.982332613569
 31
0.0
  0
LINE
  5
478
  8
0
  6
CONTINUOUS
 62
     4
 10
1858.348277659275
 20
-7130.982332613569
 30
0.0
 11
1816.348277659275
 21
-7130.982332613569
 31
0.0
  0
LINE
  5
479
  8
0
  6
CONTINUOUS
 62
     4
 10
1816.348277659275
 20
-7130.982332613569
 30
0.0
 11
1816.348277659275
 21
-7125.982332613569
 31
0.0
  0
LINE
  5
47A
  8
0
  6
CONTINUOUS
 62
     4
 10
1322.3482767056
 20
-7123.982332613569
 30
0.0
 11
1360.3482767056
 21
-7123.982332613569
 31
0.0
  0
ARC
  5
47B
  8
0
  6
CONTINUOUS
 62
     4
 10
1322.3482767056
 20
-7125.982332613569
 30
0.0
 40
2.0
 50
90.0
 51
180.0
  0
ARC
  5
47C
  8
0
  6
CONTINUOUS
 62
     4
 10
1360.3482767056
 20
-7125.982332613569
 30
0.0
 40
2.0
 50
0.0
 51
90.0
  0
LINE
  5
47D
  8
0
  6
CONTINUOUS
 62
     4
 10
1362.3482767056
 20
-7125.982332613569
 30
0.0
 11
1362.3482767056
 21
-7130.982332613569
 31
0.0
  0
LINE
  5
47E
  8
0
  6
CONTINUOUS
 62
     4
 10
1362.3482767056
 20
-7130.982332613569
 30
0.0
 11
1320.3482767056
 21
-7130.982332613569
 31
0.0
  0
LINE
  5
47F
  8
0
  6
CONTINUOUS
 62
     4
 10
1320.3482767056
 20
-7130.982332613569
 30
0.0
 11
1320.3482767056
 21
-7125.982332613569
 31
0.0
  0
LINE
  5
480
  8
0
  6
CONTINUOUS
 62
     4
 10
-541.698635877312
 20
-7123.982332613569
 30
0.0
 11
-503.698635877312
 21
-7123.982332613569
 31
0.0
  0
ARC
  5
481
  8
0
  6
CONTINUOUS
 62
     4
 10
-541.698635877312
 20
-7125.982332613569
 30
0.0
 40
2.0
 50
90.0
 51
180.0
  0
ARC
  5
482
  8
0
  6
CONTINUOUS
 62
     4
 10
-503.698635877312
 20
-7125.982332613569
 30
0.0
 40
2.0
 50
0.0
 51
90.0
  0
LINE
  5
483
  8
0
  6
CONTINUOUS
 62
     4
 10
-501.698635877312
 20
-7125.982332613569
 30
0.0
 11
-501.698635877312
 21
-7130.982332613569
 31
0.0
  0
LINE
  5
484
  8
0
  6
CONTINUOUS
 62
     4
 10
-501.698635877312
 20
-7130.982332613569
 30
0.0
 11
-543.698635877312
 21
-7130.982332613569
 31
0.0
  0
LINE
  5
485
  8
0
  6
CONTINUOUS
 62
     4
 10
-543.698635877312
 20
-7130.982332613569
 30
0.0
 11
-543.698635877312
 21
-7125.982332613569
 31
0.0
  0
LINE
  5
486
  8
0
  6
CONTINUOUS
 62
     4
 10
382.3014251578443
 20
-7123.982332613569
 30
0.0
 11
420.3014251578443
 21
-7123.982332613569
 31
0.0
  0
ARC
  5
487
  8
0
  6
CONTINUOUS
 62
     4
 10
382.3014251578443
 20
-7125.982332613569
 30
0.0
 40
2.0
 50
90.0
 51
180.0
  0
ARC
  5
488
  8
0
  6
CONTINUOUS
 62
     4
 10
420.3014251578443
 20
-7125.982332613569
 30
0.0
 40
2.0
 50
0.0
 51
90.0
  0
LINE
  5
489
  8
0
  6
CONTINUOUS
 62
     4
 10
422.3014251578443
 20
-7125.982332613569
 30
0.0
 11
422.3014251578443
 21
-7130.982332613569
 31
0.0
  0
LINE
  5
48A
  8
0
  6
CONTINUOUS
 62
     4
 10
422.3014251578443
 20
-7130.982332613569
 30
0.0
 11
380.3014251578443
 21
-7130.982332613569
 31
0.0
  0
LINE
  5
48B
  8
0
  6
CONTINUOUS
 62
     4
 10
380.3014251578443
 20
-7130.982332613569
 30
0.0
 11
380.3014251578443
 21
-7125.982332613569
 31
0.0
  0
LINE
  5
48C
  8
0
  6
CONTINUOUS
 62
     4
 10
434.3013946402662
 20
-5419.005065823886
 30
0.0
 11
-555.6986053597338
 21
-5419.005065823886
 31
0.0
  0
LINE
  5
48D
  8
0
  6
CONTINUOUS
 62
     4
 10
-555.6986053597338
 20
-6019.005065823886
 30
0.0
 11
434.3013946402662
 21
-6019.005065823886
 31
0.0
  0
LINE
  5
48E
  8
0
  6
CONTINUOUS
 62
     4
 10
-555.6986053597338
 20
-5419.005065823886
 30
0.0
 11
-555.6986053597338
 21
-6019.005065823886
 31
0.0
  0
LINE
  5
48F
  8
0
  6
CONTINUOUS
 62
     4
 10
434.3013946402662
 20
-6019.005065823886
 30
0.0
 11
434.3013946402662
 21
-5419.005065823886
 31
0.0
  0
LINE
  5
490
  8
0
  6
CONTINUOUS
 62
     4
 10
1360.848277659275
 20
-6968.982332613547
 30
0.0
 11
1360.848277659275
 21
-7000.982332613567
 31
0.0
  0
LINE
  5
491
  8
0
  6
CONTINUOUS
 62
     4
 10
1320.848277659275
 20
-6968.982332613567
 30
0.0
 11
1320.848277659275
 21
-7013.982332613567
 31
0.0
  0
LINE
  5
492
  8
0
  6
CONTINUOUS
 62
     4
 10
1361.848277659275
 20
-7013.982332613567
 30
0.0
 11
1361.848277659275
 21
-7000.982332613567
 31
0.0
  0
LINE
  5
493
  8
0
  6
CONTINUOUS
 62
     4
 10
1817.848277659275
 20
-7000.982332613567
 30
0.0
 11
1360.848277659275
 21
-7000.982332613567
 31
0.0
  0
LINE
  5
494
  8
0
  6
CONTINUOUS
 62
     4
 10
1320.848277659275
 20
-7013.982332613567
 30
0.0
 11
1361.848277659275
 21
-7013.982332613567
 31
0.0
  0
LINE
  5
495
  8
0
  6
CONTINUOUS
 62
     4
 10
1817.848277659275
 20
-6968.982332613564
 30
0.0
 11
1817.848277659275
 21
-7000.982332613567
 31
0.0
  0
LINE
  5
496
  8
0
  6
CONTINUOUS
 62
     4
 10
1857.848277659275
 20
-6968.982332613567
 30
0.0
 11
1857.848277659275
 21
-7013.982332613567
 31
0.0
  0
LINE
  5
497
  8
0
  6
CONTINUOUS
 62
     4
 10
1816.848277659275
 20
-7013.982332613567
 30
0.0
 11
1816.848277659275
 21
-7000.982332613567
 31
0.0
  0
LINE
  5
498
  8
0
  6
CONTINUOUS
 62
     4
 10
1320.848277659275
 20
-6968.982332613547
 30
0.0
 11
1857.848277659275
 21
-6968.982332613567
 31
0.0
  0
LINE
  5
499
  8
0
  6
CONTINUOUS
 62
     4
 10
1857.848277659275
 20
-7013.982332613567
 30
0.0
 11
1816.848277659275
 21
-7013.982332613567
 31
0.0
  0
LINE
  5
49A
  8
0
  6
CONTINUOUS
 62
     4
 10
-543.198635877312
 20
-6968.982332613567
 30
0.0
 11
-543.198635877312
 21
-7013.982332613567
 31
0.0
  0
LINE
  5
49B
  8
0
  6
CONTINUOUS
 62
     4
 10
-502.198635877312
 20
-7013.982332613567
 30
0.0
 11
-502.198635877312
 21
-7000.982332613567
 31
0.0
  0
LINE
  5
49C
  8
0
  6
CONTINUOUS
 62
     4
 10
-543.198635877312
 20
-7013.982332613567
 30
0.0
 11
-502.198635877312
 21
-7013.982332613567
 31
0.0
  0
LINE
  5
49D
  8
0
  6
CONTINUOUS
 62
     4
 10
381.8014251578443
 20
-6968.982332613564
 30
0.0
 11
381.8014251578443
 21
-7000.982332613567
 31
0.0
  0
LINE
  5
49E
  8
0
  6
CONTINUOUS
 62
     4
 10
421.8014251578443
 20
-6968.982332613567
 30
0.0
 11
421.8014251578443
 21
-7013.982332613567
 31
0.0
  0
LINE
  5
49F
  8
0
  6
CONTINUOUS
 62
     4
 10
380.8014251578443
 20
-7013.982332613567
 30
0.0
 11
380.8014251578443
 21
-7000.982332613567
 31
0.0
  0
LINE
  5
4A0
  8
0
  6
CONTINUOUS
 62
     4
 10
-503.1986368309863
 20
-7000.982332613567
 30
0.0
 11
381.8014251578443
 21
-7000.982332613567
 31
0.0
  0
LINE
  5
4A1
  8
0
  6
CONTINUOUS
 62
     4
 10
-543.198635877312
 20
-6968.982332613567
 30
0.0
 11
421.8014251578443
 21
-6968.982332613567
 31
0.0
  0
LINE
  5
4A2
  8
0
  6
CONTINUOUS
 62
     4
 10
421.8014251578443
 20
-7013.982332613567
 30
0.0
 11
380.8014251578443
 21
-7013.982332613567
 31
0.0
  0
LINE
  5
4A3
  8
0
  6
CONTINUOUS
 62
     4
 10
-503.1986368309863
 20
-6968.982332613527
 30
0.0
 11
-503.1986368309863
 21
-7000.982332613567
 31
0.0
  0
DIMENSION
  5
4A4
  8
LAYER0001
  6
CONTINUOUS
 62
     2
  2
*D5
 10
1007.598277670451
 20
-7168.982332613567
 30
0.0
 11
1007.598277670451
 21
-7068.982332613557
 31
0.0
 70
   160
  3
SPEAC
 13
1312.348277659231
 23
-6968.982332613567
 33
0.0
 14
1312.348277659275
 24
-7168.982332613567
 34
0.0
 50
-90.0
  0
DIMENSION
  5
4A5
  8
LAYER0001
  6
CONTINUOUS
 62
     2
  2
*D6
 10
1007.598277670451
 20
-6968.982332613567
 30
0.0
 11
1007.598277670451
 21
-6643.982332613568
 31
0.0
 70
   160
  3
SPEAC
 13
1317.348277659275
 23
-6318.982332613567
 33
0.0
 14
1312.348277659231
 24
-6968.982332613567
 34
0.0
 50
-90.0
  0
DIMENSION
  5
4A6
  8
LAYER0001
  6
CONTINUOUS
 62
     2
  2
*D7
 10
907.5982776704507
 20
-7168.982332613567
 30
0.0
 11
907.5982776704507
 21
-6743.982332613567
 31
0.0
 70
   160
  3
SPEAC
 13
1317.348277659275
 23
-6318.982332613567
 33
0.0
 14
1312.348277659275
 24
-7168.982332613567
 34
0.0
 50
-90.0
  0
DIMENSION
  5
4A7
  8
LAYER0001
  6
CONTINUOUS
 62
     2
  2
*D8
 10
669.5513946514423
 20
-6019.005065823886
 30
0.0
 11
669.5513946514423
 21
-5719.005065823886
 31
0.0
 70
   160
  3
SPEAC
 13
434.3013946402662
 23
-5419.005065823886
 33
0.0
 14
434.3013946402662
 24
-6019.005065823886
 34
0.0
 50
-90.0
  0
DIMENSION
  5
4A8
  8
LAYER0001
  6
CONTINUOUS
 62
     2
  2
*D9
 10
-555.6986053597338
 20
-5234.255065835062
 30
0.0
 11
-60.69860535973385
 21
-5234.255065835062
 31
0.0
 70
   160
  3
SPEAC
 13
434.3013946402662
 23
-5419.005065823886
 33
0.0
 14
-555.6986053597338
 24
-5419.005065823886
 34
0.0
  0
DIMENSION
  5
4A9
  8
LAYER0001
  6
CONTINUOUS
 62
     2
  2
*D10
 10
-555.6986053597338
 20
-7404.232332624744
 30
0.0
 11
-704.0269475789282
 21
-7404.232332624744
 31
0.0
 70
   160
  3
SPEAC
 13
-522.6986053597338
 23
-7198.755302375009
 33
0.0
 14
-555.6986053597338
 24
-7158.982332613569
 34
0.0
  0
DIMENSION
  5
4AA
  8
LAYER0001
  6
CONTINUOUS
 62
     2
  2
*D11
 10
-522.6986048828967
 20
-7404.232332624745
 30
0.0
 11
-60.69860488289669
 21
-7404.232332624745
 31
0.0
 70
   160
  3
SPEAC
 13
401.3013951171033
 23
-7198.755302375009
 33
0.0
 14
-522.6986048828967
 24
-7198.755302375009
 34
0.0
  0
DIMENSION
  5
4AB
  8
LAYER0001
  6
CONTINUOUS
 62
     2
  2
*D12
 10
401.3013946402662
 20
-7404.232332624745
 30
0.0
 11
551.1297664233637
 21
-7404.232332624745
 31
0.0
 70
   160
  3
SPEAC
 13
434.3013946402662
 23
-7158.982332613569
 33
0.0
 14
401.3013946402662
 24
-7198.755302375009
 34
0.0
  0
DIMENSION
  5
4AC
  8
LAYER0001
  6
CONTINUOUS
 62
     2
  2
*D13
 10
1312.348277659275
 20
-7404.232332624745
 30
0.0
 11
1168.85323920951
 21
-7404.232332624745
 31
0.0
 70
   160
  3
SPEAC
 13
1341.348277659275
 23
-7198.755302375009
 33
0.0
 14
1312.348277659275
 24
-7188.755302375009
 34
0.0
  0
DIMENSION
  5
4AD
  8
LAYER0001
  6
CONTINUOUS
 62
     2
  2
*D14
 10
1341.348277659275
 20
-7404.232332624745
 30
0.0
 11
1589.348277659275
 21
-7404.232332624745
 31
0.0
 70
   160
  3
SPEAC
 13
1837.348277659275
 23
-7198.755302375009
 33
0.0
 14
1341.348277659275
 24
-7198.755302375009
 34
0.0
  0
DIMENSION
  5
4AE
  8
LAYER0001
  6
CONTINUOUS
 62
     2
  2
*D15
 10
1837.348277659275
 20
-7404.232332624745
 30
0.0
 11
1874.848277659275
 21
-7404.232332624745
 31
0.0
 70
   160
  3
SPEAC
 13
1912.348277659275
 23
-7188.755302375009
 33
0.0
 14
1837.348277659275
 24
-7198.755302375009
 34
0.0
  0
LINE
  5
4AF
  8
LAYER0002
  6
ISO-08_____
 62
    17
 10
1341.348277659275
 20
-7086.747438864312
 30
0.0
 11
1341.348277659275
 21
-7198.755302375009
 31
0.0
  0
LINE
  5
4B0
  8
LAYER0002
  6
ISO-08_____
 62
    17
 10
1837.348277659275
 20
-7086.747438864312
 30
0.0
 11
1837.348277659275
 21
-7198.755302375009
 31
0.0
  0
LINE
  5
4B1
  8
LAYER0002
  6
ISO-08_____
 62
    17
 10
-522.6986349236377
 20
-7086.747438864312
 30
0.0
 11
-522.6986349236377
 21
-7198.755302375009
 31
0.0
  0
LINE
  5
4B2
  8
LAYER0002
  6
ISO-08_____
 62
    17
 10
401.3014251578443
 20
-7086.747438864312
 30
0.0
 11
401.3014251578443
 21
-7198.755302375009
 31
0.0
  0
LINE
  5
4B3
  8
0
  6
CONTINUOUS
 62
     4
 10
1847.348277659275
 20
-3247.23202735528
 30
0.0
 11
1317.348277659275
 21
-3247.23202735528
 31
0.0
  0
LINE
  5
4B4
  8
0
  6
CONTINUOUS
 62
     4
 10
1912.348277659275
 20
-3287.23202735528
 30
0.0
 11
1312.348277659275
 21
-3287.23202735528
 31
0.0
  0
LINE
  5
4B5
  8
0
  6
CONTINUOUS
 62
     4
 10
-555.6986053597338
 20
-3287.23202735528
 30
0.0
 11
434.3013946402662
 21
-3287.23202735528
 31
0.0
  0
LINE
  5
4B6
  8
0
  6
CONTINUOUS
 62
     4
 10
434.3013946402662
 20
-3247.23202735528
 30
0.0
 11
-555.6986053597338
 21
-3247.23202735528
 31
0.0
  0
LINE
  5
4B7
  8
0
  6
CONTINUOUS
 62
     4
 10
-555.6986053597338
 20
-3287.23202735528
 30
0.0
 11
-555.6986053597338
 21
-3097.23202735528
 31
0.0
  0
LINE
  5
4B8
  8
0
  6
CONTINUOUS
 62
     4
 10
434.3013946402662
 20
-3097.23202735528
 30
0.0
 11
434.3013946402662
 21
-3287.23202735528
 31
0.0
  0
LINE
  5
4B9
  8
0
  6
CONTINUOUS
 62
     4
 10
1312.348277659275
 20
-3287.23202735528
 30
0.0
 11
1312.348277659275
 21
-3252.23202735528
 31
0.0
  0
ARC
  5
4BA
  8
0
  6
CONTINUOUS
 62
     4
 10
1317.348277659275
 20
-3252.23202735528
 30
0.0
 40
5.000000000000007
 50
90.00000307048978
 51
180.0
  0
LINE
  5
4BB
  8
0
  6
CONTINUOUS
 62
     4
 10
1912.348277659275
 20
-3097.23202735528
 30
0.0
 11
1912.348277659275
 21
-3287.23202735528
 31
0.0
  0
LINE
  5
4BC
  8
0
  6
CONTINUOUS
 62
     4
 10
1322.348277659275
 20
-3287.23202735528
 30
0.0
 11
1322.348277659275
 21
-3897.232027355282
 31
0.0
  0
LINE
  5
4BD
  8
0
  6
CONTINUOUS
 62
     4
 10
1818.348277659275
 20
-3287.23202735528
 30
0.0
 11
1818.348277659275
 21
-3897.232027355282
 31
0.0
  0
LINE
  5
4BE
  8
0
  6
CONTINUOUS
 62
     4
 10
1856.348277659275
 20
-4052.232027355282
 30
0.0
 11
1856.348277659275
 21
-3942.232027355282
 31
0.0
  0
LINE
  5
4BF
  8
0
  6
CONTINUOUS
 62
     4
 10
1821.94828376279
 20
-4059.232027355282
 30
0.0
 11
1821.94828376279
 21
-4082.232027355282
 31
0.0
  0
LINE
  5
4C0
  8
0
  6
CONTINUOUS
 62
     4
 10
1821.94828376279
 20
-4082.232027355282
 30
0.0
 11
1852.748271555759
 21
-4082.232027355282
 31
0.0
  0
LINE
  5
4C1
  8
0
  6
CONTINUOUS
 62
     4
 10
1852.748271555759
 20
-4082.232027355282
 30
0.0
 11
1852.748271555759
 21
-4059.232027355282
 31
0.0
  0
LINE
  5
4C2
  8
0
  6
CONTINUOUS
 62
     4
 10
1823.748271555759
 20
-4082.232027355282
 30
0.0
 11
1823.748271555759
 21
-4097.232027355282
 31
0.0
  0
LINE
  5
4C3
  8
0
  6
CONTINUOUS
 62
     4
 10
1823.748271555759
 20
-4097.232027355282
 30
0.0
 11
1850.94828376279
 21
-4097.232027355282
 31
0.0
  0
LINE
  5
4C4
  8
0
  6
CONTINUOUS
 62
     4
 10
1850.94828376279
 20
-4097.232027355282
 30
0.0
 11
1850.94828376279
 21
-4082.232027355282
 31
0.0
  0
LINE
  5
4C5
  8
0
  6
CONTINUOUS
 62
     4
 10
1360.3482767056
 20
-4052.232027355282
 30
0.0
 11
1360.3482767056
 21
-3942.232027355282
 31
0.0
  0
LINE
  5
4C6
  8
0
  6
CONTINUOUS
 62
     4
 10
1325.94827708707
 20
-4059.232027355282
 30
0.0
 11
1325.94827708707
 21
-4082.232027355282
 31
0.0
  0
LINE
  5
4C7
  8
0
  6
CONTINUOUS
 62
     4
 10
1325.94827708707
 20
-4082.232027355282
 30
0.0
 11
1356.748278231479
 21
-4082.232027355282
 31
0.0
  0
LINE
  5
4C8
  8
0
  6
CONTINUOUS
 62
     4
 10
1356.748278231479
 20
-4082.232027355282
 30
0.0
 11
1356.748278231479
 21
-4059.232027355282
 31
0.0
  0
LINE
  5
4C9
  8
0
  6
CONTINUOUS
 62
     4
 10
1327.748276324131
 20
-4082.232027355282
 30
0.0
 11
1327.748276324131
 21
-4097.232027355282
 31
0.0
  0
LINE
  5
4CA
  8
0
  6
CONTINUOUS
 62
     4
 10
1327.748276324131
 20
-4097.232027355282
 30
0.0
 11
1354.948278994419
 21
-4097.232027355282
 31
0.0
  0
LINE
  5
4CB
  8
0
  6
CONTINUOUS
 62
     4
 10
1354.948278994419
 20
-4097.232027355282
 30
0.0
 11
1354.948278994419
 21
-4082.232027355282
 31
0.0
  0
LINE
  5
4CC
  8
0
  6
CONTINUOUS
 62
     4
 10
1856.348277659275
 20
-3897.232027355282
 30
0.0
 11
1856.348277659275
 21
-3287.23202735528
 31
0.0
  0
LINE
  5
4CD
  8
0
  6
CONTINUOUS
 62
     4
 10
1818.348277659275
 20
-3942.232027355282
 30
0.0
 11
1818.348277659275
 21
-4052.232027355282
 31
0.0
  0
LINE
  5
4CE
  8
0
  6
CONTINUOUS
 62
     4
 10
1360.3482767056
 20
-3897.23202735528
 30
0.0
 11
1360.3482767056
 21
-3287.23202735528
 31
0.0
  0
LINE
  5
4CF
  8
0
  6
CONTINUOUS
 62
     4
 10
1322.348277382401
 20
-3942.232027355283
 30
0.0
 11
1322.3482767056
 21
-4052.232027355282
 31
0.0
  0
LINE
  5
4D0
  8
0
  6
CONTINUOUS
 62
     4
 10
-503.698635877312
 20
-3897.232027355282
 30
0.0
 11
-503.698635877312
 21
-3287.23202735528
 31
0.0
  0
LINE
  5
4D1
  8
0
  6
CONTINUOUS
 62
     4
 10
-541.698635877312
 20
-3942.232027355282
 30
0.0
 11
-541.698635877312
 21
-4052.232027355282
 31
0.0
  0
LINE
  5
4D2
  8
0
  6
CONTINUOUS
 62
     4
 10
-538.0986354958422
 20
-4059.232027355282
 30
0.0
 11
-538.0986354958422
 21
-4082.232027355282
 31
0.0
  0
LINE
  5
4D3
  8
0
  6
CONTINUOUS
 62
     4
 10
-538.0986354958422
 20
-4082.232027355282
 30
0.0
 11
-507.2986343514331
 21
-4082.232027355282
 31
0.0
  0
LINE
  5
4D4
  8
0
  6
CONTINUOUS
 62
     4
 10
-507.2986343514331
 20
-4082.232027355282
 30
0.0
 11
-507.2986343514331
 21
-4059.232027355282
 31
0.0
  0
LINE
  5
4D5
  8
0
  6
CONTINUOUS
 62
     4
 10
-536.2986362587817
 20
-4082.232027355282
 30
0.0
 11
-536.2986362587817
 21
-4097.232027355283
 31
0.0
  0
LINE
  5
4D6
  8
0
  6
CONTINUOUS
 62
     4
 10
-536.2986362587817
 20
-4097.232027355283
 30
0.0
 11
-509.0986335884936
 21
-4097.232027355283
 31
0.0
  0
LINE
  5
4D7
  8
0
  6
CONTINUOUS
 62
     4
 10
-509.0986335884936
 20
-4097.232027355283
 30
0.0
 11
-509.0986335884936
 21
-4082.232027355282
 31
0.0
  0
LINE
  5
4D8
  8
0
  6
CONTINUOUS
 62
     4
 10
382.3014251578443
 20
-3287.23202735528
 30
0.0
 11
382.3014251578443
 21
-3897.232027355282
 31
0.0
  0
LINE
  5
4D9
  8
0
  6
CONTINUOUS
 62
     4
 10
420.3014251578443
 20
-4052.232027355282
 30
0.0
 11
420.3014251578443
 21
-3942.232027355282
 31
0.0
  0
LINE
  5
4DA
  8
0
  6
CONTINUOUS
 62
     4
 10
385.9014007437818
 20
-4059.232027355282
 30
0.0
 11
385.9014007437818
 21
-4082.232027355282
 31
0.0
  0
LINE
  5
4DB
  8
0
  6
CONTINUOUS
 62
     4
 10
385.9014007437818
 20
-4082.232027355282
 30
0.0
 11
416.7014495719068
 21
-4082.232027355282
 31
0.0
  0
LINE
  5
4DC
  8
0
  6
CONTINUOUS
 62
     4
 10
416.7014495719068
 20
-4082.232027355282
 30
0.0
 11
416.7014495719068
 21
-4059.232027355282
 31
0.0
  0
LINE
  5
4DD
  8
0
  6
CONTINUOUS
 62
     4
 10
387.7014495719068
 20
-4082.232027355282
 30
0.0
 11
387.7014495719068
 21
-4097.232027355283
 31
0.0
  0
LINE
  5
4DE
  8
0
  6
CONTINUOUS
 62
     4
 10
387.7014495719068
 20
-4097.232027355283
 30
0.0
 11
414.9014007437818
 21
-4097.232027355283
 31
0.0
  0
LINE
  5
4DF
  8
0
  6
CONTINUOUS
 62
     4
 10
414.9014007437818
 20
-4097.232027355283
 30
0.0
 11
414.9014007437818
 21
-4082.232027355282
 31
0.0
  0
LINE
  5
4E0
  8
0
  6
CONTINUOUS
 62
     4
 10
420.3014251578443
 20
-3897.232027355282
 30
0.0
 11
420.3014251578443
 21
-3287.23202735528
 31
0.0
  0
LINE
  5
4E1
  8
0
  6
CONTINUOUS
 62
     4
 10
382.3014251578443
 20
-3942.232027355282
 30
0.0
 11
382.3014251578443
 21
-4052.232027355282
 31
0.0
  0
LINE
  5
4E2
  8
0
  6
CONTINUOUS
 62
     4
 10
-503.698635877312
 20
-4052.232027355282
 30
0.0
 11
-503.698635877312
 21
-3942.232027355282
 31
0.0
  0
LINE
  5
4E3
  8
0
  6
CONTINUOUS
 62
     4
 10
-541.698635877312
 20
-3287.23202735528
 30
0.0
 11
-541.698635877312
 21
-3897.232027355282
 31
0.0
  0
LINE
  5
4E4
  8
0
  6
CONTINUOUS
 62
     4
 10
1818.348277659275
 20
-4052.232027355282
 30
0.0
 11
1856.348277659275
 21
-4052.232027355282
 31
0.0
  0
ARC
  5
4E5
  8
0
  6
CONTINUOUS
 62
     4
 10
1818.348277659275
 20
-4054.232027355282
 30
0.0
 40
2.0
 50
90.0
 51
180.0
  0
ARC
  5
4E6
  8
0
  6
CONTINUOUS
 62
     4
 10
1856.348277659275
 20
-4054.232027355282
 30
0.0
 40
2.0
 50
0.0
 51
90.0
  0
LINE
  5
4E7
  8
0
  6
CONTINUOUS
 62
     4
 10
1858.348277659275
 20
-4054.232027355282
 30
0.0
 11
1858.348277659275
 21
-4059.232027355282
 31
0.0
  0
LINE
  5
4E8
  8
0
  6
CONTINUOUS
 62
     4
 10
1858.348277659275
 20
-4059.232027355282
 30
0.0
 11
1816.348277659275
 21
-4059.232027355282
 31
0.0
  0
LINE
  5
4E9
  8
0
  6
CONTINUOUS
 62
     4
 10
1816.348277659275
 20
-4059.232027355282
 30
0.0
 11
1816.348277659275
 21
-4054.232027355282
 31
0.0
  0
LINE
  5
4EA
  8
0
  6
CONTINUOUS
 62
     4
 10
1322.3482767056
 20
-4052.232027355282
 30
0.0
 11
1360.3482767056
 21
-4052.232027355282
 31
0.0
  0
ARC
  5
4EB
  8
0
  6
CONTINUOUS
 62
     4
 10
1322.3482767056
 20
-4054.232027355282
 30
0.0
 40
2.0
 50
90.0
 51
180.0
  0
ARC
  5
4EC
  8
0
  6
CONTINUOUS
 62
     4
 10
1360.3482767056
 20
-4054.232027355282
 30
0.0
 40
2.0
 50
0.0
 51
90.0
  0
LINE
  5
4ED
  8
0
  6
CONTINUOUS
 62
     4
 10
1362.3482767056
 20
-4054.232027355282
 30
0.0
 11
1362.3482767056
 21
-4059.232027355282
 31
0.0
  0
LINE
  5
4EE
  8
0
  6
CONTINUOUS
 62
     4
 10
1362.3482767056
 20
-4059.232027355282
 30
0.0
 11
1320.3482767056
 21
-4059.232027355282
 31
0.0
  0
LINE
  5
4EF
  8
0
  6
CONTINUOUS
 62
     4
 10
1320.3482767056
 20
-4059.232027355282
 30
0.0
 11
1320.3482767056
 21
-4054.232027355282
 31
0.0
  0
LINE
  5
4F0
  8
0
  6
CONTINUOUS
 62
     4
 10
-541.698635877312
 20
-4052.232027355282
 30
0.0
 11
-503.698635877312
 21
-4052.232027355282
 31
0.0
  0
ARC
  5
4F1
  8
0
  6
CONTINUOUS
 62
     4
 10
-541.698635877312
 20
-4054.232027355282
 30
0.0
 40
2.0
 50
90.0
 51
180.0
  0
ARC
  5
4F2
  8
0
  6
CONTINUOUS
 62
     4
 10
-503.698635877312
 20
-4054.232027355282
 30
0.0
 40
2.0
 50
0.0
 51
90.0
  0
LINE
  5
4F3
  8
0
  6
CONTINUOUS
 62
     4
 10
-501.698635877312
 20
-4054.232027355282
 30
0.0
 11
-501.698635877312
 21
-4059.232027355282
 31
0.0
  0
LINE
  5
4F4
  8
0
  6
CONTINUOUS
 62
     4
 10
-501.698635877312
 20
-4059.232027355282
 30
0.0
 11
-543.698635877312
 21
-4059.232027355282
 31
0.0
  0
LINE
  5
4F5
  8
0
  6
CONTINUOUS
 62
     4
 10
-543.698635877312
 20
-4059.232027355282
 30
0.0
 11
-543.698635877312
 21
-4054.232027355282
 31
0.0
  0
LINE
  5
4F6
  8
0
  6
CONTINUOUS
 62
     4
 10
382.3014251578443
 20
-4052.232027355282
 30
0.0
 11
420.3014251578443
 21
-4052.232027355282
 31
0.0
  0
ARC
  5
4F7
  8
0
  6
CONTINUOUS
 62
     4
 10
382.3014251578443
 20
-4054.232027355282
 30
0.0
 40
2.0
 50
90.0
 51
180.0
  0
ARC
  5
4F8
  8
0
  6
CONTINUOUS
 62
     4
 10
420.3014251578443
 20
-4054.232027355282
 30
0.0
 40
2.0
 50
0.0
 51
90.0
  0
LINE
  5
4F9
  8
0
  6
CONTINUOUS
 62
     4
 10
422.3014251578443
 20
-4054.232027355282
 30
0.0
 11
422.3014251578443
 21
-4059.232027355282
 31
0.0
  0
LINE
  5
4FA
  8
0
  6
CONTINUOUS
 62
     4
 10
422.3014251578443
 20
-4059.232027355282
 30
0.0
 11
380.3014251578443
 21
-4059.232027355282
 31
0.0
  0
LINE
  5
4FB
  8
0
  6
CONTINUOUS
 62
     4
 10
380.3014251578443
 20
-4059.232027355282
 30
0.0
 11
380.3014251578443
 21
-4054.232027355282
 31
0.0
  0
LINE
  5
4FC
  8
0
  6
CONTINUOUS
 62
     4
 10
434.3013946402662
 20
-2347.2547605656
 30
0.0
 11
-555.6986053597338
 21
-2347.2547605656
 31
0.0
  0
LINE
  5
4FD
  8
0
  6
CONTINUOUS
 62
     4
 10
-555.6986053597338
 20
-2947.2547605656
 30
0.0
 11
434.3013946402662
 21
-2947.2547605656
 31
0.0
  0
LINE
  5
4FE
  8
0
  6
CONTINUOUS
 62
     4
 10
-555.6986053597338
 20
-2347.2547605656
 30
0.0
 11
-555.6986053597338
 21
-2947.2547605656
 31
0.0
  0
LINE
  5
4FF
  8
0
  6
CONTINUOUS
 62
     4
 10
434.3013946402662
 20
-2947.2547605656
 30
0.0
 11
434.3013946402662
 21
-2347.2547605656
 31
0.0
  0
LINE
  5
500
  8
0
  6
CONTINUOUS
 62
     4
 10
1852.348277659275
 20
-3102.23202735528
 30
0.0
 11
1852.348277659275
 21
-3242.23202735528
 31
0.0
  0
LINE
  5
501
  8
0
  6
CONTINUOUS
 62
     4
 10
1857.348277659275
 20
-3097.23202735528
 30
0.0
 11
1912.348277659275
 21
-3097.23202735528
 31
0.0
  0
ARC
  5
502
  8
0
  6
CONTINUOUS
 62
     4
 10
1857.348277659275
 20
-3102.23202735528
 30
0.0
 40
5.0
 50
90.0
 51
180.0
  0
ARC
  5
503
  8
0
  6
CONTINUOUS
 62
     4
 10
1847.348277659275
 20
-3242.23202735528
 30
0.0
 40
5.0
 50
270.0
 51
0.0
  0
LINE
  5
504
  8
0
  6
CONTINUOUS
 62
     4
 10
434.3013946402662
 20
-3097.23202735528
 30
0.0
 11
-555.6986053597338
 21
-3097.23202735528
 31
0.0
  0
LINE
  5
505
  8
0
  6
CONTINUOUS
 62
     4
 10
434.3013946402662
 20
-2407.2547605656
 30
0.0
 11
-555.6986053597338
 21
-2407.2547605656
 31
0.0
  0
LINE
  5
506
  8
0
  6
CONTINUOUS
 62
     4
 10
1360.848277659275
 20
-3897.232027355261
 30
0.0
 11
1360.848277659275
 21
-3929.232027355281
 31
0.0
  0
LINE
  5
507
  8
0
  6
CONTINUOUS
 62
     4
 10
1320.848277659275
 20
-3897.232027355282
 30
0.0
 11
1320.848277659275
 21
-3942.232027355282
 31
0.0
  0
LINE
  5
508
  8
0
  6
CONTINUOUS
 62
     4
 10
1361.848277659275
 20
-3942.232027355282
 30
0.0
 11
1361.848277659275
 21
-3929.232027355281
 31
0.0
  0
LINE
  5
509
  8
0
  6
CONTINUOUS
 62
     4
 10
1817.848277659275
 20
-3929.232027355281
 30
0.0
 11
1360.848277659275
 21
-3929.232027355281
 31
0.0
  0
LINE
  5
50A
  8
0
  6
CONTINUOUS
 62
     4
 10
1320.848277659275
 20
-3942.232027355282
 30
0.0
 11
1361.848277659275
 21
-3942.232027355282
 31
0.0
  0
LINE
  5
50B
  8
0
  6
CONTINUOUS
 62
     4
 10
1817.848277659275
 20
-3897.232027355278
 30
0.0
 11
1817.848277659275
 21
-3929.232027355282
 31
0.0
  0
LINE
  5
50C
  8
0
  6
CONTINUOUS
 62
     4
 10
1857.848277659275
 20
-3897.232027355282
 30
0.0
 11
1857.848277659275
 21
-3942.232027355282
 31
0.0
  0
LINE
  5
50D
  8
0
  6
CONTINUOUS
 62
     4
 10
1816.848277659275
 20
-3942.232027355282
 30
0.0
 11
1816.848277659275
 21
-3929.232027355281
 31
0.0
  0
LINE
  5
50E
  8
0
  6
CONTINUOUS
 62
     4
 10
1320.848277659275
 20
-3897.232027355282
 30
0.0
 11
1857.848277659275
 21
-3897.232027355282
 31
0.0
  0
LINE
  5
50F
  8
0
  6
CONTINUOUS
 62
     4
 10
1857.848277659275
 20
-3942.232027355282
 30
0.0
 11
1816.848277659275
 21
-3942.232027355282
 31
0.0
  0
LINE
  5
510
  8
0
  6
CONTINUOUS
 62
     4
 10
-543.198635877312
 20
-3897.232027355282
 30
0.0
 11
-543.198635877312
 21
-3942.232027355282
 31
0.0
  0
LINE
  5
511
  8
0
  6
CONTINUOUS
 62
     4
 10
-502.198635877312
 20
-3942.232027355282
 30
0.0
 11
-502.198635877312
 21
-3929.232027355282
 31
0.0
  0
LINE
  5
512
  8
0
  6
CONTINUOUS
 62
     4
 10
-543.198635877312
 20
-3942.232027355282
 30
0.0
 11
-502.198635877312
 21
-3942.232027355282
 31
0.0
  0
LINE
  5
513
  8
0
  6
CONTINUOUS
 62
     4
 10
381.8014251578443
 20
-3897.232027355278
 30
0.0
 11
381.8014251578443
 21
-3929.232027355282
 31
0.0
  0
LINE
  5
514
  8
0
  6
CONTINUOUS
 62
     4
 10
421.8014251578443
 20
-3897.232027355282
 30
0.0
 11
421.8014251578443
 21
-3942.232027355282
 31
0.0
  0
LINE
  5
515
  8
0
  6
CONTINUOUS
 62
     4
 10
380.8014251578443
 20
-3942.232027355282
 30
0.0
 11
380.8014251578443
 21
-3929.232027355282
 31
0.0
  0
LINE
  5
516
  8
0
  6
CONTINUOUS
 62
     4
 10
-503.1986368309863
 20
-3929.232027355282
 30
0.0
 11
381.8014251578443
 21
-3929.232027355282
 31
0.0
  0
LINE
  5
517
  8
0
  6
CONTINUOUS
 62
     4
 10
-543.198635877312
 20
-3897.232027355282
 30
0.0
 11
421.8014251578443
 21
-3897.232027355282
 31
0.0
  0
LINE
  5
518
  8
0
  6
CONTINUOUS
 62
     4
 10
421.8014251578443
 20
-3942.232027355282
 30
0.0
 11
380.8014251578443
 21
-3942.232027355282
 31
0.0
  0
LINE
  5
519
  8
0
  6
CONTINUOUS
 62
     4
 10
-503.1986368309863
 20
-3897.232027355242
 30
0.0
 11
-503.1986368309863
 21
-3929.232027355281
 31
0.0
  0
DIMENSION
  5
51A
  8
LAYER0001
  6
CONTINUOUS
 62
     2
  2
*D16
 10
1007.598277670451
 20
-4097.232027355282
 30
0.0
 11
1007.598277670451
 21
-3997.232027355271
 31
0.0
 70
   160
  3
SPEAC
 13
1312.348277659231
 23
-3897.232027355282
 33
0.0
 14
1312.348277659275
 24
-4097.232027355282
 34
0.0
 50
-90.0
  0
DIMENSION
  5
51B
  8
LAYER0001
  6
CONTINUOUS
 62
     2
  2
*D17
 10
1007.598277670451
 20
-3897.232027355282
 30
0.0
 11
1007.598277670451
 21
-3572.232027355282
 31
0.0
 70
   160
  3
SPEAC
 13
1317.348277659275
 23
-3247.23202735528
 33
0.0
 14
1312.348277659231
 24
-3897.232027355282
 34
0.0
 50
-90.0
  0
DIMENSION
  5
51C
  8
LAYER0001
  6
CONTINUOUS
 62
     2
  2
*D18
 10
907.5982776704507
 20
-4097.232027355282
 30
0.0
 11
907.5982776704507
 21
-3672.232027355281
 31
0.0
 70
   160
  3
SPEAC
 13
1317.348277659275
 23
-3247.23202735528
 33
0.0
 14
1312.348277659275
 24
-4097.232027355282
 34
0.0
 50
-90.0
  0
DIMENSION
  5
51D
  8
LAYER0001
  6
CONTINUOUS
 62
     2
  2
*D19
 10
907.5982776704509
 20
-3247.23202735528
 30
0.0
 11
907.5982776704509
 21
-3172.23202735528
 31
0.0
 70
   160
  3
SPEAC
 13
1857.348277659275
 23
-3097.23202735528
 33
0.0
 14
1317.348277659275
 24
-3247.23202735528
 34
0.0
 50
-90.0
  0
DIMENSION
  5
51E
  8
LAYER0001
  6
CONTINUOUS
 62
     2
  2
*D20
 10
569.5513946514423
 20
-2407.2547605656
 30
0.0
 11
569.5513946514423
 21
-2232.759722115834
 31
0.0
 70
   160
  3
SPEAC
 13
434.3013946402662
 23
-2347.2547605656
 33
0.0
 14
434.3013946402662
 24
-2407.2547605656
 34
0.0
 50
-90.0
  0
DIMENSION
  5
51F
  8
LAYER0001
  6
CONTINUOUS
 62
     2
  2
*D21
 10
669.5513946514423
 20
-2947.2547605656
 30
0.0
 11
669.5513946514423
 21
-2647.2547605656
 31
0.0
 70
   160
  3
SPEAC
 13
434.3013946402662
 23
-2347.2547605656
 33
0.0
 14
434.3013946402662
 24
-2947.2547605656
 34
0.0
 50
-90.0
  0
DIMENSION
  5
520
  8
LAYER0001
  6
CONTINUOUS
 62
     2
  2
*D22
 10
-555.6986053597338
 20
-2162.504760576775
 30
0.0
 11
-60.69860535973385
 21
-2162.504760576775
 31
0.0
 70
   160
  3
SPEAC
 13
434.3013946402662
 23
-2347.2547605656
 33
0.0
 14
-555.6986053597338
 24
-2347.2547605656
 34
0.0
  0
DIMENSION
  5
521
  8
LAYER0001
  6
CONTINUOUS
 62
     2
  2
*D23
 10
-555.6986053597338
 20
-4332.482027366458
 30
0.0
 11
-704.0269475789282
 21
-4332.482027366458
 31
0.0
 70
   160
  3
SPEAC
 13
-522.6986053597338
 23
-4127.004997116722
 33
0.0
 14
-555.6986053597338
 24
-4087.232027355283
 34
0.0
  0
DIMENSION
  5
522
  8
LAYER0001
  6
CONTINUOUS
 62
     2
  2
*D24
 10
-522.6986048828967
 20
-4332.482027366458
 30
0.0
 11
-60.69860488289669
 21
-4332.482027366458
 31
0.0
 70
   160
  3
SPEAC
 13
401.3013951171033
 23
-4127.004997116722
 33
0.0
 14
-522.6986048828967
 24
-4127.004997116722
 34
0.0
  0
DIMENSION
  5
523
  8
LAYER0001
  6
CONTINUOUS
 62
     2
  2
*D25
 10
401.3013946402662
 20
-4332.482027366458
 30
0.0
 11
551.1297664233637
 21
-4332.482027366458
 31
0.0
 70
   160
  3
SPEAC
 13
434.3013946402662
 23
-4087.232027355283
 33
0.0
 14
401.3013946402662
 24
-4127.004997116722
 34
0.0
  0
DIMENSION
  5
524
  8
LAYER0001
  6
CONTINUOUS
 62
     2
  2
*D26
 10
1312.348277659275
 20
-4332.482027366458
 30
0.0
 11
1168.85323920951
 21
-4332.482027366458
 31
0.0
 70
   160
  3
SPEAC
 13
1341.348277659275
 23
-4127.004997116722
 33
0.0
 14
1312.348277659275
 24
-4117.004997116722
 34
0.0
  0
DIMENSION
  5
525
  8
LAYER0001
  6
CONTINUOUS
 62
     2
  2
*D27
 10
1341.348277659275
 20
-4332.482027366458
 30
0.0
 11
1589.348277659275
 21
-4332.482027366458
 31
0.0
 70
   160
  3
SPEAC
 13
1837.348277659275
 23
-4127.004997116722
 33
0.0
 14
1341.348277659275
 24
-4127.004997116722
 34
0.0
  0
DIMENSION
  5
526
  8
LAYER0001
  6
CONTINUOUS
 62
     2
  2
*D28
 10
1837.348277659275
 20
-4332.482027366458
 30
0.0
 11
1874.848277659275
 21
-4332.482027366458
 31
0.0
 70
   160
  3
SPEAC
 13
1912.348277659275
 23
-4117.004997116722
 33
0.0
 14
1837.348277659275
 24
-4127.004997116722
 34
0.0
  0
LINE
  5
527
  8
LAYER0002
  6
ISO-08_____
 62
    17
 10
1341.348277659275
 20
-4014.997133606026
 30
0.0
 11
1341.348277659275
 21
-4127.004997116722
 31
0.0
  0
LINE
  5
528
  8
LAYER0002
  6
ISO-08_____
 62
    17
 10
1837.348277659275
 20
-4014.997133606026
 30
0.0
 11
1837.348277659275
 21
-4127.004997116722
 31
0.0
  0
LINE
  5
529
  8
LAYER0002
  6
ISO-08_____
 62
    17
 10
-522.6986349236377
 20
-4014.997133606026
 30
0.0
 11
-522.6986349236377
 21
-4127.004997116722
 31
0.0
  0
LINE
  5
52A
  8
LAYER0002
  6
ISO-08_____
 62
    17
 10
401.3014251578443
 20
-4014.997133606026
 30
0.0
 11
401.3014251578443
 21
-4127.004997116722
 31
0.0
  0
DIMENSION
  5
52B
  8
__-1
 62
     2
  2
*D29
 10
1159.800000011176
 20
-6318.982332613567
 30
0.0
 11
1143.669878484144
 21
-6338.982332613567
 31
0.0
 70
    32
  3
SPEAC
 13
1312.348277659275
 23
-6358.982332613567
 33
0.0
 14
1322.848692867789
 24
-6318.982332613567
 34
0.0
 50
-90.0
  0
TEXT
  5
52E
  8
SAKUZU
 62
     2
 10
1197.886032774158
 20
-6210.531860054713
 30
0.0
 40
31.75824175824177
  1
R5
  7
YUGOTHIC_MEDIUM
  0
LINE
  5
52F
  8
SAKUZU
  6
CONTINUOUS
 62
     2
 10
1313.812743658607
 20
-6320.44679880237
 30
0.0
 11
1273.58600242308
 21
-6218.982332708303
 31
0.0
  0
LINE
  5
530
  8
SAKUZU
  6
CONTINUOUS
 62
     2
 10
1313.812743658607
 20
-6320.44679880237
 30
0.0
 11
1299.699952764243
 21
-6299.811171039397
 31
0.0
  0
LINE
  5
531
  8
SAKUZU
  6
CONTINUOUS
 62
     2
 10
1313.812743658607
 20
-6320.44679880237
 30
0.0
 11
1309.313333606474
 21
-6295.855025601099
 31
0.0
  0
LINE
  5
532
  8
SAKUZU
  6
CONTINUOUS
 62
     2
 10
1273.586002423081
 20
-6218.982332708303
 30
0.0
 11
1197.586002423081
 21
-6218.982332708303
 31
0.0
  0
TEXT
  5
533
  8
SAKUZU
 62
     2
 10
1198.512825107034
 20
-3138.250244195939
 30
0.0
 40
31.75824175824177
  1
R5
  7
YUGOTHIC_MEDIUM
  0
LINE
  5
534
  8
SAKUZU
  6
CONTINUOUS
 62
     2
 10
1314.439535991483
 20
-3248.165182943595
 30
0.0
 11
1274.212794755956
 21
-3146.700716849528
 31
0.0
  0
LINE
  5
535
  8
SAKUZU
  6
CONTINUOUS
 62
     2
 10
1314.439535991483
 20
-3248.165182943595
 30
0.0
 11
1300.326745097119
 21
-3227.529555180623
 31
0.0
  0
LINE
  5
536
  8
SAKUZU
  6
CONTINUOUS
 62
     2
 10
1314.439535991483
 20
-3248.165182943595
 30
0.0
 11
1309.94012593935
 21
-3223.573409742324
 31
0.0
  0
LINE
  5
537
  8
SAKUZU
  6
CONTINUOUS
 62
     2
 10
1274.212794755957
 20
-3146.700716849528
 30
0.0
 11
1198.212794755957
 21
-3146.700716849528
 31
0.0
  0
TEXT
  5
538
  8
SAKUZU
 62
     2
 10
1651.600245410861
 20
-2988.451514080953
 30
0.0
 40
31.75824175824177
  1
R5
  7
YUGOTHIC_MEDIUM
  0
LINE
  5
539
  8
SAKUZU
  6
CONTINUOUS
 62
     2
 10
1854.054209826741
 20
-3098.366452828609
 30
0.0
 11
1813.827468591215
 21
-2996.901986734543
 31
0.0
  0
LINE
  5
53A
  8
SAKUZU
  6
CONTINUOUS
 62
     2
 10
1854.054209826741
 20
-3098.366452828609
 30
0.0
 11
1839.941418932377
 21
-3077.730825065637
 31
0.0
  0
LINE
  5
53B
  8
SAKUZU
  6
CONTINUOUS
 62
     2
 10
1854.054209826741
 20
-3098.366452828609
 30
0.0
 11
1849.554799774609
 21
-3073.774679627338
 31
0.0
  0
LINE
  5
53C
  8
SAKUZU
  6
CONTINUOUS
 62
     2
 10
1813.827468591215
 20
-2996.901986734543
 30
0.0
 11
1646.853287864175
 21
-2996.901986734543
 31
0.0
  0
LINE
  5
53D
  8
SAKUZU
  6
CONTINUOUS
 62
     2
 10
1850.883811565207
 20
-3245.767561261213
 30
0.0
 11
1836.771020670843
 21
-3225.13193349824
 31
0.0
  0
LINE
  5
53E
  8
SAKUZU
  6
CONTINUOUS
 62
     2
 10
1850.883811565207
 20
-3245.767561261213
 30
0.0
 11
1846.384401513075
 21
-3221.175788059942
 31
0.0
  0
LINE
  5
53F
  8
SAKUZU
  6
CONTINUOUS
 62
     2
 10
1850.883811565207
 20
-3245.767561261213
 30
0.0
 11
1752.218224938713
 21
-2996.901986734543
 31
0.0
  0
DIMENSION
  5
540
  8
__-1
 62
     2
  2
*D30
 10
1150.8
 20
-3247.23202735528
 30
0.0
 11
1134.669878472967
 21
-3267.23202735528
 31
0.0
 70
    32
  3
SPEAC
 13
1322.348277659275
 23
-3287.23202735528
 33
0.0
 14
1317.348277659275
 24
-3247.23202735528
 34
0.0
 50
-90.0
  0
LINE
  5
543
  8
0
  6
VW-01____
 62
     4
 10
-255.6986053597338
 20
-2347.2547605656
 30
0.0
 11
-255.6986053597338
 21
-2947.2547605656
 31
0.0
  0
LINE
  5
544
  8
0
  6
VW-01____
 62
     4
 10
-255.6986053597338
 20
-3287.23202735528
 30
0.0
 11
-255.6986053597338
 21
-3097.23202735528
 31
0.0
  0
LINE
  5
545
  8
0
  6
VW-01____
 62
     4
 10
-306.1985748421557
 20
-3287.23202735528
 30
0.0
 11
-306.1985748421557
 21
-3897.232027355282
 31
0.0
  0
LINE
  5
546
  8
0
  6
VW-01____
 62
     4
 10
-268.1985748421557
 20
-4052.232027355282
 30
0.0
 11
-268.1985748421557
 21
-3942.232027355282
 31
0.0
  0
LINE
  5
547
  8
0
  6
VW-01____
 62
     4
 10
-302.5985992562182
 20
-4059.232027355282
 30
0.0
 11
-302.5985992562182
 21
-4082.232027355282
 31
0.0
  0
LINE
  5
548
  8
0
  6
VW-01____
 62
     4
 10
-302.5985992562182
 20
-4082.232027355282
 30
0.0
 11
-271.7985504280932
 21
-4082.232027355282
 31
0.0
  0
LINE
  5
549
  8
0
  6
VW-01____
 62
     4
 10
-271.7985504280932
 20
-4082.232027355282
 30
0.0
 11
-271.7985504280932
 21
-4059.232027355282
 31
0.0
  0
LINE
  5
54A
  8
0
  6
VW-01____
 62
     4
 10
-300.7985504280932
 20
-4082.232027355282
 30
0.0
 11
-300.7985504280932
 21
-4097.232027355283
 31
0.0
  0
LINE
  5
54B
  8
0
  6
VW-01____
 62
     4
 10
-300.7985504280932
 20
-4097.232027355283
 30
0.0
 11
-273.5985992562182
 21
-4097.232027355283
 31
0.0
  0
LINE
  5
54C
  8
0
  6
VW-01____
 62
     4
 10
-273.5985992562182
 20
-4097.232027355283
 30
0.0
 11
-273.5985992562182
 21
-4082.232027355282
 31
0.0
  0
LINE
  5
54D
  8
0
  6
VW-01____
 62
     4
 10
-268.1985748421557
 20
-3897.232027355282
 30
0.0
 11
-268.1985748421557
 21
-3287.23202735528
 31
0.0
  0
LINE
  5
54E
  8
0
  6
VW-01____
 62
     4
 10
-306.1985748421557
 20
-3942.232027355282
 30
0.0
 11
-306.1985748421557
 21
-4052.232027355282
 31
0.0
  0
LINE
  5
54F
  8
0
  6
VW-01____
 62
     4
 10
-306.1985748421557
 20
-4052.232027355282
 30
0.0
 11
-268.1985748421557
 21
-4052.232027355282
 31
0.0
  0
ARC
  5
550
  8
0
  6
VW-01____
 62
     4
 10
-306.1985748421557
 20
-4054.232027355282
 30
0.0
 40
2.0
 50
90.0
 51
180.0
  0
ARC
  5
551
  8
0
  6
VW-01____
 62
     4
 10
-268.1985748421557
 20
-4054.232027355282
 30
0.0
 40
2.0
 50
0.0
 51
90.0
  0
LINE
  5
552
  8
0
  6
VW-01____
 62
     4
 10
-266.1985748421557
 20
-4054.232027355282
 30
0.0
 11
-266.1985748421557
 21
-4059.232027355282
 31
0.0
  0
LINE
  5
553
  8
0
  6
VW-01____
 62
     4
 10
-266.1985748421557
 20
-4059.232027355282
 30
0.0
 11
-308.1985748421557
 21
-4059.232027355282
 31
0.0
  0
LINE
  5
554
  8
0
  6
VW-01____
 62
     4
 10
-308.1985748421557
 20
-4059.232027355282
 30
0.0
 11
-308.1985748421557
 21
-4054.232027355282
 31
0.0
  0
LINE
  5
555
  8
0
  6
VW-01____
 62
     4
 10
-306.6985748421557
 20
-3897.232027355278
 30
0.0
 11
-306.6985748421557
 21
-3929.232027355282
 31
0.0
  0
LINE
  5
556
  8
0
  6
VW-01____
 62
     4
 10
-266.6985748421557
 20
-3897.232027355282
 30
0.0
 11
-266.6985748421557
 21
-3942.232027355282
 31
0.0
  0
LINE
  5
557
  8
0
  6
VW-01____
 62
     4
 10
-307.6985748421557
 20
-3942.232027355282
 30
0.0
 11
-307.6985748421557
 21
-3929.232027355282
 31
0.0
  0
LINE
  5
558
  8
0
  6
VW-01____
 62
     4
 10
-266.6985748421557
 20
-3942.232027355282
 30
0.0
 11
-307.6985748421557
 21
-3942.232027355282
 31
0.0
  0
LINE
  5
559
  8
LAYER0002
  6
VW-01____
 62
    17
 10
-287.1985748421557
 20
-4014.997133606026
 30
0.0
 11
-287.1985748421557
 21
-4127.004997116722
 31
0.0
  0
LINE
  5
55A
  8
0
  6
VW-01____
 62
     4
 10
-255.6986053597338
 20
-5419.005065823886
 30
0.0
 11
-255.6986053597338
 21
-6019.005065823886
 31
0.0
  0
LINE
  5
55B
  8
0
  6
VW-01____
 62
     4
 10
-255.6986053597338
 20
-6318.982332613567
 30
0.0
 11
-255.6986053597338
 21
-6358.982332613567
 31
0.0
  0
LINE
  5
55C
  8
0
  6
VW-01____
 62
     4
 10
-306.1985748421557
 20
-6358.982332613567
 30
0.0
 11
-306.1985748421557
 21
-6968.982332613567
 31
0.0
  0
LINE
  5
55D
  8
0
  6
VW-01____
 62
     4
 10
-268.1985748421557
 20
-7123.982332613569
 30
0.0
 11
-268.1985748421557
 21
-7013.982332613567
 31
0.0
  0
LINE
  5
55E
  8
0
  6
VW-01____
 62
     4
 10
-302.5985992562182
 20
-7130.982332613569
 30
0.0
 11
-302.5985992562182
 21
-7153.982332613569
 31
0.0
  0
LINE
  5
55F
  8
0
  6
VW-01____
 62
     4
 10
-302.5985992562182
 20
-7153.982332613569
 30
0.0
 11
-271.7985504280932
 21
-7153.982332613569
 31
0.0
  0
LINE
  5
560
  8
0
  6
VW-01____
 62
     4
 10
-271.7985504280932
 20
-7153.982332613569
 30
0.0
 11
-271.7985504280932
 21
-7130.982332613569
 31
0.0
  0
LINE
  5
561
  8
0
  6
VW-01____
 62
     4
 10
-300.7985504280932
 20
-7153.982332613569
 30
0.0
 11
-300.7985504280932
 21
-7168.982332613569
 31
0.0
  0
LINE
  5
562
  8
0
  6
VW-01____
 62
     4
 10
-300.7985504280932
 20
-7168.982332613569
 30
0.0
 11
-273.5985992562182
 21
-7168.982332613569
 31
0.0
  0
LINE
  5
563
  8
0
  6
VW-01____
 62
     4
 10
-273.5985992562182
 20
-7168.982332613569
 30
0.0
 11
-273.5985992562182
 21
-7153.982332613569
 31
0.0
  0
LINE
  5
564
  8
0
  6
VW-01____
 62
     4
 10
-268.1985748421557
 20
-6968.982332613567
 30
0.0
 11
-268.1985748421557
 21
-6358.982332613567
 31
0.0
  0
LINE
  5
565
  8
0
  6
VW-01____
 62
     4
 10
-306.1985748421557
 20
-7013.982332613567
 30
0.0
 11
-306.1985748421557
 21
-7123.982332613569
 31
0.0
  0
LINE
  5
566
  8
0
  6
VW-01____
 62
     4
 10
-306.1985748421557
 20
-7123.982332613569
 30
0.0
 11
-268.1985748421557
 21
-7123.982332613569
 31
0.0
  0
ARC
  5
567
  8
0
  6
VW-01____
 62
     4
 10
-306.1985748421557
 20
-7125.982332613569
 30
0.0
 40
2.0
 50
90.0
 51
180.0
  0
ARC
  5
568
  8
0
  6
VW-01____
 62
     4
 10
-268.1985748421557
 20
-7125.982332613569
 30
0.0
 40
2.0
 50
0.0
 51
90.0
  0
LINE
  5
569
  8
0
  6
VW-01____
 62
     4
 10
-266.1985748421557
 20
-7125.982332613569
 30
0.0
 11
-266.1985748421557
 21
-7130.982332613569
 31
0.0
  0
LINE
  5
56A
  8
0
  6
VW-01____
 62
     4
 10
-266.1985748421557
 20
-7130.982332613569
 30
0.0
 11
-308.1985748421557
 21
-7130.982332613569
 31
0.0
  0
LINE
  5
56B
  8
0
  6
VW-01____
 62
     4
 10
-308.1985748421557
 20
-7130.982332613569
 30
0.0
 11
-308.1985748421557
 21
-7125.982332613569
 31
0.0
  0
LINE
  5
56C
  8
0
  6
VW-01____
 62
     4
 10
-306.6985748421557
 20
-6968.982332613564
 30
0.0
 11
-306.6985748421557
 21
-7000.982332613567
 31
0.0
  0
LINE
  5
56D
  8
0
  6
VW-01____
 62
     4
 10
-266.6985748421557
 20
-6968.982332613567
 30
0.0
 11
-266.6985748421557
 21
-7013.982332613567
 31
0.0
  0
LINE
  5
56E
  8
0
  6
VW-01____
 62
     4
 10
-307.6985748421557
 20
-7013.982332613567
 30
0.0
 11
-307.6985748421557
 21
-7000.982332613567
 31
0.0
  0
LINE
  5
56F
  8
0
  6
VW-01____
 62
     4
 10
-266.6985748421557
 20
-7013.982332613567
 30
0.0
 11
-307.6985748421557
 21
-7013.982332613567
 31
0.0
  0
LINE
  5
570
  8
LAYER0002
  6
VW-01____
 62
    17
 10
-287.1985748421557
 20
-7086.747438864312
 30
0.0
 11
-287.1985748421557
 21
-7198.755302375009
 31
0.0
  0
DIMENSION
  5
571
  8
__-1
  6
VW-01____
 62
     2
  2
*D31
 10
-555.6986053597338
 20
-5719.005065823886
 30
0.0
 11
-405.6986053597338
 21
-5702.874944296854
 31
0.0
 70
    32
  3
SPEAC
 13
-255.6986053597338
 23
-5777.511541713166
 33
0.0
 14
-555.6986053597338
 24
-5777.511541713166
 34
0.0
  0
DIMENSION
  5
572
  8
__-1
  6
VW-01____
 62
     2
  2
*D32
 10
-555.6986053597338
 20
-2680.0
 30
0.0
 11
-405.6986053597338
 21
-2663.869878472967
 31
0.0
 70
    32
  3
SPEAC
 13
-255.6986053597338
 23
-2623.954303136144
 33
0.0
 14
-555.6986053597338
 24
-2623.954303136144
 34
0.0
  0
VIEWPORT
  5
573
 67
     1
  8
0
 10
128.5
 20
97.5
 30
0.0
 40
314.226
 41
222.18
 68
     1
 69
     1
1001
ACAD
1000
MVIEW
1002
{
1070
    16
1010
0.0
1020
0.0
1030
0.0
1010
0.0
1020
0.0
1030
1.0
1040
0.0
1040
222.18
1040
128.5
1040
97.5
1040
50.0
1040
0.0
1040
0.0
1070
     0
1070
   100
1070
     0
1070
     3
1070
     0
1070
     0
1070
     0
1070
     0
1040
0.0
1040
0.0
1040
0.0
1040
10.0
1040
10.0
1040
10.0
1040
10.0
1070
     0
1002
{
1002
}
1002
}
  0
ENDSEC
  0
EOF
