  0
SECTION
  2
HEADER
  9
$ACADVER
  1
AC1009
  9
$DWGCODEPAGE
  3
dos932
  9
$INSBASE
 10
0.0
 20
0.0
 30
0.0
  9
$EXTMIN
 10
-502.5242720359897
 20
68.06079193728237
 30
0.0
  9
$EXTMAX
 10
1555.722394630678
 20
1421.391262295746
 30
0.0
  9
$LIMMIN
 10
0.0
 20
0.0
  9
$LIMMAX
 10
12.0
 20
9.0
  9
$ORTHOMODE
 70
     0
  9
$REGENMODE
 70
     1
  9
$FILLMODE
 70
     1
  9
$QTEXTMODE
 70
     0
  9
$MIRRTEXT
 70
     1
  9
$DRAGMODE
 70
     2
  9
$LTSCALE
 40
5.0
  9
$OSMODE
 70
    37
  9
$ATTMODE
 70
     1
  9
$TEXTSIZE
 40
0.2
  9
$TRACEWID
 40
1.0
  9
$TEXTSTYLE
  7
STANDARD
  9
$CLAYER
  8
1_5_____
  9
$CELTYPE
  6
BYLAYER
  9
$CECOLOR
 62
   256
  9
$DIMSCALE
 40
1.0
  9
$DIMASZ
 40
2.2479248046875
  9
$DIMEXO
 40
7.499999972060323
  9
$DIMDLI
 40
30.00000000651926
  9
$DIMRND
 40
0.0
  9
$DIMDLE
 40
0.0
  9
$DIMEXE
 40
0.0
  9
$DIMTP
 40
0.0
  9
$DIMTM
 40
0.0
  9
$DIMTXT
 40
10.62008101851851
  9
$DIMCEN
 40
0.0
  9
$DIMTSZ
 40
0.0
  9
$DIMTOL
 70
     0
  9
$DIMLIM
 70
     0
  9
$DIMTIH
 70
     0
  9
$DIMTOH
 70
     0
  9
$DIMSE1
 70
     0
  9
$DIMSE2
 70
     0
  9
$DIMTAD
 70
     1
  9
$DIMZIN
 70
     8
  9
$DIMBLK
  1
DOT
  9
$DIMASO
 70
     1
  9
$DIMSHO
 70
     1
  9
$DIMPOST
  1
<>
  9
$DIMAPOST
  1
[]
  9
$DIMALT
 70
     0
  9
$DIMALTD
 70
     0
  9
$DIMALTF
 40
1.0
  9
$DIMLFAC
 40
1.0
  9
$DIMTOFL
 70
     1
  9
$DIMTVP
 40
0.0
  9
$DIMTIX
 70
     1
  9
$DIMSOXD
 70
     0
  9
$DIMSAH
 70
     0
  9
$DIMBLK1
  1
DOT
  9
$DIMBLK2
  1
DOT
  9
$DIMSTYLE
  2
TOOLBOX
  9
$DIMCLRD
 70
     0
  9
$DIMCLRE
 70
     0
  9
$DIMCLRT
 70
     0
  9
$DIMTFAC
 40
0.8
  9
$DIMGAP
 40
0.0499999998137355
  9
$LUNITS
 70
     2
  9
$LUPREC
 70
     2
  9
$SKETCHINC
 40
0.1
  9
$FILLETRAD
 40
0.5
  9
$AUNITS
 70
     0
  9
$AUPREC
 70
     2
  9
$MENU
  1
.
  9
$ELEVATION
 40
0.0
  9
$PELEVATION
 40
0.0
  9
$THICKNESS
 40
0.0
  9
$LIMCHECK
 70
     0
  9
$CHAMFERA
 40
0.0
  9
$CHAMFERB
 40
0.0
  9
$SKPOLY
 70
     0
  9
$TDCREATE
 40
2458916.941802824
  9
$TDUPDATE
 40
2458916.941817512
  9
$TDINDWG
 40
0.0000000116
  9
$TDUSRTIMER
 40
0.0000000116
  9
$USRTIMER
 70
     1
  9
$ANGBASE
 50
0.0
  9
$ANGDIR
 70
     0
  9
$PDMODE
 70
     1
  9
$PDSIZE
 40
-2.0
  9
$PLINEWID
 40
0.0
  9
$COORDS
 70
     1
  9
$SPLFRAME
 70
     0
  9
$SPLINETYPE
 70
     6
  9
$SPLINESEGS
 70
     8
  9
$ATTDIA
 70
     0
  9
$ATTREQ
 70
     1
  9
$HANDLING
 70
     1
  9
$HANDSEED
  5
815
  9
$SURFTAB1
 70
     6
  9
$SURFTAB2
 70
     6
  9
$SURFTYPE
 70
     6
  9
$SURFU
 70
     6
  9
$SURFV
 70
     6
  9
$UCSNAME
  2

  9
$UCSORG
 10
0.0
 20
0.0
 30
0.0
  9
$UCSXDIR
 10
1.0
 20
0.0
 30
0.0
  9
$UCSYDIR
 10
0.0
 20
1.0
 30
0.0
  9
$PUCSNAME
  2

  9
$PUCSORG
 10
0.0
 20
0.0
 30
0.0
  9
$PUCSXDIR
 10
1.0
 20
0.0
 30
0.0
  9
$PUCSYDIR
 10
0.0
 20
1.0
 30
0.0
  9
$USERI1
 70
     0
  9
$USERI2
 70
     0
  9
$USERI3
 70
     0
  9
$USERI4
 70
     0
  9
$USERI5
 70
     0
  9
$USERR1
 40
0.0
  9
$USERR2
 40
0.0
  9
$USERR3
 40
0.0
  9
$USERR4
 40
0.0
  9
$USERR5
 40
0.0
  9
$WORLDVIEW
 70
     1
  9
$SHADEDGE
 70
     3
  9
$SHADEDIF
 70
    70
  9
$TILEMODE
 70
     1
  9
$MAXACTVP
 70
    64
  9
$PLIMCHECK
 70
     0
  9
$PEXTMIN
 10
1.000000000000000E+20
 20
1.000000000000000E+20
 30
1.000000000000000E+20
  9
$PEXTMAX
 10
-1.000000000000000E+20
 20
-1.000000000000000E+20
 30
-1.000000000000000E+20
  9
$PLIMMIN
 10
-20.0
 20
-7.5
  9
$PLIMMAX
 10
277.0
 20
202.5
  9
$UNITMODE
 70
     0
  9
$VISRETAIN
 70
     1
  9
$PLINEGEN
 70
     0
  9
$PSLTSCALE
 70
     1
  0
ENDSEC
  0
SECTION
  2
TABLES
  0
TABLE
  2
VPORT
 70
     1
  0
VPORT
  2
*ACTIVE
 70
     0
 10
0.0
 20
0.0
 11
1.0
 21
1.0
 12
526.5990612973442
 22
744.7260271165142
 13
0.0
 23
0.0
 14
0.5
 24
0.5
 15
0.5
 25
0.5
 16
0.0
 26
0.0
 36
1.0
 17
0.0
 27
0.0
 37
0.0
 40
1353.330470358464
 41
1.520875138591603
 42
2000.0
 43
0.0
 44
0.0
 50
0.0
 51
0.0
 71
     0
 72
   100
 73
     1
 74
     3
 75
     0
 76
     0
 77
     0
 78
     0
  0
ENDTAB
  0
TABLE
  2
LTYPE
 70
    16
  0
LTYPE
  2
CONTINUOUS
 70
     0
  3
Solid line
 72
    65
 73
     0
 40
0.0
  0
LTYPE
  2
VW-01____
 70
     0
  3

 72
    65
 73
     2
 40
2.1161248
 49
1.0580624
 49
-1.0580624
  0
LTYPE
  2
ISO-10______
 70
     0
  3

 72
    65
 73
     4
 40
4.699
 49
3.048
 49
-0.7619999999999999
 49
0.1270000000000001
 49
-0.7619999999999999
  0
LTYPE
  2
ISO-02___
 70
     0
  3

 72
    65
 73
     2
 40
3.81
 49
3.048
 49
-0.7619999999999999
  0
LTYPE
  2
ISO-07___
 70
     0
  3

 72
    65
 73
     2
 40
0.8889999999999999
 49
0.127
 49
-0.7619999999999998
  0
LTYPE
  2
ISO-04______
 70
     0
  3

 72
    65
 73
     4
 40
7.747000000000001
 49
6.095999999999999
 49
-0.7620000000000007
 49
0.1270000000000001
 49
-0.7620000000000007
  0
LTYPE
  2
DASHED
 70
     0
  3

 72
    65
 73
     2
 40
39.99999999999999
 49
24.0
 49
-16.0
  0
LTYPE
  2
1
 70
     0
  3

 72
    65
 73
     2
 40
101.60254
 49
101.6
 49
-0.0025399999999941
  0
LTYPE
  2
______-8
 70
     0
  3

 72
    65
 73
     2
 40
11.43
 49
7.619999999999999
 49
-3.809999999999999
  0
LTYPE
  2
______-7
 70
     0
  3

 72
    65
 73
     4
 40
34.28999999999999
 49
22.86
 49
-3.809999999999997
 49
3.809999999999997
 49
-3.809999999999997
  0
LTYPE
  2
______-6
 70
     0
  3

 72
    65
 73
     4
 40
7.747000000000001
 49
6.095999999999999
 49
-0.7620000000000007
 49
0.1270000000000001
 49
-0.7620000000000007
  0
LTYPE
  2
______-5
 70
     0
  3

 72
    65
 73
     2
 40
0.4
 49
0.24
 49
-0.16
  0
LTYPE
  2
______-4
 70
     0
  3

 72
    65
 73
     6
 40
2.7
 49
1.8
 49
-0.2
 49
0.2
 49
-0.1000000000000002
 49
0.2
 49
-0.2
  0
LTYPE
  2
______-3
 70
     0
  3

 72
    65
 73
     4
 40
2.4
 49
1.8
 49
-0.2
 49
0.2
 49
-0.2
  0
LTYPE
  2
______-2
 70
     0
  3

 72
    65
 73
     2
 40
38.09999999999999
 49
25.4
 49
-12.7
  0
LTYPE
  2
______-1
 70
     0
  3

 72
    65
 73
     2
 40
101.60254
 49
101.6
 49
-0.0025399999999941
  0
ENDTAB
  0
TABLE
  2
LAYER
 70
     6
  0
LAYER
  2
0
 70
     0
 62
     7
  6
CONTINUOUS
  0
LAYER
  2
_
 70
     0
 62
     7
  6
CONTINUOUS
  0
LAYER
  2
1_5_____
 70
     0
 62
     7
  6
CONTINUOUS
  0
LAYER
  2
1_5__
 70
     0
 62
     7
  6
CONTINUOUS
  0
LAYER
  2
1_5__-1
 70
     0
 62
     7
  6
CONTINUOUS
  0
LAYER
  2
DEFPOINTS
 70
     0
 62
     7
  6
CONTINUOUS
  0
ENDTAB
  0
TABLE
  2
STYLE
 70
     2
  0
STYLE
  2
STANDARD
 70
     0
 40
0.0
 41
1.0
 50
0.0
 71
     0
 42
0.2
  3
txt
  4
BIGFONT.SHX
  0
STYLE
  2
YUGOTHIC_MEDIUM
 70
     0
 40
0.0
 41
1.0
 50
0.0
 71
     0
 42
0.2
  3

  4
YuGothic Medium
  0
ENDTAB
  0
TABLE
  2
VIEW
 70
     0
  0
ENDTAB
  0
TABLE
  2
UCS
 70
     0
  0
ENDTAB
  0
TABLE
  2
APPID
 70
     2
  0
APPID
  2
ACAD
 70
     0
  0
APPID
  2
ACAECLAYERSTANDARD
 70
     0
  0
ENDTAB
  0
TABLE
  2
DIMSTYLE
 70
     2
  0
DIMSTYLE
  2
STANDARD
 70
     0
  3

  4

  5

  6

  7

 40
1.0
 41
0.18
 42
0.0625
 43
0.38
 44
0.18
 45
0.0
 46
0.0
 47
0.0
 48
0.0
140
0.18
141
0.09
142
0.0
143
25.4
144
1.0
145
0.0
146
1.0
147
0.09
 71
     0
 72
     0
 73
     1
 74
     1
 75
     0
 76
     0
 77
     0
 78
     0
170
     0
171
     2
172
     0
173
     0
174
     0
175
     0
176
     0
177
     0
178
     0
  0
DIMSTYLE
  2
TOOLBOX
 70
     0
  3
<>
  4
[]
  5
DOT
  6
DOT
  7
DOT
 40
1.0
 41
2.2479248046875
 42
7.499999972060323
 43
30.00000000651926
 44
0.0
 45
0.0
 46
0.0
 47
0.0
 48
0.0
140
10.62008101851851
141
0.0
142
0.0
143
1.0
144
1.0
145
0.0
146
0.8
147
0.0499999998137355
 71
     0
 72
     0
 73
     0
 74
     0
 75
     0
 76
     0
 77
     1
 78
     8
170
     0
171
     0
172
     1
173
     0
174
     1
175
     0
176
     0
177
     0
178
     0
  0
ENDTAB
  0
ENDSEC
  0
SECTION
  2
BLOCKS
  0
BLOCK
  8
0
  2
$MODEL_SPACE
 70
     0
 10
0.0
 20
0.0
 30
0.0
  3
$MODEL_SPACE
  1

  0
ENDBLK
  5
21
  8
0
  0
BLOCK
 67
     1
  8
0
  2
$PAPER_SPACE
 70
     0
 10
0.0
 20
0.0
 30
0.0
  3
$PAPER_SPACE
  1

  0
ENDBLK
  5
1D
 67
     1
  8
0
  0
BLOCK
  8
0
  2
GROUP
 70
     0
 10
0.0
 20
0.0
 30
0.0
  3
GROUP
  1

  0
ENDBLK
  5
70
  8
0
  0
BLOCK
  8
0
  2
__A3
 70
     0
 10
0.0
 20
0.0
 30
0.0
  3
__A3
  1

  0
LINE
  5
E3
  8
0
  6
CONTINUOUS
 62
     3
 10
10312.62689392944
 20
-89.92044693998241
 30
0.0
 11
-10269.83977273724
 21
-89.92044693998241
 31
0.0
  0
INSERT
  5
E4
  8
0
 62
    17
  2
GROUP
 10
0.0
 20
0.0
 30
0.0
  0
TEXT
  5
E5
  8
0
 62
     4
 10
9139.977640406578
 20
-226.0341168654482
 30
0.0
 40
79.65060763888889
  1
SCALE:
  7
YUGOTHIC_MEDIUM
 11
9139.977640406578
 21
-146.3835092265593
 31
0.0
 73
     3
  0
TEXT
  5
E6
  8
0
 62
     4
 10
-443.9643777938977
 20
-227.9787802733332
 30
0.0
 40
79.65060763888889
  1
NAME:
  7
YUGOTHIC_MEDIUM
 11
-443.9643777938977
 21
-148.3281726344443
 31
0.0
 73
     3
  0
TEXT
  5
E7
  8
0
 62
     4
 10
7281.663381210107
 20
-228.0537802733157
 30
0.0
 40
79.65060763888889
  1
DATE:
  7
YUGOTHIC_MEDIUM
 11
7281.663381210107
 21
-148.4031726344268
 31
0.0
 73
     3
  0
TEXT
  5
E8
  8
0
 62
     4
 10
5425.843209124179
 20
-236.1263220412507
 30
0.0
 40
79.65060763888889
  1
ID:
  7
YUGOTHIC_MEDIUM
 11
5425.843209124179
 21
-156.4757144023619
 31
0.0
 73
     3
  0
ENDBLK
  5
74
  8
0
  0
BLOCK
  8
0
  2
*D3
 70
     1
 10
0.0
 20
0.0
 30
0.0
  3
*D3
  1

  0
LINE
  5
E9
  8
1_5_____
  6
CONTINUOUS
 62
     0
 10
442.0206521434218
 20
1282.674595601326
 30
0.0
 11
442.0206521434218
 21
1400.174595629266
 31
0.0
  0
LINE
  5
EA
  8
1_5_____
  6
CONTINUOUS
 62
     0
 10
-207.9793478565778
 20
1282.674595601326
 30
0.0
 11
-207.9793478565778
 21
1400.174595629266
 31
0.0
  0
LINE
  5
EB
  8
1_5_____
  6
CONTINUOUS
 62
     0
 10
439.7727273387343
 20
1400.174595629266
 30
0.0
 11
-205.7314230518903
 21
1400.174595629266
 31
0.0
  0
INSERT
  5
EC
  8
1_5_____
 62
     0
  2
_DOT
 10
442.0206521434218
 20
1400.174595629266
 30
0.0
 41
2.2479248046875
 42
2.2479248046875
 43
2.2479248046875
  0
INSERT
  5
ED
  8
1_5_____
 62
     0
  2
_DOT
 10
-207.9793478565778
 20
1400.174595629266
 30
0.0
 41
2.2479248046875
 42
2.2479248046875
 43
2.2479248046875
 50
180.0
  0
TEXT
  5
EE
  8
1_5_____
  6
CONTINUOUS
 62
     0
 10
101.5962487593832
 20
1400.22459562908
 30
0.0
 40
10.62008101851851
  1
650
  7
YUGOTHIC_MEDIUM
  0
POINT
  5
EF
  8
DEFPOINTS
 62
     0
 10
442.0206521434218
 20
1275.174595629266
 30
0.0
  0
POINT
  5
F0
  8
DEFPOINTS
 62
     0
 10
-207.9793478565778
 20
1275.174595629266
 30
0.0
  0
POINT
  5
F1
  8
DEFPOINTS
 62
     0
 10
-207.9793478565778
 20
1400.174595629266
 30
0.0
  0
ENDBLK
  5
77
  8
0
  0
BLOCK
  8
0
  2
*D4
 70
     1
 10
0.0
 20
0.0
 30
0.0
  3
*D4
  1

  0
LINE
  5
F3
  8
1_5_____
  6
CONTINUOUS
 62
     0
 10
407.0206521434218
 20
1252.674595601326
 30
0.0
 11
407.0206521434218
 21
1345.174595629266
 31
0.0
  0
LINE
  5
F4
  8
1_5_____
  6
CONTINUOUS
 62
     0
 10
-172.9793478565778
 20
1252.674595601326
 30
0.0
 11
-172.9793478565778
 21
1345.174595629266
 31
0.0
  0
LINE
  5
F5
  8
1_5_____
  6
CONTINUOUS
 62
     0
 10
404.7727273387343
 20
1345.174595629266
 30
0.0
 11
-170.7314230518903
 21
1345.174595629266
 31
0.0
  0
INSERT
  5
F6
  8
1_5_____
 62
     0
  2
_DOT
 10
407.0206521434218
 20
1345.174595629266
 30
0.0
 41
2.2479248046875
 42
2.2479248046875
 43
2.2479248046875
  0
INSERT
  5
F7
  8
1_5_____
 62
     0
  2
_DOT
 10
-172.9793478565778
 20
1345.174595629266
 30
0.0
 41
2.2479248046875
 42
2.2479248046875
 43
2.2479248046875
 50
180.0
  0
TEXT
  5
F8
  8
1_5_____
  6
CONTINUOUS
 62
     0
 10
101.8491078312527
 20
1345.22459562908
 30
0.0
 40
10.62008101851851
  1
580
  7
YUGOTHIC_MEDIUM
  0
POINT
  5
F9
  8
DEFPOINTS
 62
     0
 10
407.0206521434218
 20
1245.174595629266
 30
0.0
  0
POINT
  5
FA
  8
DEFPOINTS
 62
     0
 10
-172.9793478565778
 20
1245.174595629266
 30
0.0
  0
POINT
  5
FB
  8
DEFPOINTS
 62
     0
 10
-172.9793478565778
 20
1345.174595629266
 30
0.0
  0
ENDBLK
  5
7A
  8
0
  0
BLOCK
  8
0
  2
*D5
 70
     1
 10
0.0
 20
0.0
 30
0.0
  3
*D5
  1

  0
LINE
  5
FD
  8
1_5__
  6
CONTINUOUS
 62
     0
 10
-170.4793478286381
 20
800.1745956292657
 30
0.0
 11
-347.9793478565777
 21
800.1745956292657
 31
0.0
  0
LINE
  5
FE
  8
1_5__
  6
CONTINUOUS
 62
     0
 10
-205.4793478286381
 20
1285.174595629266
 30
0.0
 11
-347.9793478565778
 21
1285.174595629266
 31
0.0
  0
LINE
  5
FF
  8
1_5__
  6
CONTINUOUS
 62
     0
 10
-347.9793478565777
 20
802.4225204339532
 30
0.0
 11
-347.9793478565778
 21
1282.926670824578
 31
0.0
  0
INSERT
  5
100
  8
1_5__
 62
     0
  2
_DOT
 10
-347.9793478565777
 20
800.1745956292657
 30
0.0
 41
2.2479248046875
 42
2.2479248046875
 43
2.2479248046875
 50
270.0
  0
INSERT
  5
101
  8
1_5__
 62
     0
  2
_DOT
 10
-347.9793478565778
 20
1285.174595629266
 30
0.0
 41
2.2479248046875
 42
2.2479248046875
 43
2.2479248046875
 50
90.00000000000001
  0
TEXT
  5
102
  8
1_5__
  6
CONTINUOUS
 62
     0
 10
-348.0293478563917
 20
1027.503051317096
 30
0.0
 40
10.62008101851851
  1
485
 50
90.00000000000001
  7
YUGOTHIC_MEDIUM
  0
POINT
  5
103
  8
DEFPOINTS
 62
     0
 10
-162.9793478565778
 20
800.1745956292657
 30
0.0
  0
POINT
  5
104
  8
DEFPOINTS
 62
     0
 10
-197.9793478565778
 20
1285.174595629266
 30
0.0
  0
POINT
  5
105
  8
DEFPOINTS
 62
     0
 10
-347.9793478565778
 20
1285.174595629266
 30
0.0
  0
ENDBLK
  5
7D
  8
0
  0
BLOCK
  8
0
  2
*D6
 70
     1
 10
0.0
 20
0.0
 30
0.0
  3
*D6
  1

  0
LINE
  5
107
  8
1_5__
  6
CONTINUOUS
 62
     0
 10
-170.4793478286381
 20
835.1745956292657
 30
0.0
 11
-262.9793478565778
 21
835.1745956292657
 31
0.0
  0
LINE
  5
108
  8
1_5__
  6
CONTINUOUS
 62
     0
 10
-170.4793478286381
 20
1140.174595629266
 30
0.0
 11
-262.9793478565778
 21
1140.174595629266
 31
0.0
  0
LINE
  5
109
  8
1_5__
  6
CONTINUOUS
 62
     0
 10
-262.9793478565778
 20
837.4225204339532
 30
0.0
 11
-262.9793478565778
 21
1137.926670824578
 31
0.0
  0
INSERT
  5
10A
  8
1_5__
 62
     0
  2
_DOT
 10
-262.9793478565778
 20
835.1745956292657
 30
0.0
 41
2.2479248046875
 42
2.2479248046875
 43
2.2479248046875
 50
270.0
  0
INSERT
  5
10B
  8
1_5__
 62
     0
  2
_DOT
 10
-262.9793478565778
 20
1140.174595629266
 30
0.0
 41
2.2479248046875
 42
2.2479248046875
 43
2.2479248046875
 50
90.0
  0
TEXT
  5
10C
  8
1_5__
  6
CONTINUOUS
 62
     0
 10
-263.0293478563915
 20
972.5030513170966
 30
0.0
 40
10.62008101851851
  1
305
 50
90.0
  7
YUGOTHIC_MEDIUM
  0
POINT
  5
10D
  8
DEFPOINTS
 62
     0
 10
-162.9793478565778
 20
835.1745956292657
 30
0.0
  0
POINT
  5
10E
  8
DEFPOINTS
 62
     0
 10
-162.9793478565778
 20
1140.174595629266
 30
0.0
  0
POINT
  5
10F
  8
DEFPOINTS
 62
     0
 10
-262.9793478565778
 20
1140.174595629266
 30
0.0
  0
ENDBLK
  5
80
  8
0
  0
BLOCK
  8
0
  2
*D7
 70
     1
 10
0.0
 20
0.0
 30
0.0
  3
*D7
  1

  0
LINE
  5
111
  8
1_5__
  6
CONTINUOUS
 62
     0
 10
140.0206521434222
 20
1067.674595657205
 30
0.0
 11
140.0206521434222
 21
975.1745956292657
 31
0.0
  0
LINE
  5
112
  8
1_5__
  6
CONTINUOUS
 62
     0
 10
94.02065214342224
 20
1067.674595657205
 30
0.0
 11
94.02065214342224
 21
975.1745956292657
 31
0.0
  0
LINE
  5
113
  8
1_5__
  6
CONTINUOUS
 62
     0
 10
137.7727273387347
 20
975.1745956292657
 30
0.0
 11
96.26857694810974
 21
975.1745956292657
 31
0.0
  0
INSERT
  5
114
  8
1_5__
 62
     0
  2
_DOT
 10
140.0206521434222
 20
975.1745956292657
 30
0.0
 41
2.2479248046875
 42
2.2479248046875
 43
2.2479248046875
  0
INSERT
  5
115
  8
1_5__
 62
     0
  2
_DOT
 10
94.02065214342224
 20
975.1745956292657
 30
0.0
 41
2.2479248046875
 42
2.2479248046875
 43
2.2479248046875
 50
180.0
  0
TEXT
  5
116
  8
1_5__
  6
CONTINUOUS
 62
     0
 10
106.9062892686427
 20
975.2245956290794
 30
0.0
 40
10.62008101851851
  1
46
  7
YUGOTHIC_MEDIUM
  0
POINT
  5
117
  8
DEFPOINTS
 62
     0
 10
140.0206521434222
 20
1075.174595629266
 30
0.0
  0
POINT
  5
118
  8
DEFPOINTS
 62
     0
 10
94.02065214342224
 20
1075.174595629266
 30
0.0
  0
POINT
  5
119
  8
DEFPOINTS
 62
     0
 10
94.02065214342224
 20
975.1745956292657
 30
0.0
  0
ENDBLK
  5
83
  8
0
  0
BLOCK
  8
0
  2
*D8
 70
     1
 10
0.0
 20
0.0
 30
0.0
  3
*D8
  1

  0
LINE
  5
11B
  8
1_5__
  6
CONTINUOUS
 62
     0
 10
134.5206521434222
 20
1197.674595657205
 30
0.0
 11
134.5206521434222
 21
1165.807928962413
 31
0.0
  0
LINE
  5
11C
  8
1_5__
  6
CONTINUOUS
 62
     0
 10
99.52065214342224
 20
1197.674595657205
 30
0.0
 11
99.52065214342224
 21
1165.807928962413
 31
0.0
  0
LINE
  5
11D
  8
1_5__
  6
CONTINUOUS
 62
     0
 10
134.5206521434222
 20
1165.807928962413
 30
0.0
 11
180.078875042756
 21
1165.807928962413
 31
0.0
  0
LINE
  5
11E
  8
1_5__
  6
CONTINUOUS
 62
     0
 10
132.2727273387347
 20
1165.807928962413
 30
0.0
 11
101.7685769481097
 21
1165.807928962413
 31
0.0
  0
INSERT
  5
11F
  8
1_5__
 62
     0
  2
_DOT
 10
134.5206521434222
 20
1165.807928962413
 30
0.0
 41
2.2479248046875
 42
2.2479248046875
 43
2.2479248046875
  0
INSERT
  5
120
  8
1_5__
 62
     0
  2
_DOT
 10
99.52065214342224
 20
1165.807928962413
 30
0.0
 41
2.2479248046875
 42
2.2479248046875
 43
2.2479248046875
 50
180.0
  0
TEXT
  5
121
  8
1_5__
  6
CONTINUOUS
 62
     0
 10
161.3173037246002
 20
1165.857928962227
 30
0.0
 40
10.62008101851851
  1
35
  7
YUGOTHIC_MEDIUM
  0
POINT
  5
122
  8
DEFPOINTS
 62
     0
 10
134.5206521434222
 20
1205.174595629266
 30
0.0
  0
POINT
  5
123
  8
DEFPOINTS
 62
     0
 10
99.52065214342224
 20
1205.174595629266
 30
0.0
  0
POINT
  5
124
  8
DEFPOINTS
 62
     0
 10
99.52065214342224
 20
1155.174595629266
 30
0.0
  0
ENDBLK
  5
86
  8
0
  0
BLOCK
  8
0
  2
*D9
 70
     1
 10
0.0
 20
0.0
 30
0.0
  3
*D9
  1

  0
LINE
  5
126
  8
1_5__
  6
CONTINUOUS
 62
     0
 10
72.02065217136192
 20
349.4452756292271
 30
0.0
 11
-347.9793478565778
 21
349.4452756292271
 31
0.0
  0
LINE
  5
127
  8
1_5__
  6
CONTINUOUS
 62
     0
 10
-210.4793478286381
 20
584.4452756292253
 30
0.0
 11
-347.9793478565778
 21
584.4452756292253
 31
0.0
  0
LINE
  5
128
  8
1_5__
  6
CONTINUOUS
 62
     0
 10
-347.9793478565778
 20
351.6932004339146
 30
0.0
 11
-347.9793478565778
 21
582.1973508245378
 31
0.0
  0
INSERT
  5
129
  8
1_5__
 62
     0
  2
_DOT
 10
-347.9793478565778
 20
349.4452756292271
 30
0.0
 41
2.2479248046875
 42
2.2479248046875
 43
2.2479248046875
 50
270.0
  0
INSERT
  5
12A
  8
1_5__
 62
     0
  2
_DOT
 10
-347.9793478565778
 20
584.4452756292253
 30
0.0
 41
2.2479248046875
 42
2.2479248046875
 43
2.2479248046875
 50
90.0
  0
TEXT
  5
12B
  8
1_5__
  6
CONTINUOUS
 62
     0
 10
-348.0293478563914
 20
451.773731317057
 30
0.0
 40
10.62008101851851
  1
235
 50
90.0
  7
YUGOTHIC_MEDIUM
  0
POINT
  5
12C
  8
DEFPOINTS
 62
     0
 10
79.52065214342224
 20
349.4452756292271
 30
0.0
  0
POINT
  5
12D
  8
DEFPOINTS
 62
     0
 10
-202.9793478565778
 20
584.4452756292253
 30
0.0
  0
POINT
  5
12E
  8
DEFPOINTS
 62
     0
 10
-347.9793478565778
 20
584.4452756292253
 30
0.0
  0
ENDBLK
  5
89
  8
0
  0
BLOCK
  8
0
  2
*D10
 70
     1
 10
0.0
 20
0.0
 30
0.0
  3
*D10
  1

  0
LINE
  5
130
  8
1_5__
  6
CONTINUOUS
 62
     0
 10
-212.3927649904635
 20
514.8258779666708
 30
0.0
 11
-302.9793478565778
 21
514.8258779666708
 31
0.0
  0
LINE
  5
131
  8
1_5__
  6
CONTINUOUS
 62
     0
 10
-210.4793478286381
 20
584.4452756292253
 30
0.0
 11
-302.9793478565778
 21
584.4452756292253
 31
0.0
  0
LINE
  5
132
  8
1_5__
  6
CONTINUOUS
 62
     0
 10
-302.9793478565778
 20
517.0738027713583
 30
0.0
 11
-302.9793478565778
 21
582.1973508245378
 31
0.0
  0
INSERT
  5
133
  8
1_5__
 62
     0
  2
_DOT
 10
-302.9793478565778
 20
514.8258779666708
 30
0.0
 41
2.2479248046875
 42
2.2479248046875
 43
2.2479248046875
 50
270.0
  0
INSERT
  5
134
  8
1_5__
 62
     0
  2
_DOT
 10
-302.9793478565778
 20
584.4452756292253
 30
0.0
 41
2.2479248046875
 42
2.2479248046875
 43
2.2479248046875
 50
90.0
  0
TEXT
  5
135
  8
1_5__
  6
CONTINUOUS
 62
     0
 10
-303.0293478563915
 20
516.2581793111756
 30
0.0
 40
10.62008101851851
  1
69.6194
 50
90.0
  7
YUGOTHIC_MEDIUM
  0
POINT
  5
136
  8
DEFPOINTS
 62
     0
 10
-204.8927650184032
 20
514.8258779666708
 30
0.0
  0
POINT
  5
137
  8
DEFPOINTS
 62
     0
 10
-202.9793478565778
 20
584.4452756292253
 30
0.0
  0
POINT
  5
138
  8
DEFPOINTS
 62
     0
 10
-302.9793478565778
 20
584.4452756292253
 30
0.0
  0
ENDBLK
  5
8C
  8
0
  0
BLOCK
  8
0
  2
*D11
 70
     1
 10
0.0
 20
0.0
 30
0.0
  3
*D11
  1

  0
LINE
  5
13A
  8
1_5__
  6
CONTINUOUS
 62
     0
 10
-205.4793478286381
 20
549.4452756292271
 30
0.0
 11
-252.9793478565778
 21
549.4452756292271
 31
0.0
  0
LINE
  5
13B
  8
1_5__
  6
CONTINUOUS
 62
     0
 10
-210.4793478286381
 20
584.4452756292253
 30
0.0
 11
-252.9793478565778
 21
584.4452756292253
 31
0.0
  0
LINE
  5
13C
  8
1_5__
  6
CONTINUOUS
 62
     0
 10
-252.9793478565778
 20
551.6932004339146
 30
0.0
 11
-252.9793478565778
 21
582.1973508245378
 31
0.0
  0
INSERT
  5
13D
  8
1_5__
 62
     0
  2
_DOT
 10
-252.9793478565778
 20
549.4452756292271
 30
0.0
 41
2.2479248046875
 42
2.2479248046875
 43
2.2479248046875
 50
270.0
  0
INSERT
  5
13E
  8
1_5__
 62
     0
  2
_DOT
 10
-252.9793478565778
 20
584.4452756292253
 30
0.0
 41
2.2479248046875
 42
2.2479248046875
 43
2.2479248046875
 50
90.0
  0
TEXT
  5
13F
  8
1_5__
  6
CONTINUOUS
 62
     0
 10
-253.0293478563915
 20
556.8309127544467
 30
0.0
 40
10.62008101851851
  1
35
 50
90.0
  7
YUGOTHIC_MEDIUM
  0
POINT
  5
140
  8
DEFPOINTS
 62
     0
 10
-197.9793478565778
 20
549.4452756292271
 30
0.0
  0
POINT
  5
141
  8
DEFPOINTS
 62
     0
 10
-202.9793478565778
 20
584.4452756292253
 30
0.0
  0
POINT
  5
142
  8
DEFPOINTS
 62
     0
 10
-252.9793478565778
 20
584.4452756292253
 30
0.0
  0
ENDBLK
  5
8F
  8
0
  0
BLOCK
  8
0
  2
*D12
 70
     1
 10
0.0
 20
0.0
 30
0.0
  3
*D12
  1

  0
LINE
  5
144
  8
1_5__
  6
CONTINUOUS
 62
     0
 10
257.0206521434218
 20
510.0482756012902
 30
0.0
 11
257.0206521434218
 21
652.5482756292299
 31
0.0
  0
LINE
  5
145
  8
1_5__
  6
CONTINUOUS
 62
     0
 10
-22.97934785657776
 20
510.0482756012902
 30
0.0
 11
-22.97934785657776
 21
652.5482756292299
 31
0.0
  0
LINE
  5
146
  8
1_5__
  6
CONTINUOUS
 62
     0
 10
254.7727273387343
 20
652.5482756292299
 30
0.0
 11
-20.73142305189026
 21
652.5482756292299
 31
0.0
  0
INSERT
  5
147
  8
1_5__
 62
     0
  2
_DOT
 10
257.0206521434218
 20
652.5482756292299
 30
0.0
 41
2.2479248046875
 42
2.2479248046875
 43
2.2479248046875
  0
INSERT
  5
148
  8
1_5__
 62
     0
  2
_DOT
 10
-22.97934785657776
 20
652.5482756292299
 30
0.0
 41
2.2479248046875
 42
2.2479248046875
 43
2.2479248046875
 50
180.0
  0
TEXT
  5
149
  8
1_5__
  6
CONTINUOUS
 62
     0
 10
101.8491078312527
 20
652.5982756290437
 30
0.0
 40
10.62008101851851
  1
280
  7
YUGOTHIC_MEDIUM
  0
POINT
  5
14A
  8
DEFPOINTS
 62
     0
 10
257.0206521434218
 20
502.5482756292299
 30
0.0
  0
POINT
  5
14B
  8
DEFPOINTS
 62
     0
 10
-22.97934785657776
 20
502.5482756292299
 30
0.0
  0
POINT
  5
14C
  8
DEFPOINTS
 62
     0
 10
-22.97934785657776
 20
652.5482756292299
 30
0.0
  0
ENDBLK
  5
92
  8
0
  0
BLOCK
  8
0
  2
*D13
 70
     1
 10
0.0
 20
0.0
 30
0.0
  3
*D13
  1

  0
LINE
  5
14E
  8
1_5__
  6
CONTINUOUS
 62
     0
 10
173.7817321154819
 20
1075.174595629266
 30
0.0
 11
532.0206521434218
 21
1075.174595629266
 31
0.0
  0
LINE
  5
14F
  8
1_5__
  6
CONTINUOUS
 62
     0
 10
439.5206521154821
 20
1285.174595629266
 30
0.0
 11
532.0206521434218
 21
1285.174595629266
 31
0.0
  0
LINE
  5
150
  8
1_5__
  6
CONTINUOUS
 62
     0
 10
532.0206521434218
 20
1077.422520433953
 30
0.0
 11
532.0206521434218
 21
1282.926670824578
 31
0.0
  0
INSERT
  5
151
  8
1_5__
 62
     0
  2
_DOT
 10
532.0206521434218
 20
1075.174595629266
 30
0.0
 41
2.2479248046875
 42
2.2479248046875
 43
2.2479248046875
 50
270.0
  0
INSERT
  5
152
  8
1_5__
 62
     0
  2
_DOT
 10
532.0206521434218
 20
1285.174595629266
 30
0.0
 41
2.2479248046875
 42
2.2479248046875
 43
2.2479248046875
 50
90.0
  0
TEXT
  5
153
  8
1_5__
  6
CONTINUOUS
 62
     0
 10
531.9706521436078
 20
1165.003051317096
 30
0.0
 40
10.62008101851851
  1
210
 50
90.0
  7
YUGOTHIC_MEDIUM
  0
POINT
  5
154
  8
DEFPOINTS
 62
     0
 10
166.2817321434216
 20
1075.174595629266
 30
0.0
  0
POINT
  5
155
  8
DEFPOINTS
 62
     0
 10
432.0206521434218
 20
1285.174595629266
 30
0.0
  0
POINT
  5
156
  8
DEFPOINTS
 62
     0
 10
532.0206521434218
 20
1285.174595629266
 30
0.0
  0
ENDBLK
  5
95
  8
0
  0
BLOCK
  8
0
  2
*D14
 70
     1
 10
0.0
 20
0.0
 30
0.0
  3
*D14
  1

  0
LINE
  5
158
  8
1_5__
  6
CONTINUOUS
 62
     0
 10
157.0206521154826
 20
1205.174595629266
 30
0.0
 11
482.0206521434218
 21
1205.174595629266
 31
0.0
  0
LINE
  5
159
  8
1_5__
  6
CONTINUOUS
 62
     0
 10
439.5206521154821
 20
1285.174595629266
 30
0.0
 11
482.0206521434218
 21
1285.174595629266
 31
0.0
  0
LINE
  5
15A
  8
1_5__
  6
CONTINUOUS
 62
     0
 10
482.0206521434218
 20
1207.422520433953
 30
0.0
 11
482.0206521434218
 21
1282.926670824578
 31
0.0
  0
INSERT
  5
15B
  8
1_5__
 62
     0
  2
_DOT
 10
482.0206521434218
 20
1205.174595629266
 30
0.0
 41
2.2479248046875
 42
2.2479248046875
 43
2.2479248046875
 50
270.0
  0
INSERT
  5
15C
  8
1_5__
 62
     0
  2
_DOT
 10
482.0206521434218
 20
1285.174595629266
 30
0.0
 41
2.2479248046875
 42
2.2479248046875
 43
2.2479248046875
 50
90.0
  0
TEXT
  5
15D
  8
1_5__
  6
CONTINUOUS
 62
     0
 10
481.9706521436078
 20
1235.060232754486
 30
0.0
 40
10.62008101851851
  1
80
 50
90.0
  7
YUGOTHIC_MEDIUM
  0
POINT
  5
15E
  8
DEFPOINTS
 62
     0
 10
149.5206521434222
 20
1205.174595629266
 30
0.0
  0
POINT
  5
15F
  8
DEFPOINTS
 62
     0
 10
432.0206521434218
 20
1285.174595629266
 30
0.0
  0
POINT
  5
160
  8
DEFPOINTS
 62
     0
 10
482.0206521434218
 20
1285.174595629266
 30
0.0
  0
ENDBLK
  5
98
  8
0
  0
BLOCK
  8
0
  2
*D15
 70
     1
 10
0.0
 20
0.0
 30
0.0
  3
*D15
  1

  0
LINE
  5
162
  8
1_5__
  6
CONTINUOUS
 62
     0
 10
993.565977171362
 20
404.4432756292777
 30
0.0
 11
676.0659771434223
 21
404.4432756292777
 31
0.0
  0
LINE
  5
163
  8
1_5__
  6
CONTINUOUS
 62
     0
 10
768.565977171362
 20
549.4452756292271
 30
0.0
 11
676.0659771434223
 21
549.4452756292271
 31
0.0
  0
LINE
  5
164
  8
1_5__
  6
CONTINUOUS
 62
     0
 10
676.0659771434223
 20
406.6912004339652
 30
0.0
 11
676.0659771434223
 21
547.1973508245396
 31
0.0
  0
INSERT
  5
165
  8
1_5__
 62
     0
  2
_DOT
 10
676.0659771434223
 20
404.4432756292777
 30
0.0
 41
2.2479248046875
 42
2.2479248046875
 43
2.2479248046875
 50
270.0
  0
INSERT
  5
166
  8
1_5__
 62
     0
  2
_DOT
 10
676.0659771434223
 20
549.4452756292271
 30
0.0
 41
2.2479248046875
 42
2.2479248046875
 43
2.2479248046875
 50
90.0
  0
TEXT
  5
167
  8
1_5__
  6
CONTINUOUS
 62
     0
 10
676.0159771436086
 20
443.3140190706105
 30
0.0
 40
10.62008101851851
  1
145.002
 50
90.0
  7
YUGOTHIC_MEDIUM
  0
POINT
  5
168
  8
DEFPOINTS
 62
     0
 10
1001.065977143422
 20
404.4432756292777
 30
0.0
  0
POINT
  5
169
  8
DEFPOINTS
 62
     0
 10
776.0659771434223
 20
549.4452756292271
 30
0.0
  0
POINT
  5
16A
  8
DEFPOINTS
 62
     0
 10
676.0659771434223
 20
549.4452756292271
 30
0.0
  0
ENDBLK
  5
9B
  8
0
  0
BLOCK
  8
0
  2
*D16
 70
     1
 10
0.0
 20
0.0
 30
0.0
  3
*D16
  1

  0
LINE
  5
16C
  8
1_5__
  6
CONTINUOUS
 62
     0
 10
1106.680774913681
 20
534.012704315448
 30
0.0
 11
1059.465397560274
 21
534.012704315448
 31
0.0
  0
LINE
  5
16D
  8
1_5__
  6
CONTINUOUS
 62
     0
 10
1087.598730921361
 20
549.4452756292271
 30
0.0
 11
1059.465397560274
 21
549.4452756292271
 31
0.0
  0
LINE
  5
16E
  8
1_5__
  6
CONTINUOUS
 62
     0
 10
1059.465397560274
 20
549.4452756292271
 30
0.0
 11
1059.465397560274
 21
625.645947696022
 31
0.0
  0
LINE
  5
16F
  8
1_5__
  6
CONTINUOUS
 62
     0
 10
1059.465397560274
 20
536.2606291201355
 30
0.0
 11
1059.465397560274
 21
547.1973508245396
 31
0.0
  0
INSERT
  5
170
  8
1_5__
 62
     0
  2
_DOT
 10
1059.465397560274
 20
534.012704315448
 30
0.0
 41
2.2479248046875
 42
2.2479248046875
 43
2.2479248046875
 50
270.0
  0
INSERT
  5
171
  8
1_5__
 62
     0
  2
_DOT
 10
1059.465397560274
 20
549.4452756292271
 30
0.0
 41
2.2479248046875
 42
2.2479248046875
 43
2.2479248046875
 50
90.0
  0
TEXT
  5
172
  8
1_5__
  6
CONTINUOUS
 62
     0
 10
1059.41539756046
 20
561.3697434413583
 30
0.0
 40
10.62008101851851
  1
15.4326
 50
90.0
  7
YUGOTHIC_MEDIUM
  0
POINT
  5
173
  8
DEFPOINTS
 62
     0
 10
1114.180774885741
 20
534.012704315448
 30
0.0
  0
POINT
  5
174
  8
DEFPOINTS
 62
     0
 10
1095.098730893421
 20
549.4452756292271
 30
0.0
  0
POINT
  5
175
  8
DEFPOINTS
 62
     0
 10
1070.098730893421
 20
549.4452756292271
 30
0.0
  0
ENDBLK
  5
9E
  8
0
  0
BLOCK
  8
0
  2
*D17
 70
     1
 10
0.0
 20
0.0
 30
0.0
  3
*D17
  1

  0
LINE
  5
177
  8
1_5__-1
  6
CONTINUOUS
 62
     0
 10
808.4375750279404
 20
1132.679774999997
 30
0.0
 11
765.9375750000007
 21
1132.679774999997
 31
0.0
  0
LINE
  5
178
  8
1_5__-1
  6
CONTINUOUS
 62
     0
 10
808.4375750279404
 20
1272.679774999997
 30
0.0
 11
765.9375750000007
 21
1272.679774999997
 31
0.0
  0
LINE
  5
179
  8
1_5__-1
  6
CONTINUOUS
 62
     0
 10
765.9375750000007
 20
1134.927699804684
 30
0.0
 11
765.9375750000007
 21
1270.431850195309
 31
0.0
  0
INSERT
  5
17A
  8
1_5__-1
 62
     0
  2
_DOT
 10
765.9375750000007
 20
1132.679774999997
 30
0.0
 41
2.2479248046875
 42
2.2479248046875
 43
2.2479248046875
 50
270.0
  0
INSERT
  5
17B
  8
1_5__-1
 62
     0
  2
_DOT
 10
765.9375750000007
 20
1272.679774999997
 30
0.0
 41
2.2479248046875
 42
2.2479248046875
 43
2.2479248046875
 50
90.0
  0
TEXT
  5
17C
  8
1_5__-1
  6
CONTINUOUS
 62
     0
 10
765.8875750001866
 20
1186.749653472219
 30
0.0
 40
10.62008101851851
  1
140
 50
90.0
  7
YUGOTHIC_MEDIUM
  0
POINT
  5
17D
  8
DEFPOINTS
 62
     0
 10
815.9375750000007
 20
1132.679774999997
 30
0.0
  0
POINT
  5
17E
  8
DEFPOINTS
 62
     0
 10
815.9375750000007
 20
1272.679774999997
 30
0.0
  0
POINT
  5
17F
  8
DEFPOINTS
 62
     0
 10
765.9375750000007
 20
1272.679774999997
 30
0.0
  0
ENDBLK
  5
A1
  8
0
  0
BLOCK
  8
0
  2
*D18
 70
     1
 10
0.0
 20
0.0
 30
0.0
  3
*D18
  1

  0
LINE
  5
180
  8
1_5__-1
  6
CONTINUOUS
 62
     0
 10
831.625570000001
 20
1206.906289972059
 30
0.0
 11
831.625570000001
 21
1199.406289999999
 31
0.0
  0
LINE
  5
181
  8
1_5__-1
  6
CONTINUOUS
 62
     0
 10
823.8402150000014
 20
1206.906289972059
 30
0.0
 11
823.8402150000014
 21
1199.406289999999
 31
0.0
  0
LINE
  5
182
  8
1_5__-1
  6
CONTINUOUS
 62
     0
 10
831.625570000001
 20
1199.406289999999
 30
0.0
 11
917.6573542616354
 21
1199.406289999999
 31
0.0
  0
LINE
  5
183
  8
1_5__-1
  6
CONTINUOUS
 62
     0
 10
829.3776451953134
 20
1199.406289999999
 30
0.0
 11
826.0881398046889
 21
1199.406289999999
 31
0.0
  0
INSERT
  5
184
  8
1_5__-1
 62
     0
  2
_DOT
 10
831.625570000001
 20
1199.406289999999
 30
0.0
 41
2.2479248046875
 42
2.2479248046875
 43
2.2479248046875
  0
INSERT
  5
185
  8
1_5__-1
 62
     0
  2
_DOT
 10
823.8402150000014
 20
1199.406289999999
 30
0.0
 41
2.2479248046875
 42
2.2479248046875
 43
2.2479248046875
 50
180.0
  0
TEXT
  5
186
  8
1_5__-1
  6
CONTINUOUS
 62
     0
 10
862.9897947380122
 20
1199.456289999813
 30
0.0
 40
10.62008101851851
  1
7.7854
  7
YUGOTHIC_MEDIUM
  0
POINT
  5
187
  8
DEFPOINTS
 62
     0
 10
831.625570000001
 20
1199.406289999999
 30
0.0
  0
POINT
  5
188
  8
DEFPOINTS
 62
     0
 10
823.8402150000014
 20
1199.406289999999
 30
0.0
  0
POINT
  5
189
  8
DEFPOINTS
 62
     0
 10
823.8402150000014
 20
1199.406289999999
 30
0.0
  0
ENDBLK
  5
A4
  8
0
  0
BLOCK
  8
0
  2
*D19
 70
     1
 10
0.0
 20
0.0
 30
0.0
  3
*D19
  1

  0
LINE
  5
18A
  8
1_5__-1
  6
CONTINUOUS
 62
     0
 10
832.1255699999996
 20
1135.681660027942
 30
0.0
 11
832.1255699999996
 21
1089.905925000057
 31
0.0
  0
LINE
  5
18B
  8
1_5__-1
  6
CONTINUOUS
 62
     0
 10
823.12557
 20
1132.405925027997
 30
0.0
 11
823.12557
 21
1089.905925000057
 31
0.0
  0
LINE
  5
18C
  8
1_5__-1
  6
CONTINUOUS
 62
     0
 10
829.8776451953121
 20
1089.905925000057
 30
0.0
 11
825.3734948046875
 21
1089.905925000057
 31
0.0
  0
INSERT
  5
18D
  8
1_5__-1
 62
     0
  2
_DOT
 10
832.1255699999996
 20
1089.905925000057
 30
0.0
 41
2.2479248046875
 42
2.2479248046875
 43
2.2479248046875
  0
INSERT
  5
18E
  8
1_5__-1
 62
     0
  2
_DOT
 10
823.12557
 20
1089.905925000057
 30
0.0
 41
2.2479248046875
 42
2.2479248046875
 43
2.2479248046875
 50
180.0
  0
TEXT
  5
18F
  8
1_5__-1
  6
CONTINUOUS
 62
     0
 10
822.8212476344795
 20
1089.955924999871
 30
0.0
 40
10.62008101851851
  1
9
  7
YUGOTHIC_MEDIUM
  0
POINT
  5
190
  8
DEFPOINTS
 62
     0
 10
832.1255699999996
 20
1143.181660000002
 30
0.0
  0
POINT
  5
191
  8
DEFPOINTS
 62
     0
 10
823.12557
 20
1139.905925000057
 30
0.0
  0
POINT
  5
192
  8
DEFPOINTS
 62
     0
 10
823.12557
 20
1089.905925000057
 30
0.0
  0
ENDBLK
  5
A7
  8
0
  0
BLOCK
  8
0
  2
*D20
 70
     1
 10
0.0
 20
0.0
 30
0.0
  3
*D20
  1

  0
LINE
  5
193
  8
1_5__-1
  6
CONTINUOUS
 62
     0
 10
1042.0625
 20
1270.390784972056
 30
0.0
 11
1042.0625
 21
1287.890784999996
 31
0.0
  0
LINE
  5
194
  8
1_5__-1
  6
CONTINUOUS
 62
     0
 10
1028.562500000001
 20
1270.390784972056
 30
0.0
 11
1028.562500000001
 21
1287.890784999996
 31
0.0
  0
LINE
  5
195
  8
1_5__-1
  6
CONTINUOUS
 62
     0
 10
1042.0625
 20
1287.890784999996
 30
0.0
 11
1028.562500000001
 21
1287.890784999996
 31
0.0
  0
LINE
  5
196
  8
1_5__-1
  6
CONTINUOUS
 62
     0
 10
1044.310424804688
 20
1287.890784999996
 30
0.0
 11
1046.558349609375
 21
1287.890784999996
 31
0.0
  0
LINE
  5
197
  8
1_5__-1
  6
CONTINUOUS
 62
     0
 10
1026.314575195313
 20
1287.890784999996
 30
0.0
 11
1024.066650390626
 21
1287.890784999996
 31
0.0
  0
INSERT
  5
198
  8
1_5__-1
 62
     0
  2
_DOT
 10
1042.0625
 20
1287.890784999996
 30
0.0
 41
2.2479248046875
 42
2.2479248046875
 43
2.2479248046875
 50
180.0
  0
INSERT
  5
199
  8
1_5__-1
 62
     0
  2
_DOT
 10
1028.562500000001
 20
1287.890784999996
 30
0.0
 41
2.2479248046875
 42
2.2479248046875
 43
2.2479248046875
  0
TEXT
  5
19A
  8
1_5__-1
  6
CONTINUOUS
 62
     0
 10
1016.853787753528
 20
1287.94078499981
 30
0.0
 40
10.62008101851851
  1
13.5
  7
YUGOTHIC_MEDIUM
  0
POINT
  5
19B
  8
DEFPOINTS
 62
     0
 10
1042.0625
 20
1262.890784999996
 30
0.0
  0
POINT
  5
7EA
  8
DEFPOINTS
 62
     0
 10
1028.562500000001
 20
1262.890784999996
 30
0.0
  0
POINT
  5
7EB
  8
DEFPOINTS
 62
     0
 10
1028.562500000001
 20
1287.890784999996
 30
0.0
  0
ENDBLK
  5
AA
  8
0
  0
BLOCK
  8
0
  2
*D21
 70
     1
 10
0.0
 20
0.0
 30
0.0
  3
*D21
  1

  0
LINE
  5
19C
  8
1_5__-1
  6
CONTINUOUS
 62
     0
 10
1046.812499972061
 20
1188.390785000025
 30
0.0
 11
1092.0625
 21
1188.390785000025
 31
0.0
  0
LINE
  5
19D
  8
1_5__-1
  6
CONTINUOUS
 62
     0
 10
1049.56249997206
 20
1262.890784999996
 30
0.0
 11
1092.0625
 21
1262.890784999996
 31
0.0
  0
LINE
  5
19E
  8
1_5__-1
  6
CONTINUOUS
 62
     0
 10
1092.0625
 20
1190.638709804713
 30
0.0
 11
1092.0625
 21
1260.642860195308
 31
0.0
  0
INSERT
  5
19F
  8
1_5__-1
 62
     0
  2
_DOT
 10
1092.0625
 20
1188.390785000025
 30
0.0
 41
2.2479248046875
 42
2.2479248046875
 43
2.2479248046875
 50
270.0
  0
INSERT
  5
1A0
  8
1_5__-1
 62
     0
  2
_DOT
 10
1092.0625
 20
1262.890784999996
 30
0.0
 41
2.2479248046875
 42
2.2479248046875
 43
2.2479248046875
 50
90.0
  0
TEXT
  5
1A1
  8
1_5__-1
  6
CONTINUOUS
 62
     0
 10
1092.012500000186
 20
1207.940649969146
 30
0.0
 40
10.62008101851851
  1
74.5
 50
90.0
  7
YUGOTHIC_MEDIUM
  0
POINT
  5
1A2
  8
DEFPOINTS
 62
     0
 10
1039.312500000001
 20
1188.390785000025
 30
0.0
  0
POINT
  5
1A3
  8
DEFPOINTS
 62
     0
 10
1042.0625
 20
1262.890784999996
 30
0.0
  0
POINT
  5
1A4
  8
DEFPOINTS
 62
     0
 10
1092.0625
 20
1262.890784999996
 30
0.0
  0
ENDBLK
  5
AD
  8
0
  0
BLOCK
  8
0
  2
*D22
 70
     1
 10
0.0
 20
0.0
 30
0.0
  3
*D22
  1

  0
LINE
  5
1A5
  8
1_5__-1
  6
CONTINUOUS
 62
     0
 10
822.1187050279403
 20
889.8488652227625
 30
0.0
 11
785.1187050000011
 21
889.8488652227625
 31
0.0
  0
LINE
  5
1A6
  8
1_5__-1
  6
CONTINUOUS
 62
     0
 10
827.6187050279408
 20
905.3488652227334
 30
0.0
 11
785.1187050000011
 21
905.3488652227334
 31
0.0
  0
LINE
  5
1A7
  8
1_5__-1
  6
CONTINUOUS
 62
     0
 10
785.1187050000011
 20
889.8488652227625
 30
0.0
 11
785.1187050000011
 21
905.3488652227334
 31
0.0
  0
LINE
  5
1A8
  8
1_5__-1
  6
CONTINUOUS
 62
     0
 10
785.1187050000011
 20
887.600940418075
 30
0.0
 11
785.1187050000011
 21
885.3530156133875
 31
0.0
  0
LINE
  5
1A9
  8
1_5__-1
  6
CONTINUOUS
 62
     0
 10
785.1187050000011
 20
907.5967900274209
 30
0.0
 11
785.1187050000011
 21
909.8447148321084
 31
0.0
  0
INSERT
  5
1AA
  8
1_5__-1
 62
     0
  2
_DOT
 10
785.1187050000011
 20
889.8488652227625
 30
0.0
 41
2.2479248046875
 42
2.2479248046875
 43
2.2479248046875
 50
90.0
  0
INSERT
  5
1AB
  8
1_5__-1
 62
     0
  2
_DOT
 10
785.1187050000011
 20
905.3488652227334
 30
0.0
 41
2.2479248046875
 42
2.2479248046875
 43
2.2479248046875
 50
270.0
  0
TEXT
  5
1AC
  8
1_5__-1
  6
CONTINUOUS
 62
     0
 10
785.0687050001874
 20
879.1401529762753
 30
0.0
 40
10.62008101851851
  1
15.5
 50
90.0
  7
YUGOTHIC_MEDIUM
  0
POINT
  5
1AD
  8
DEFPOINTS
 62
     0
 10
829.6187050000007
 20
889.8488652227625
 30
0.0
  0
POINT
  5
7EE
  8
DEFPOINTS
 62
     0
 10
835.1187050000011
 20
905.3488652227334
 30
0.0
  0
POINT
  5
7EF
  8
DEFPOINTS
 62
     0
 10
785.1187050000011
 20
905.3488652227334
 30
0.0
  0
ENDBLK
  5
B0
  8
0
  0
BLOCK
  8
0
  2
*D23
 70
     1
 10
0.0
 20
0.0
 30
0.0
  3
*D23
  1

  0
LINE
  5
1AE
  8
1_5__-1
  6
CONTINUOUS
 62
     0
 10
849.1187050000007
 20
985.8403499720735
 30
0.0
 11
849.1187050000007
 21
1003.340350000013
 31
0.0
  0
LINE
  5
1AF
  8
1_5__-1
  6
CONTINUOUS
 62
     0
 10
835.1187050000007
 20
985.8403499720735
 30
0.0
 11
835.1187050000007
 21
1003.340350000013
 31
0.0
  0
LINE
  5
1B0
  8
1_5__-1
  6
CONTINUOUS
 62
     0
 10
849.1187050000007
 20
1003.340350000013
 30
0.0
 11
835.1187050000007
 21
1003.340350000013
 31
0.0
  0
LINE
  5
1B1
  8
1_5__-1
  6
CONTINUOUS
 62
     0
 10
851.3666298046882
 20
1003.340350000013
 30
0.0
 11
853.6145546093757
 21
1003.340350000013
 31
0.0
  0
LINE
  5
1B2
  8
1_5__-1
  6
CONTINUOUS
 62
     0
 10
832.8707801953132
 20
1003.340350000013
 30
0.0
 11
830.6228553906257
 21
1003.340350000013
 31
0.0
  0
INSERT
  5
1B3
  8
1_5__-1
 62
     0
  2
_DOT
 10
849.1187050000007
 20
1003.340350000013
 30
0.0
 41
2.2479248046875
 42
2.2479248046875
 43
2.2479248046875
 50
180.0
  0
INSERT
  5
1B4
  8
1_5__-1
 62
     0
  2
_DOT
 10
835.1187050000007
 20
1003.340350000013
 30
0.0
 41
2.2479248046875
 42
2.2479248046875
 43
2.2479248046875
  0
TEXT
  5
1B5
  8
1_5__-1
  6
CONTINUOUS
 62
     0
 10
830.9929058377433
 20
1003.390349999827
 30
0.0
 40
10.62008101851851
  1
14
  7
YUGOTHIC_MEDIUM
  0
POINT
  5
1B6
  8
DEFPOINTS
 62
     0
 10
849.1187050000007
 20
978.3403500000131
 30
0.0
  0
POINT
  5
7F1
  8
DEFPOINTS
 62
     0
 10
835.1187050000007
 20
978.3403500000131
 30
0.0
  0
POINT
  5
7F2
  8
DEFPOINTS
 62
     0
 10
835.1187050000007
 20
1003.340350000013
 30
0.0
  0
ENDBLK
  5
B3
  8
0
  0
BLOCK
  8
0
  2
*D24
 70
     1
 10
0.0
 20
0.0
 30
0.0
  3
*D24
  1

  0
LINE
  5
1B7
  8
1_5__-1
  6
CONTINUOUS
 62
     0
 10
860.1187050000011
 20
970.8403500279528
 30
0.0
 11
860.1187050000011
 21
928.3403500000131
 31
0.0
  0
LINE
  5
1B8
  8
1_5__-1
  6
CONTINUOUS
 62
     0
 10
824.1187050000002
 20
970.8403500279528
 30
0.0
 11
824.1187050000002
 21
928.3403500000131
 31
0.0
  0
LINE
  5
1B9
  8
1_5__-1
  6
CONTINUOUS
 62
     0
 10
857.8707801953136
 20
928.3403500000131
 30
0.0
 11
826.3666298046877
 21
928.3403500000131
 31
0.0
  0
INSERT
  5
1BA
  8
1_5__-1
 62
     0
  2
_DOT
 10
860.1187050000011
 20
928.3403500000131
 30
0.0
 41
2.2479248046875
 42
2.2479248046875
 43
2.2479248046875
  0
INSERT
  5
1BB
  8
1_5__-1
 62
     0
  2
_DOT
 10
824.1187050000002
 20
928.3403500000131
 30
0.0
 41
2.2479248046875
 42
2.2479248046875
 43
2.2479248046875
 50
180.0
  0
TEXT
  5
1BC
  8
1_5__-1
  6
CONTINUOUS
 62
     0
 10
832.0043421252211
 20
928.3903499998269
 30
0.0
 40
10.62008101851851
  1
36
  7
YUGOTHIC_MEDIUM
  0
POINT
  5
1BD
  8
DEFPOINTS
 62
     0
 10
860.1187050000011
 20
978.3403500000131
 30
0.0
  0
POINT
  5
1BE
  8
DEFPOINTS
 62
     0
 10
824.1187050000002
 20
978.3403500000131
 30
0.0
  0
POINT
  5
1BF
  8
DEFPOINTS
 62
     0
 10
824.1187050000002
 20
928.3403500000131
 30
0.0
  0
ENDBLK
  5
B6
  8
0
  0
BLOCK
  8
0
  2
*D25
 70
     1
 10
0.0
 20
0.0
 30
0.0
  3
*D25
  1

  0
LINE
  5
1C0
  8
1_5__-1
  6
CONTINUOUS
 62
     0
 10
1021.031250027941
 20
903.5783550000051
 30
0.0
 11
1003.531250000001
 21
903.5783550000051
 31
0.0
  0
LINE
  5
1C1
  8
1_5__-1
  6
CONTINUOUS
 62
     0
 10
1021.031250027941
 20
904.5783550000051
 30
0.0
 11
1003.531250000001
 21
904.5783550000051
 31
0.0
  0
LINE
  5
1C2
  8
1_5__-1
  6
CONTINUOUS
 62
     0
 10
1003.531250000001
 20
903.5783550000051
 30
0.0
 11
1003.531250000001
 21
904.5783550000051
 31
0.0
  0
LINE
  5
1C3
  8
1_5__-1
  6
CONTINUOUS
 62
     0
 10
1003.531250000001
 20
901.3304301953176
 30
0.0
 11
1003.531250000001
 21
899.0825053906301
 31
0.0
  0
LINE
  5
1C4
  8
1_5__-1
  6
CONTINUOUS
 62
     0
 10
1003.531250000001
 20
906.8262798046926
 30
0.0
 11
1003.531250000001
 21
909.0742046093801
 31
0.0
  0
INSERT
  5
1C5
  8
1_5__-1
 62
     0
  2
_DOT
 10
1003.531250000001
 20
903.5783550000051
 30
0.0
 41
2.2479248046875
 42
2.2479248046875
 43
2.2479248046875
 50
90.0
  0
INSERT
  5
1C6
  8
1_5__-1
 62
     0
  2
_DOT
 10
1003.531250000001
 20
904.5783550000051
 30
0.0
 41
2.2479248046875
 42
2.2479248046875
 43
2.2479248046875
 50
270.0
  0
TEXT
  5
1C7
  8
1_5__-1
  6
CONTINUOUS
 62
     0
 10
1003.481250000187
 20
899.7797507782238
 30
0.0
 40
10.62008101851851
  1
1
 50
90.0
  7
YUGOTHIC_MEDIUM
  0
POINT
  5
1C8
  8
DEFPOINTS
 62
     0
 10
1028.531250000001
 20
903.5783550000051
 30
0.0
  0
POINT
  5
7F5
  8
DEFPOINTS
 62
     0
 10
1028.531250000001
 20
904.5783550000051
 30
0.0
  0
POINT
  5
7F6
  8
DEFPOINTS
 62
     0
 10
1003.531250000001
 20
904.5783550000051
 30
0.0
  0
ENDBLK
  5
B9
  8
0
  0
BLOCK
  8
0
  2
*D26
 70
     1
 10
0.0
 20
0.0
 30
0.0
  3
*D26
  1

  0
LINE
  5
1C9
  8
1_5__-1
  6
CONTINUOUS
 62
     0
 10
1058.531250000001
 20
970.8403500279528
 30
0.0
 11
1058.531250000001
 21
928.3403500000131
 31
0.0
  0
LINE
  5
1CA
  8
1_5__-1
  6
CONTINUOUS
 62
     0
 10
1028.531250000001
 20
970.8403500279528
 30
0.0
 11
1028.531250000001
 21
928.3403500000131
 31
0.0
  0
LINE
  5
1CB
  8
1_5__-1
  6
CONTINUOUS
 62
     0
 10
1056.283325195313
 20
928.3403500000131
 30
0.0
 11
1030.779174804688
 21
928.3403500000131
 31
0.0
  0
INSERT
  5
1CC
  8
1_5__-1
 62
     0
  2
_DOT
 10
1058.531250000001
 20
928.3403500000131
 30
0.0
 41
2.2479248046875
 42
2.2479248046875
 43
2.2479248046875
  0
INSERT
  5
1CD
  8
1_5__-1
 62
     0
  2
_DOT
 10
1028.531250000001
 20
928.3403500000131
 30
0.0
 41
2.2479248046875
 42
2.2479248046875
 43
2.2479248046875
 50
180.0
  0
TEXT
  5
1CE
  8
1_5__-1
  6
CONTINUOUS
 62
     0
 10
1033.416887125221
 20
928.3903499998269
 30
0.0
 40
10.62008101851851
  1
30
  7
YUGOTHIC_MEDIUM
  0
POINT
  5
1CF
  8
DEFPOINTS
 62
     0
 10
1058.531250000001
 20
978.3403500000131
 30
0.0
  0
POINT
  5
1D0
  8
DEFPOINTS
 62
     0
 10
1028.531250000001
 20
978.3403500000131
 30
0.0
  0
POINT
  5
1D1
  8
DEFPOINTS
 62
     0
 10
1028.531250000001
 20
928.3403500000131
 30
0.0
  0
ENDBLK
  5
BC
  8
0
  0
BLOCK
  8
0
  2
*D27
 70
     1
 10
0.0
 20
0.0
 30
0.0
  3
*D27
  1

  0
LINE
  5
1D2
  8
1_5__-1
  6
CONTINUOUS
 62
     0
 10
1049.031250000001
 20
985.8403499720735
 30
0.0
 11
1049.031250000001
 21
1003.340350000013
 31
0.0
  0
LINE
  5
1D3
  8
1_5__-1
  6
CONTINUOUS
 62
     0
 10
1038.031250000001
 20
985.8403499720735
 30
0.0
 11
1038.031250000001
 21
1003.340350000013
 31
0.0
  0
LINE
  5
1D4
  8
1_5__-1
  6
CONTINUOUS
 62
     0
 10
1049.031250000001
 20
1003.340350000013
 30
0.0
 11
1038.031250000001
 21
1003.340350000013
 31
0.0
  0
LINE
  5
1D5
  8
1_5__-1
  6
CONTINUOUS
 62
     0
 10
1051.279174804688
 20
1003.340350000013
 30
0.0
 11
1053.527099609376
 21
1003.340350000013
 31
0.0
  0
LINE
  5
1D6
  8
1_5__-1
  6
CONTINUOUS
 62
     0
 10
1035.783325195313
 20
1003.340350000013
 30
0.0
 11
1033.535400390626
 21
1003.340350000013
 31
0.0
  0
INSERT
  5
1D7
  8
1_5__-1
 62
     0
  2
_DOT
 10
1049.031250000001
 20
1003.340350000013
 30
0.0
 41
2.2479248046875
 42
2.2479248046875
 43
2.2479248046875
 50
180.0
  0
INSERT
  5
1D8
  8
1_5__-1
 62
     0
  2
_DOT
 10
1038.031250000001
 20
1003.340350000013
 30
0.0
 41
2.2479248046875
 42
2.2479248046875
 43
2.2479248046875
  0
TEXT
  5
1D9
  8
1_5__-1
  6
CONTINUOUS
 62
     0
 10
1034.17546434083
 20
1003.390349999827
 30
0.0
 40
10.62008101851851
  1
11
  7
YUGOTHIC_MEDIUM
  0
POINT
  5
1DA
  8
DEFPOINTS
 62
     0
 10
1049.031250000001
 20
978.3403500000131
 30
0.0
  0
POINT
  5
7F9
  8
DEFPOINTS
 62
     0
 10
1038.031250000001
 20
978.3403500000131
 30
0.0
  0
POINT
  5
7FA
  8
DEFPOINTS
 62
     0
 10
1038.031250000001
 20
1003.340350000013
 30
0.0
  0
ENDBLK
  5
BF
  8
0
  0
BLOCK
  8
0
  2
*D28
 70
     1
 10
0.0
 20
0.0
 30
0.0
  3
*D28
  1

  0
LINE
  5
1DB
  8
1_5__-1
  6
CONTINUOUS
 62
     0
 10
1250.117905027941
 20
915.6040400000056
 30
0.0
 11
1232.992905000001
 21
915.6040400000056
 31
0.0
  0
LINE
  5
1DC
  8
1_5__-1
  6
CONTINUOUS
 62
     0
 10
1250.492905027941
 20
923.2290400000056
 30
0.0
 11
1232.992905000001
 21
923.2290400000056
 31
0.0
  0
LINE
  5
1DD
  8
1_5__-1
  6
CONTINUOUS
 62
     0
 10
1232.992905000001
 20
915.6040400000056
 30
0.0
 11
1232.992905000001
 21
923.2290400000056
 31
0.0
  0
LINE
  5
1DE
  8
1_5__-1
  6
CONTINUOUS
 62
     0
 10
1232.992905000001
 20
913.3561151953181
 30
0.0
 11
1232.992905000001
 21
911.1081903906306
 31
0.0
  0
LINE
  5
1DF
  8
1_5__-1
  6
CONTINUOUS
 62
     0
 10
1232.992905000001
 20
925.4769648046931
 30
0.0
 11
1232.992905000001
 21
927.7248896093806
 31
0.0
  0
INSERT
  5
1E0
  8
1_5__-1
 62
     0
  2
_DOT
 10
1232.992905000001
 20
915.6040400000056
 30
0.0
 41
2.2479248046875
 42
2.2479248046875
 43
2.2479248046875
 50
90.0
  0
INSERT
  5
1E1
  8
1_5__-1
 62
     0
  2
_DOT
 10
1232.992905000001
 20
923.2290400000056
 30
0.0
 41
2.2479248046875
 42
2.2479248046875
 43
2.2479248046875
 50
270.0
  0
TEXT
  5
1E2
  8
1_5__-1
  6
CONTINUOUS
 62
     0
 10
1232.942905000187
 20
896.6592235317516
 30
0.0
 40
10.62008101851851
  1
7.625
 50
90.0
  7
YUGOTHIC_MEDIUM
  0
POINT
  5
1E3
  8
DEFPOINTS
 62
     0
 10
1257.617905000001
 20
915.6040400000056
 30
0.0
  0
POINT
  5
7FC
  8
DEFPOINTS
 62
     0
 10
1257.992905000001
 20
923.2290400000056
 30
0.0
  0
POINT
  5
7FD
  8
DEFPOINTS
 62
     0
 10
1232.992905000001
 20
923.2290400000056
 30
0.0
  0
ENDBLK
  5
C2
  8
0
  0
BLOCK
  8
0
  2
*D29
 70
     1
 10
0.0
 20
0.0
 30
0.0
  3
*D29
  1

  0
LINE
  5
1E4
  8
1_5__-1
  6
CONTINUOUS
 62
     0
 10
1273.80785997206
 20
969.6611100000127
 30
0.0
 11
1300.366666666853
 21
969.6611100000127
 31
0.0
  0
LINE
  5
1E5
  8
1_5__-1
  6
CONTINUOUS
 62
     0
 10
1273.80785997206
 20
986.6611100000146
 30
0.0
 11
1300.366666666853
 21
986.6611100000146
 31
0.0
  0
LINE
  5
1E6
  8
1_5__-1
  6
CONTINUOUS
 62
     0
 10
1300.366666666853
 20
969.6611100000127
 30
0.0
 11
1300.366666666853
 21
925.7185923055888
 31
0.0
  0
LINE
  5
1E7
  8
1_5__-1
  6
CONTINUOUS
 62
     0
 10
1300.366666666853
 20
971.9090348047002
 30
0.0
 11
1300.366666666853
 21
984.4131851953271
 31
0.0
  0
INSERT
  5
1E8
  8
1_5__-1
 62
     0
  2
_DOT
 10
1300.366666666853
 20
969.6611100000127
 30
0.0
 41
2.2479248046875
 42
2.2479248046875
 43
2.2479248046875
 50
270.0
  0
INSERT
  5
1E9
  8
1_5__-1
 62
     0
  2
_DOT
 10
1300.366666666853
 20
986.6611100000146
 30
0.0
 41
2.2479248046875
 42
2.2479248046875
 43
2.2479248046875
 50
90.0
  0
TEXT
  5
1EA
  8
1_5__-1
  6
CONTINUOUS
 62
     0
 10
1300.316666667039
 20
922.7342834429687
 30
0.0
 40
10.62008101851851
  1
17
 50
90.0
  7
YUGOTHIC_MEDIUM
  0
POINT
  5
1EB
  8
DEFPOINTS
 62
     0
 10
1266.30786
 20
969.6611100000127
 30
0.0
  0
POINT
  5
1EC
  8
DEFPOINTS
 62
     0
 10
1266.30786
 20
986.6611100000146
 30
0.0
  0
POINT
  5
1ED
  8
DEFPOINTS
 62
     0
 10
1311.0
 20
986.6611100000146
 30
0.0
  0
ENDBLK
  5
C5
  8
0
  0
BLOCK
  8
0
  2
_DOT
 70
     0
 10
0.0
 20
0.0
 30
0.0
  3
_DOT
  1

  0
POLYLINE
  5
E1
  8
0
  6
BYBLOCK
 62
     0
 66
     1
 10
0.0
 20
0.0
 30
0.0
 70
     1
 40
0.5
 41
0.5
  0
VERTEX
  5
812
  8
0
  6
BYBLOCK
 62
     0
 10
-0.25
 20
0.0
 30
0.0
 42
1.0
  0
VERTEX
  5
813
  8
0
  6
BYBLOCK
 62
     0
 10
0.25
 20
0.0
 30
0.0
 42
1.0
  0
SEQEND
  5
814
  8
0
  6
BYBLOCK
 62
     0
  0
LINE
  5
E2
  8
0
  6
BYBLOCK
 62
     0
 10
-0.5
 20
0.0
 30
0.0
 11
-1.0
 21
0.0
 31
0.0
  0
ENDBLK
  5
E0
  8
0
  0
ENDSEC
  0
SECTION
  2
ENTITIES
  0
INSERT
  5
1EE
  8
_
 62
     7
  2
__A3
 10
524.4597052377339
 20
106.3691961421841
 30
0.0
 41
0.1
 42
0.1
 43
0.1
  0
TEXT
  5
1EF
  8
_
 62
     4
 10
1299.226184757971
 20
74.86823158540696
 30
0.0
 40
10.62008101851852
  1
2019.04.02
  7
YUGOTHIC_MEDIUM
 11
1299.226184757971
 21
80.17827209466623
 31
0.0
 73
     2
  0
TEXT
  5
1F0
  8
_
 62
     4
 10
1490.355367113541
 20
74.92484655722532
 30
0.0
 40
10.62008101851852
  1
1:5(A3)
  7
YUGOTHIC_MEDIUM
 11
1490.355367113541
 21
80.23488706648459
 31
0.0
 73
     2
  0
TEXT
  5
1F1
  8
_
 62
     4
 10
1094.98432095056
 20
75.068231585407
 30
0.0
 40
10.62008101851852
  1
KB-PR008-02
  7
YUGOTHIC_MEDIUM
 11
1094.98432095056
 21
80.37827209466627
 31
0.0
 73
     2
  0
TEXT
  5
1F2
  8
_
 62
     4
 10
529.0076903595975
 20
74.74449441147803
 30
0.0
 40
10.62008101851852
  1
ウェルラウンドシンク フレーム650 壁付け
  7
YUGOTHIC_MEDIUM
 11
529.0076903595975
 21
80.0545349207373
 31
0.0
 73
     2
  0
CIRCLE
  5
1F3
  8
1_5_____
  6
VW-01____
 62
    17
 10
117.0206521434222
 20
519.4452756292271
 30
0.0
 40
14.0
  0
ARC
  5
1F4
  8
1_5_____
  6
CONTINUOUS
 62
     1
 10
776.0659771434223
 20
544.4452756292271
 30
0.0
 40
5.0
 50
90.0
 51
180.0
  0
LINE
  5
1F5
  8
1_5_____
  6
CONTINUOUS
 62
     1
 10
771.0659771434223
 20
519.4452756292271
 30
0.0
 11
771.0659771434223
 21
544.4452756292271
 31
0.0
  0
ARC
  5
1F6
  8
1_5_____
  6
VW-01____
 62
    17
 10
1211.065977143422
 20
544.4452756292271
 30
0.0
 40
10.0
 50
270.0
 51
0.0
  0
LINE
  5
1F7
  8
1_5_____
  6
CONTINUOUS
 62
     1
 10
963.9397721434209
 20
384.4452756292271
 30
0.0
 11
1256.065977143422
 21
384.4452756292271
 31
0.0
  0
ARC
  5
1F8
  8
1_5_____
  6
CONTINUOUS
 62
     1
 10
72.52065214342224
 20
377.4452756292562
 30
0.0
 40
7.0
 50
0.0
 51
90.0
  0
LINE
  5
1F9
  8
1_5_____
  6
CONTINUOUS
 62
     1
 10
79.52065214342224
 20
377.4452756292562
 30
0.0
 11
79.52065214342224
 21
349.4452756292271
 31
0.0
  0
ARC
  5
1FA
  8
1_5_____
  6
CONTINUOUS
 62
     1
 10
-128.098717856579
 20
394.4452756292271
 30
0.0
 40
9.99999999996993
 50
217.4332059997734
 51
270.0
  0
ARC
  5
1FB
  8
1_5_____
  6
CONTINUOUS
 62
     1
 10
28.37814714342244
 20
534.957600629245
 30
0.0
 40
220.2769600000028
 50
187.6142390000053
 51
221.7194300000089
  0
ARC
  5
1FC
  8
1_5_____
  6
CONTINUOUS
 62
     1
 10
205.6631571434211
 20
534.957600629245
 30
0.0
 40
220.276960000021
 50
318.2805699999942
 51
352.3857609999953
  0
LINE
  5
1FD
  8
1_5_____
  6
CONTINUOUS
 62
     1
 10
-128.098717856579
 20
384.4452756292271
 30
0.0
 11
362.1400221434226
 21
384.4452756292271
 31
0.0
  0
ARC
  5
1FE
  8
1_5_____
  6
CONTINUOUS
 62
     1
 10
1246.065977143422
 20
524.4452756292271
 30
0.0
 40
10.0
 50
270.0
 51
0.0
  0
ARC
  5
1FF
  8
1_5_____
  6
CONTINUOUS
 62
     1
 10
776.0659771434223
 20
519.4452756292271
 30
0.0
 40
5.0
 50
180.0
 51
270.0
  0
LINE
  5
200
  8
1_5_____
  6
CONTINUOUS
 62
     1
 10
776.0659771434223
 20
514.4452756292271
 30
0.0
 11
1246.065977143422
 21
514.4452756292271
 31
0.0
  0
LINE
  5
201
  8
1_5_____
  6
CONTINUOUS
 62
     1
 10
776.0659771434223
 20
549.4452756292271
 30
0.0
 11
1201.442982143421
 21
549.4452756292271
 31
0.0
  0
LINE
  5
202
  8
1_5_____
  6
CONTINUOUS
 62
     1
 10
1256.065977143422
 20
584.4452756292253
 30
0.0
 11
1256.065977143422
 21
384.44127562927
 31
0.0
  0
LINE
  5
203
  8
1_5_____
  6
ISO-10______
 62
     2
 10
1046.065977143422
 20
335.2552756292248
 30
0.0
 11
1046.065977143422
 21
571.6252756292481
 31
0.0
  0
LINE
  5
204
  8
1_5_____
  6
CONTINUOUS
 62
     1
 10
1018.065977143422
 20
349.4452756292271
 30
0.0
 11
1079.065977143421
 21
349.4452756292271
 31
0.0
  0
LINE
  5
205
  8
1_5_____
  6
CONTINUOUS
 62
     1
 10
1023.065977143422
 20
384.44127562927
 30
0.0
 11
1069.065977143421
 21
384.44127562927
 31
0.0
  0
LINE
  5
206
  8
1_5_____
  6
VW-01____
 62
    17
 10
1023.065977143422
 20
349.4452756292271
 30
0.0
 11
1023.065977143422
 21
384.44127562927
 31
0.0
  0
LINE
  5
207
  8
1_5_____
  6
VW-01____
 62
    17
 10
1069.065977143421
 20
349.4452756292271
 30
0.0
 11
1069.065977143421
 21
384.44127562927
 31
0.0
  0
LINE
  5
208
  8
1_5_____
  6
VW-01____
 62
    17
 10
1001.065977143422
 20
404.4432756292777
 30
0.0
 11
1091.065977143422
 21
404.4432756292777
 31
0.0
  0
LINE
  5
209
  8
1_5_____
  6
VW-01____
 62
    17
 10
1001.065977143422
 20
404.4432756292777
 30
0.0
 11
1023.065977143422
 21
384.44127562927
 31
0.0
  0
LINE
  5
20A
  8
1_5_____
  6
VW-01____
 62
    17
 10
1091.065977143422
 20
404.4432756292777
 30
0.0
 11
1069.065977143421
 21
384.44127562927
 31
0.0
  0
LINE
  5
20B
  8
1_5_____
  6
CONTINUOUS
 62
     1
 10
1013.065977143422
 20
354.4442756292669
 30
0.0
 11
1013.065977143422
 21
384.44127562927
 31
0.0
  0
LINE
  5
20C
  8
1_5_____
  6
CONTINUOUS
 62
     1
 10
1079.065977143421
 20
349.4452756292271
 30
0.0
 11
1079.065977143421
 21
354.44127562927
 31
0.0
  0
ARC
  5
20D
  8
1_5_____
  6
CONTINUOUS
 62
     1
 10
1226.071237143422
 20
579.4418456292431
 30
0.0
 40
5.002310000039643
 50
90.0
 51
179.9999700000478
  0
LINE
  5
20E
  8
1_5_____
  6
CONTINUOUS
 62
     1
 10
1221.065977143422
 20
579.4452756292255
 30
0.0
 11
1221.065977143422
 21
569.0988906292434
 31
0.0
  0
LINE
  5
20F
  8
1_5_____
  6
CONTINUOUS
 62
     1
 10
1226.075977143421
 20
584.4452756292253
 30
0.0
 11
1256.065977143422
 21
584.4452756292253
 31
0.0
  0
LINE
  5
210
  8
1_5_____
  6
VW-01____
 62
    17
 10
1221.065977143422
 20
559.4452756292264
 30
0.0
 11
1221.065977143422
 21
544.4452756292271
 31
0.0
  0
ARC
  5
211
  8
1_5_____
  6
VW-01____
 62
    17
 10
1116.255567143422
 20
529.2524856292262
 30
0.0
 40
5.192730000027834
 50
92.10100499998907
 51
177.8989649997624
  0
LINE
  5
212
  8
1_5_____
  6
VW-01____
 62
    17
 10
1116.065977143422
 20
534.4452756292271
 30
0.0
 11
1211.065977143422
 21
534.4452756292271
 31
0.0
  0
LINE
  5
213
  8
1_5_____
  6
ISO-10______
 62
     2
 10
1240.867807143422
 20
484.4392756292332
 30
0.0
 11
1271.264142143422
 21
484.4392756292332
 31
0.0
  0
ARC
  5
214
  8
1_5_____
  6
CONTINUOUS
 62
     1
 10
1095.277387143422
 20
395.1712256292199
 30
0.0
 40
43.00551999997976
 50
303.3615840000163
 51
345.5519730000243
  0
ARC
  5
215
  8
1_5_____
  6
CONTINUOUS
 62
     1
 10
1103.174057143422
 20
382.6363356292682
 30
0.0
 40
28.1952000000593
 50
270.1530359999983
 51
303.9666809999762
  0
LINE
  5
216
  8
1_5_____
  6
CONTINUOUS
 62
     1
 10
1103.245977143422
 20
354.44127562927
 30
0.0
 11
1079.065977143421
 21
354.44127562927
 31
0.0
  0
LINE
  5
217
  8
1_5_____
  6
VW-01____
 62
    17
 10
1091.065977143422
 20
404.4432756292777
 30
0.0
 11
1102.505977143421
 21
406.8212756292455
 31
0.0
  0
LINE
  5
218
  8
1_5_____
  6
VW-01____
 62
    17
 10
1111.065977143422
 20
529.4452756292271
 30
0.0
 11
1111.065977143422
 21
416.7182756292427
 31
0.0
  0
ARC
  5
219
  8
1_5_____
  6
CONTINUOUS
 62
     1
 10
781.2420771434224
 20
504.2912856292064
 30
0.0
 40
10.14832000003165
 50
39.59944500022981
 51
89.61627400000664
  0
ARC
  5
21A
  8
1_5_____
  6
CONTINUOUS
 62
     1
 10
803.2190571434219
 20
544.3495856292398
 30
0.0
 40
5.092460000007858
 50
32.21855600012476
 51
89.39685800000187
  0
ARC
  5
21B
  8
1_5_____
  6
CONTINUOUS
 62
     1
 10
891.4416971434209
 20
560.2898456292712
 30
0.0
 40
113.7317000000198
 50
205.8169470000224
 51
217.6851190000168
  0
ARC
  5
21C
  8
1_5_____
  6
CONTINUOUS
 62
     1
 10
968.8315771434216
 20
620.4404756292574
 30
0.0
 40
211.7482600000232
 50
217.7641480000078
 51
224.210864999998
  0
ARC
  5
21D
  8
1_5_____
  6
CONTINUOUS
 62
     1
 10
1079.546677143422
 20
735.1438956292045
 30
0.0
 40
371.1231499999764
 50
224.9851639999964
 51
241.5416879999955
  0
ARC
  5
21E
  8
1_5_____
  6
CONTINUOUS
 62
     1
 10
1037.588127143421
 20
654.0071856292129
 30
0.0
 40
279.8022499999685
 50
241.1782609999964
 51
249.8603739999964
  0
ARC
  5
21F
  8
1_5_____
  6
CONTINUOUS
 62
     1
 10
1004.199067143422
 20
558.3719656292487
 30
0.0
 40
178.5253600000203
 50
249.3531020000027
 51
256.9671170000044
  0
ARC
  5
220
  8
1_5_____
  6
VW-01____
 62
    17
 10
902.7817871434211
 20
579.3153156292635
 30
0.0
 40
100.5659300000001
 50
198.704789000002
 51
210.5226060000252
  0
ARC
  5
221
  8
1_5_____
  6
VW-01____
 62
    17
 10
959.8191071434223
 20
615.7334056292536
 30
0.0
 40
168.2126600000068
 50
211.3413380000037
 51
222.480479999997
  0
ARC
  5
222
  8
1_5_____
  6
VW-01____
 62
    17
 10
1039.481857143421
 20
691.1125956292312
 30
0.0
 40
277.8768199999949
 50
222.8502599999988
 51
230.713744999998
  0
ARC
  5
223
  8
1_5_____
  6
VW-01____
 62
    17
 10
1130.021277143421
 20
807.289385629229
 30
0.0
 40
425.1401599999868
 50
231.1835329999986
 51
242.3961799999995
  0
ARC
  5
224
  8
1_5_____
  6
VW-01____
 62
    17
 10
1087.964207143421
 20
720.3991956292525
 30
0.0
 40
328.6667000000079
 50
241.8747200000011
 51
249.8453950000001
  0
ARC
  5
225
  8
1_5_____
  6
VW-01____
 62
    17
 10
1033.514667143422
 20
568.1973856292275
 30
0.0
 40
167.0292000000126
 50
249.3903760000018
 51
256.6406319999991
  0
ARC
  5
226
  8
1_5_____
  6
VW-01____
 62
    17
 10
1017.155107143423
 20
499.6604356292487
 30
0.0
 40
96.56689000002498
 50
256.6885980000029
 51
260.4078150000018
  0
ARC
  5
227
  8
1_5_____
  6
CONTINUOUS
 62
     1
 10
1201.068297143422
 20
569.4423956292696
 30
0.0
 40
20.00063000001714
 50
270.0049539999988
 51
0.004924999897014
  0
ARC
  5
228
  8
1_5_____
  6
VW-01____
 62
    17
 10
1100.733177143423
 20
417.0055256292658
 30
0.0
 40
10.33714000003605
 50
279.8512909999639
 51
358.4096039998872
  0
ARC
  5
229
  8
1_5_____
  6
CONTINUOUS
 62
     1
 10
1018.255667143422
 20
354.634515629205
 30
0.0
 40
5.192619999998493
 50
182.0999679993112
 51
267.9000609999929
  0
ARC
  5
22A
  8
1_5_____
  6
CONTINUOUS
 62
     1
 10
397.0206521434218
 20
1130.174595629266
 30
0.0
 40
10.0
 50
0.0
 51
90.0
  0
ARC
  5
22B
  8
1_5_____
  6
CONTINUOUS
 62
     1
 10
-162.9793478565778
 20
1130.174595629266
 30
0.0
 40
10.0
 50
90.0
 51
180.0
  0
ARC
  5
22C
  8
1_5_____
  6
CONTINUOUS
 62
     1
 10
402.0206521434218
 20
1245.174595629266
 30
0.0
 40
5.0
 50
0.0
 51
90.0
  0
ARC
  5
22D
  8
1_5_____
  6
CONTINUOUS
 62
     1
 10
-167.9793478565778
 20
1245.174595629266
 30
0.0
 40
5.0
 50
90.0
 51
180.0
  0
LINE
  5
22E
  8
1_5_____
  6
ISO-10______
 62
     2
 10
279.7056521434217
 20
484.4452756292271
 30
0.0
 11
233.2636521434213
 21
484.4452756292271
 31
0.0
  0
ARC
  5
22F
  8
1_5_____
  6
VW-01____
 62
    17
 10
261.6754721434224
 20
484.7834456292589
 30
0.0
 40
10.38720000000602
 50
272.1004329999957
 51
357.8896659998782
  0
ARC
  5
230
  8
1_5_____
  6
VW-01____
 62
    17
 10
261.669732143421
 20
484.0162956292302
 30
0.0
 40
10.39302000000162
 50
2.121080000129588
 51
87.86908100000818
  0
ARC
  5
231
  8
1_5_____
  6
VW-01____
 62
    17
 10
252.4391521434225
 20
484.0185256292139
 30
0.0
 40
10.39064000003221
 50
92.10926300000162
 51
177.8907469999582
  0
ARC
  5
232
  8
1_5_____
  6
VW-01____
 62
    17
 10
252.442882143421
 20
484.7906856292361
 30
0.0
 40
10.39463999999914
 50
182.1487480000795
 51
267.8709819999962
  0
LINE
  5
233
  8
1_5_____
  6
VW-01____
 62
    17
 10
262.0566521434218
 20
494.3982756292648
 30
0.0
 11
252.0566521434218
 21
494.3982756292648
 31
0.0
  0
LINE
  5
234
  8
1_5_____
  6
VW-01____
 62
    17
 10
262.0566521434218
 20
474.4032756292113
 30
0.0
 11
252.0566521434218
 21
474.4032756292113
 31
0.0
  0
LINE
  5
235
  8
1_5_____
  6
ISO-10______
 62
     2
 10
257.0206521434218
 20
502.5482756292299
 30
0.0
 11
257.0206521434218
 21
463.0512756292269
 31
0.0
  0
ARC
  5
236
  8
1_5_____
  6
CONTINUOUS
 62
     1
 10
433.909687143421
 20
504.4452756292271
 30
0.0
 40
10.0
 50
90.0
 51
172.3857610000255
  0
ARC
  5
237
  8
1_5_____
  6
CONTINUOUS
 62
     1
 10
362.1400221434226
 20
394.4452756292271
 30
0.0
 40
10.0
 50
270.0
 51
322.566794000339
  0
ARC
  5
238
  8
1_5_____
  6
CONTINUOUS
 62
     1
 10
432.0206521434218
 20
539.4452756292271
 30
0.0
 40
10.0
 50
0.0
 51
90.0
  0
ARC
  5
239
  8
1_5_____
  6
CONTINUOUS
 62
     1
 10
437.0206521434218
 20
519.4452756292271
 30
0.0
 40
5.0
 50
270.0
 51
0.0
  0
ARC
  5
23A
  8
1_5_____
  6
CONTINUOUS
 62
     1
 10
437.0206521434218
 20
579.4452756292255
 30
0.0
 40
5.0
 50
0.0
 51
90.0
  0
ARC
  5
23B
  8
1_5_____
  6
CONTINUOUS
 62
     1
 10
-202.9793478565778
 20
579.4452756292255
 30
0.0
 40
4.999999999999773
 50
90.0
 51
180.0
  0
ARC
  5
23C
  8
1_5_____
  6
CONTINUOUS
 62
     1
 10
-202.9793478565778
 20
519.4452756292271
 30
0.0
 40
5.0
 50
180.0
 51
270.0
  0
ARC
  5
23D
  8
1_5_____
  6
CONTINUOUS
 62
     1
 10
-197.9793478565778
 20
539.4452756292271
 30
0.0
 40
10.0
 50
90.0
 51
180.0
  0
ARC
  5
23E
  8
1_5_____
  6
CONTINUOUS
 62
     1
 10
-199.8683828565779
 20
504.4452756292271
 30
0.0
 40
10.00000000000002
 50
7.614238999974508
 51
90.0
  0
LINE
  5
23F
  8
1_5_____
  6
CONTINUOUS
 62
     1
 10
437.0206521434218
 20
584.4452756292253
 30
0.0
 11
-202.9793478565778
 21
584.4452756292253
 31
0.0
  0
LINE
  5
240
  8
1_5_____
  6
CONTINUOUS
 62
     1
 10
432.0206521434218
 20
549.4452756292271
 30
0.0
 11
-197.9793478565778
 21
549.4452756292271
 31
0.0
  0
LINE
  5
241
  8
1_5_____
  6
CONTINUOUS
 62
     1
 10
437.0206521434218
 20
514.4452756292271
 30
0.0
 11
-202.9793478565778
 21
514.4452756292271
 31
0.0
  0
LINE
  5
242
  8
1_5_____
  6
CONTINUOUS
 62
     1
 10
442.0206521434218
 20
579.4452756292255
 30
0.0
 11
442.0206521434218
 21
519.4452756292271
 31
0.0
  0
LINE
  5
243
  8
1_5_____
  6
CONTINUOUS
 62
     1
 10
-207.9793478565778
 20
579.4452756292255
 30
0.0
 11
-207.9793478565778
 21
519.4452756292271
 31
0.0
  0
LINE
  5
244
  8
1_5_____
  6
ISO-10______
 62
     2
 10
149.5206521434222
 20
1205.174595629266
 30
0.0
 11
84.52065214342224
 21
1205.174595629266
 31
0.0
  0
ARC
  5
245
  8
1_5_____
  6
CONTINUOUS
 62
     1
 10
-162.9793478565778
 20
845.1745956292657
 30
0.0
 40
10.0
 50
180.0
 51
270.0
  0
ARC
  5
246
  8
1_5_____
  6
CONTINUOUS
 62
     1
 10
-162.9793478565778
 20
845.1745956292657
 30
0.0
 40
45.0
 50
180.0
 51
270.0
  0
ARC
  5
247
  8
1_5_____
  6
CONTINUOUS
 62
     1
 10
397.0206521434218
 20
845.1745956292657
 30
0.0
 40
10.0
 50
270.0
 51
0.0
  0
LINE
  5
248
  8
1_5_____
  6
CONTINUOUS
 62
     1
 10
407.0206521434218
 20
845.1745956292657
 30
0.0
 11
407.0206521434218
 21
1245.174595629266
 31
0.0
  0
LINE
  5
249
  8
1_5_____
  6
CONTINUOUS
 62
     1
 10
-162.9793478565778
 20
835.1745956292657
 30
0.0
 11
397.0206521434218
 21
835.1745956292657
 31
0.0
  0
LINE
  5
24A
  8
1_5_____
  6
CONTINUOUS
 62
     1
 10
-172.9793478565778
 20
845.1745956292657
 30
0.0
 11
-172.9793478565778
 21
1245.174595629266
 31
0.0
  0
CIRCLE
  5
24B
  8
1_5_____
  6
CONTINUOUS
 62
     1
 10
117.0206521434222
 20
1205.174595629266
 30
0.0
 40
17.5
  0
LINE
  5
24C
  8
1_5_____
  6
ISO-10______
 62
     2
 10
66.28865714342032
 20
1075.174595629266
 30
0.0
 11
166.2817321434216
 21
1075.174595629266
 31
0.0
  0
CIRCLE
  5
24D
  8
1_5_____
  6
CONTINUOUS
 62
     1
 10
117.0206521434222
 20
1075.174595629266
 30
0.0
 40
37.5
  0
CIRCLE
  5
24E
  8
1_5_____
  6
CONTINUOUS
 62
     1
 10
117.0206521434222
 20
1075.174595629266
 30
0.0
 40
23.0
  0
LINE
  5
24F
  8
1_5_____
  6
ISO-10______
 62
     2
 10
117.0206521434222
 20
1315.174595629266
 30
0.0
 11
117.0206521434222
 21
769.7586156292168
 31
0.0
  0
LINE
  5
250
  8
1_5_____
  6
CONTINUOUS
 62
     1
 10
-162.9793478565778
 20
1140.174595629266
 30
0.0
 11
397.0206521434218
 21
1140.174595629266
 31
0.0
  0
ARC
  5
251
  8
1_5_____
  6
CONTINUOUS
 62
     1
 10
-202.9793478565778
 20
1255.174595629266
 30
0.0
 40
5.0
 50
180.0
 51
270.0
  0
ARC
  5
252
  8
1_5_____
  6
CONTINUOUS
 62
     1
 10
437.0206521434218
 20
1255.174595629266
 30
0.0
 40
5.0
 50
270.0
 51
0.0
  0
ARC
  5
253
  8
1_5_____
  6
CONTINUOUS
 62
     1
 10
397.0206521434218
 20
845.1745956292657
 30
0.0
 40
45.0
 50
270.0
 51
0.0
  0
ARC
  5
254
  8
1_5_____
  6
CONTINUOUS
 62
     1
 10
-162.9793478565778
 20
845.1745956292657
 30
0.0
 40
45.0
 50
180.0
 51
270.0
  0
LINE
  5
255
  8
1_5_____
  6
CONTINUOUS
 62
     1
 10
-202.9793478565778
 20
1250.174595629266
 30
0.0
 11
437.0206521434218
 21
1250.174595629266
 31
0.0
  0
ARC
  5
256
  8
1_5_____
  6
CONTINUOUS
 62
     1
 10
432.0206521434218
 20
1275.174595629266
 30
0.0
 40
10.0
 50
0.0
 51
90.0
  0
ARC
  5
257
  8
1_5_____
  6
CONTINUOUS
 62
     1
 10
-197.9793478565778
 20
1275.174595629266
 30
0.0
 40
10.0
 50
90.0
 51
180.0
  0
LINE
  5
258
  8
1_5_____
  6
CONTINUOUS
 62
     1
 10
442.0206521434218
 20
845.1745956292657
 30
0.0
 11
442.0206521434218
 21
1275.174595629266
 31
0.0
  0
LINE
  5
259
  8
1_5_____
  6
CONTINUOUS
 62
     1
 10
-207.9793478565778
 20
845.1745956292657
 30
0.0
 11
-207.9793478565778
 21
1275.174595629266
 31
0.0
  0
LINE
  5
25A
  8
1_5_____
  6
CONTINUOUS
 62
     1
 10
-162.9793478565778
 20
800.1745956292657
 30
0.0
 11
397.0206521434218
 21
800.1745956292657
 31
0.0
  0
LINE
  5
25B
  8
1_5_____
  6
CONTINUOUS
 62
     1
 10
-197.9793478565778
 20
1285.174595629266
 30
0.0
 11
432.0206521434218
 21
1285.174595629266
 31
0.0
  0
LINE
  5
25C
  8
1_5_____
  6
CONTINUOUS
 62
     1
 10
79.52065214342224
 20
349.4452756292271
 30
0.0
 11
154.5206521434222
 21
349.4452756292271
 31
0.0
  0
LINE
  5
25D
  8
1_5_____
  6
CONTINUOUS
 62
     1
 10
154.5206521434222
 20
377.4452756292562
 30
0.0
 11
154.5206521434222
 21
349.4452756292271
 31
0.0
  0
ARC
  5
25E
  8
1_5_____
  6
CONTINUOUS
 62
     1
 10
161.5206521434213
 20
377.4452756292562
 30
0.0
 40
6.999999999970896
 50
90.0
 51
180.0
  0
LINE
  5
25F
  8
1_5_____
  6
ISO-10______
 62
     2
 10
117.0206521434222
 20
319.4452756292271
 30
0.0
 11
117.0206521434222
 21
614.4452756292237
 31
0.0
  0
LINE
  5
260
  8
1_5_____
  6
ISO-10______
 62
     2
 10
-22.97934785657776
 20
502.5482756292299
 30
0.0
 11
-22.97934785657776
 21
463.0512756292269
 31
0.0
  0
LINE
  5
261
  8
1_5_____
  6
VW-01____
 62
    17
 10
-28.01534785657782
 20
474.4032756292113
 30
0.0
 11
-18.01534785657782
 21
474.4032756292113
 31
0.0
  0
LINE
  5
262
  8
1_5_____
  6
VW-01____
 62
    17
 10
-28.01534785657782
 20
494.3982756292648
 30
0.0
 11
-18.01534785657782
 21
494.3982756292648
 31
0.0
  0
ARC
  5
263
  8
1_5_____
  6
VW-01____
 62
    17
 10
-18.40157785657789
 20
484.7906856292361
 30
0.0
 40
10.39463999997701
 50
272.1290180000072
 51
357.851251999916
  0
ARC
  5
264
  8
1_5_____
  6
VW-01____
 62
    17
 10
-18.39784785657935
 20
484.0185256292139
 30
0.0
 40
10.39064000000196
 50
2.109253000047953
 51
87.8907370000025
  0
ARC
  5
265
  8
1_5_____
  6
VW-01____
 62
    17
 10
-27.62842785657699
 20
484.0162956292302
 30
0.0
 40
10.39302000001171
 50
92.13091900000187
 51
177.8789199998725
  0
ARC
  5
266
  8
1_5_____
  6
VW-01____
 62
    17
 10
-27.63416785657932
 20
484.7834456292589
 30
0.0
 40
10.38720000000054
 50
182.1103340001229
 51
267.8995670000068
  0
LINE
  5
267
  8
1_5_____
  6
ISO-10______
 62
     2
 10
-45.66434785657816
 20
484.4452756292271
 30
0.0
 11
0.7776521434218466
 21
484.4452756292271
 31
0.0
  0
LINE
  5
268
  8
1_5_____
  6
CONTINUOUS
 62
     7
 10
1256.065977143422
 20
284.4432756292476
 30
0.0
 11
1256.065977143422
 21
684.4432756292476
 31
0.0
  0
TEXT
  5
269
  8
1_5_____
 62
     1
 10
-279.274152800162
 20
1290.550719422607
 30
0.0
 40
10.62008101851852
  1
▽ＷＬ
  7
YUGOTHIC_MEDIUM
 11
-279.274152800162
 21
1295.860759931866
 31
0.0
 73
     2
  0
TEXT
  5
26A
  8
1_5_____
 62
     1
 10
1264.658820921986
 20
659.8635706018516
 30
0.0
 40
10.62008101851852
  1
\U+25C1ＷＬ
  7
YUGOTHIC_MEDIUM
 11
1264.658820921986
 21
665.1736111111109
 31
0.0
 73
     2
  0
LINE
  5
26B
  8
1_5_____
  6
CONTINUOUS
 62
     7
 10
517.020652143422
 20
1285.174595629266
 30
0.0
 11
-282.979347856578
 21
1285.174595629266
 31
0.0
  0
TEXT
  5
26C
  8
1_5_____
 62
     1
 10
-88.89518464134039
 20
430.6038070469373
 30
0.0
 40
9.292570891203704
  1
オーバーフロー穴
  7
YUGOTHIC_MEDIUM
 11
-88.89518464134039
 21
435.2500924925391
 31
0.0
 73
     2
  0
LINE
  5
26D
  8
1_5_____
  6
CONTINUOUS
 62
     5
 10
-90.2533737808717
 20
425.1514735321075
 30
0.0
 11
59.17472611875326
 21
425.1514735321075
 31
0.0
  0
LINE
  5
26E
  8
1_5_____
  6
CONTINUOUS
 62
     5
 10
107.6236951683013
 20
509.0675495002658
 30
0.0
 11
59.17472611875326
 21
425.1514735321075
 31
0.0
  0
POLYLINE
  5
26F
  8
1_5_____
  6
CONTINUOUS
 62
    17
 66
     1
 10
0.0
 20
0.0
 30
0.0
 70
   129
  0
VERTEX
  5
270
  8
1_5_____
  6
CONTINUOUS
 62
    17
 10
104.028098317219
 20
505.3441999648001
 30
0.0
  0
VERTEX
  5
271
  8
1_5_____
  6
CONTINUOUS
 62
    17
 10
107.6236951683013
 20
509.0675495002658
 30
0.0
  0
VERTEX
  5
272
  8
1_5_____
  6
CONTINUOUS
 62
    17
 10
106.3714917212295
 20
504.0452357898423
 30
0.0
  0
SEQEND
  5
273
  8
1_5_____
  6
CONTINUOUS
 62
    17
  0
DIMENSION
  5
274
  8
1_5_____
  6
CONTINUOUS
 62
    17
  2
*D3
 10
-207.9793478565778
 20
1400.174595629266
 30
0.0
 11
117.020652143422
 21
1405.534636138339
 31
0.0
 70
    32
  3
TOOLBOX
 13
442.0206521434218
 23
1275.174595629266
 33
0.0
 14
-207.9793478565778
 24
1275.174595629266
 34
0.0
  0
DIMENSION
  5
275
  8
1_5_____
  6
CONTINUOUS
 62
    17
  2
*D4
 10
-172.9793478565778
 20
1345.174595629266
 30
0.0
 11
117.020652143422
 21
1350.534636138339
 31
0.0
 70
    32
  3
TOOLBOX
 13
407.0206521434218
 23
1245.174595629266
 33
0.0
 14
-172.9793478565778
 24
1245.174595629266
 34
0.0
  0
DIMENSION
  5
276
  8
1_5__
  6
CONTINUOUS
 62
    17
  2
*D5
 10
-347.9793478565778
 20
1285.174595629266
 30
0.0
 11
-353.3393883656508
 21
1042.674595629266
 31
0.0
 70
    32
  3
TOOLBOX
 13
-162.9793478565778
 23
800.1745956292657
 33
0.0
 14
-197.9793478565778
 24
1285.174595629266
 34
0.0
 50
-90.0
  0
DIMENSION
  5
277
  8
1_5__
  6
CONTINUOUS
 62
    17
  2
*D6
 10
-262.9793478565778
 20
1140.174595629266
 30
0.0
 11
-268.3393883656507
 21
987.6745956292657
 31
0.0
 70
    32
  3
TOOLBOX
 13
-162.9793478565778
 23
835.1745956292657
 33
0.0
 14
-162.9793478565778
 24
1140.174595629266
 34
0.0
 50
-90.0
  0
DIMENSION
  5
278
  8
1_5__
  6
CONTINUOUS
 62
    17
  2
*D7
 10
94.02065214342224
 20
975.1745956292657
 30
0.0
 11
117.0206521434222
 21
980.5346361383387
 31
0.0
 70
    32
  3
TOOLBOX
 13
140.0206521434222
 23
1075.174595629266
 33
0.0
 14
94.02065214342224
 24
1075.174595629266
 34
0.0
  0
DIMENSION
  5
279
  8
1_5__
  6
CONTINUOUS
 62
    17
  2
*D8
 10
99.52065214342224
 20
1165.807928962413
 30
0.0
 11
171.4316665993797
 21
1165.807928962413
 31
0.0
 70
   160
  3
TOOLBOX
 13
134.5206521434222
 23
1205.174595629266
 33
0.0
 14
99.52065214342224
 24
1205.174595629266
 34
0.0
  0
DIMENSION
  5
27A
  8
1_5__
  6
CONTINUOUS
 62
    17
  2
*D9
 10
-347.9793478565778
 20
584.4452756292253
 30
0.0
 11
-353.3393883656507
 21
466.9452756292262
 31
0.0
 70
    32
  3
TOOLBOX
 13
79.52065214342224
 23
349.4452756292271
 33
0.0
 14
-202.9793478565778
 24
584.4452756292253
 34
0.0
 50
-90.0
  0
DIMENSION
  5
27B
  8
1_5__
  6
CONTINUOUS
 62
    17
  2
*D10
 10
-302.9793478565778
 20
584.4452756292253
 30
0.0
 11
-308.3393883656507
 21
549.635576797948
 31
0.0
 70
    32
  3
TOOLBOX
 13
-204.8927650184032
 23
514.8258779666708
 33
0.0
 14
-202.9793478565778
 24
584.4452756292253
 34
0.0
 50
-90.0
  0
DIMENSION
  5
27C
  8
1_5__
  6
CONTINUOUS
 62
    17
  2
*D11
 10
-252.9793478565778
 20
584.4452756292253
 30
0.0
 11
-258.3393883656507
 21
566.9452756292262
 31
0.0
 70
    32
  3
TOOLBOX
 13
-197.9793478565778
 23
549.4452756292271
 33
0.0
 14
-202.9793478565778
 24
584.4452756292253
 34
0.0
 50
-90.0
  0
DIMENSION
  5
27D
  8
1_5__
  6
CONTINUOUS
 62
    17
  2
*D12
 10
-22.97934785657776
 20
652.5482756292299
 30
0.0
 11
117.020652143422
 21
657.9083161383029
 31
0.0
 70
    32
  3
TOOLBOX
 13
257.0206521434218
 23
502.5482756292299
 33
0.0
 14
-22.97934785657776
 24
502.5482756292299
 34
0.0
  0
DIMENSION
  5
27E
  8
1_5__
  6
CONTINUOUS
 62
    17
  2
*D13
 10
532.0206521434218
 20
1285.174595629266
 30
0.0
 11
526.6606116343487
 21
1180.174595629266
 31
0.0
 70
    32
  3
TOOLBOX
 13
166.2817321434216
 23
1075.174595629266
 33
0.0
 14
432.0206521434218
 24
1285.174595629266
 34
0.0
 50
-90.0
  0
DIMENSION
  5
27F
  8
1_5__
  6
CONTINUOUS
 62
    17
  2
*D14
 10
482.0206521434218
 20
1285.174595629266
 30
0.0
 11
476.6606116343487
 21
1245.174595629266
 31
0.0
 70
    32
  3
TOOLBOX
 13
149.5206521434222
 23
1205.174595629266
 33
0.0
 14
432.0206521434218
 24
1285.174595629266
 34
0.0
 50
-90.0
  0
DIMENSION
  5
280
  8
1_5__
  6
CONTINUOUS
 62
    17
  2
*D15
 10
676.0659771434223
 20
549.4452756292271
 30
0.0
 11
670.7059366343493
 21
476.9442756292524
 31
0.0
 70
    32
  3
TOOLBOX
 13
1001.065977143422
 23
404.4432756292777
 33
0.0
 14
776.0659771434223
 24
549.4452756292271
 34
0.0
 50
-90.0
  0
DIMENSION
  5
281
  8
1_5__
  6
CONTINUOUS
 62
    17
  2
*D16
 10
1059.465397560274
 20
549.4452756292271
 30
0.0
 11
1059.465397560274
 21
595.0000000000002
 31
0.0
 70
   160
  3
TOOLBOX
 13
1114.180774885741
 23
534.012704315448
 33
0.0
 14
1095.098730893421
 24
549.4452756292271
 34
0.0
 50
-90.0
  0
TEXT
  5
282
  8
1_5__-1
 62
     1
 10
-501.7643438888883
 20
172.9307317266592
 30
0.0
 40
10.62008101851852
  1
※1　（　）内寸法は参考寸法である。 
  7
YUGOTHIC_MEDIUM
 11
-501.7643438888883
 21
169.8964228642253
 31
0.0
 73
     1
  0
TEXT
  5
283
  8
1_5__-1
 62
     1
 10
-501.7643438888883
 20
151.7640650599924
 30
0.0
 40
10.62008101851852
  1
※２　容量8.5L・質量21ｋｇ 
  7
YUGOTHIC_MEDIUM
 11
-501.7643438888883
 21
148.7297561975586
 31
0.0
 73
     1
  0
TEXT
  5
284
  8
1_5__-1
 62
     1
 10
-501.7643438888883
 20
130.5973983933259
 30
0.0
 40
10.62008101851852
  1
※３　壁掛専用 
  7
YUGOTHIC_MEDIUM
 11
-501.7643438888883
 21
127.5630895308921
 31
0.0
 73
     1
  0
TEXT
  5
285
  8
1_5__-1
 62
     1
 10
-501.7643438888883
 20
109.4307317266592
 30
0.0
 40
10.62008101851852
  1
※４　製品取付下地は、製品の使用に十分耐えられるような構造、材質を準備してください。
  7
YUGOTHIC_MEDIUM
 11
-501.7643438888883
 21
106.3964228642253
 31
0.0
 73
     1
  0
POLYLINE
  5
286
  8
1_5__-1
  6
CONTINUOUS
 62
    17
 66
     1
 10
0.0
 20
0.0
 30
0.0
 70
   129
  0
VERTEX
  5
287
  8
1_5__-1
  6
CONTINUOUS
 62
    17
 10
677.3000000000002
 20
1412.315000000001
 30
0.0
  0
VERTEX
  5
288
  8
1_5__-1
  6
CONTINUOUS
 62
    17
 10
1477.3
 20
1412.315000000001
 30
0.0
  0
VERTEX
  5
289
  8
1_5__-1
  6
CONTINUOUS
 62
    17
 10
1477.3
 20
812.3150000000005
 30
0.0
  0
VERTEX
  5
28A
  8
1_5__-1
  6
CONTINUOUS
 62
    17
 10
677.3000000000002
 20
812.3150000000005
 30
0.0
  0
SEQEND
  5
28B
  8
1_5__-1
  6
CONTINUOUS
 62
    17
  0
TEXT
  5
28C
  8
1_5__-1
 62
     1
 10
699.0321358891064
 20
1373.688333333334
 30
0.0
 40
15.93012152777778
  1
付属品
  7
YUGOTHIC_MEDIUM
 11
699.0321358891064
 21
1389.618454861112
 31
0.0
 73
     3
  0
LINE
  5
28D
  8
1_5__-1
  6
CONTINUOUS
 62
     1
 10
1028.562500000001
 20
1262.890784999996
 30
0.0
 11
1042.0625
 21
1262.890784999996
 31
0.0
  0
TEXT
  5
28E
  8
1_5__-1
 62
     1
 10
1013.36384
 20
1332.778642788047
 30
0.0
 40
11.06258439429012
  1
アンカープラグS14（×2）
  7
YUGOTHIC_MEDIUM
 11
1013.36384
 21
1343.841227182337
 31
0.0
 73
     3
  0
LINE
  5
28F
  8
1_5__-1
  6
ISO-10______
 62
     2
 10
1035.312500000001
 20
1265.648210000014
 30
0.0
 11
1035.312500000001
 21
1185.740779999993
 31
0.0
  0
LINE
  5
290
  8
1_5__-1
  6
CONTINUOUS
 62
     1
 10
1035.8125
 20
1188.390785000025
 30
0.0
 11
1039.312500000001
 21
1188.390785000025
 31
0.0
  0
LINE
  5
291
  8
1_5__-1
  6
CONTINUOUS
 62
     1
 10
1034.812500000001
 20
1255.390784999996
 30
0.0
 11
1034.812500000001
 21
1188.390785000025
 31
0.0
  0
LINE
  5
292
  8
1_5__-1
  6
CONTINUOUS
 62
     1
 10
1035.8125
 20
1255.390784999996
 30
0.0
 11
1035.8125
 21
1188.390785000025
 31
0.0
  0
LINE
  5
293
  8
1_5__-1
  6
CONTINUOUS
 62
     1
 10
1034.812500000001
 20
1255.390784999996
 30
0.0
 11
1035.8125
 21
1255.390784999996
 31
0.0
  0
LINE
  5
294
  8
1_5__-1
  6
CONTINUOUS
 62
     1
 10
1030.8125
 20
1197.390785000025
 30
0.0
 11
1028.562500000001
 21
1197.390785000025
 31
0.0
  0
LINE
  5
295
  8
1_5__-1
  6
CONTINUOUS
 62
     1
 10
1030.8125
 20
1200.390784999996
 30
0.0
 11
1030.8125
 21
1197.390785000025
 31
0.0
  0
LINE
  5
296
  8
1_5__-1
  6
CONTINUOUS
 62
     1
 10
1030.8125
 20
1200.390784999996
 30
0.0
 11
1028.562500000001
 21
1205.390784999996
 31
0.0
  0
LINE
  5
297
  8
1_5__-1
  6
CONTINUOUS
 62
     1
 10
1028.562500000001
 20
1197.390785000025
 30
0.0
 11
1028.562500000001
 21
1192.390785000025
 31
0.0
  0
LINE
  5
298
  8
1_5__-1
  6
CONTINUOUS
 62
     1
 10
1030.8125
 20
1207.890784999996
 30
0.0
 11
1028.562500000001
 21
1207.890784999996
 31
0.0
  0
LINE
  5
299
  8
1_5__-1
  6
CONTINUOUS
 62
     1
 10
1030.8125
 20
1210.890785000025
 30
0.0
 11
1028.562500000001
 21
1215.890785000025
 31
0.0
  0
LINE
  5
29A
  8
1_5__-1
  6
CONTINUOUS
 62
     1
 10
1030.8125
 20
1210.890785000025
 30
0.0
 11
1030.8125
 21
1207.890784999996
 31
0.0
  0
LINE
  5
29B
  8
1_5__-1
  6
CONTINUOUS
 62
     1
 10
1030.8125
 20
1218.390785000025
 30
0.0
 11
1028.562500000001
 21
1218.390785000025
 31
0.0
  0
LINE
  5
29C
  8
1_5__-1
  6
CONTINUOUS
 62
     1
 10
1030.8125
 20
1221.390784999996
 30
0.0
 11
1028.562500000001
 21
1226.390784999996
 31
0.0
  0
LINE
  5
29D
  8
1_5__-1
  6
CONTINUOUS
 62
     1
 10
1030.8125
 20
1221.390784999996
 30
0.0
 11
1030.8125
 21
1218.390785000025
 31
0.0
  0
LINE
  5
29E
  8
1_5__-1
  6
CONTINUOUS
 62
     1
 10
1030.8125
 20
1228.890784999996
 30
0.0
 11
1028.562500000001
 21
1228.890784999996
 31
0.0
  0
LINE
  5
29F
  8
1_5__-1
  6
CONTINUOUS
 62
     1
 10
1030.8125
 20
1231.890784999996
 30
0.0
 11
1028.562500000001
 21
1236.890784999996
 31
0.0
  0
LINE
  5
2A0
  8
1_5__-1
  6
CONTINUOUS
 62
     1
 10
1030.8125
 20
1231.890784999996
 30
0.0
 11
1030.8125
 21
1228.890784999996
 31
0.0
  0
LINE
  5
2A1
  8
1_5__-1
  6
CONTINUOUS
 62
     1
 10
1028.562500000001
 20
1207.890784999996
 30
0.0
 11
1028.562500000001
 21
1205.390784999996
 31
0.0
  0
LINE
  5
2A2
  8
1_5__-1
  6
CONTINUOUS
 62
     1
 10
1028.562500000001
 20
1218.390785000025
 30
0.0
 11
1028.562500000001
 21
1215.890785000025
 31
0.0
  0
LINE
  5
2A3
  8
1_5__-1
  6
CONTINUOUS
 62
     1
 10
1028.562500000001
 20
1228.890784999996
 30
0.0
 11
1028.562500000001
 21
1226.390784999996
 31
0.0
  0
ARC
  5
2A4
  8
1_5__-1
  6
CONTINUOUS
 62
     1
 10
1000.118690000001
 20
1221.361525000044
 30
0.0
 40
31.51236499998987
 50
13.8234229999333
 51
37.91724399997952
  0
ARC
  5
2A5
  8
1_5__-1
  6
CONTINUOUS
 62
     1
 10
1000.118690000001
 20
1221.361525000044
 30
0.0
 40
29.51236499999582
 50
14.78083399996743
 51
37.91724399987559
  0
ARC
  5
2A6
  8
1_5__-1
  6
CONTINUOUS
 62
     1
 10
1024.189870000002
 20
1240.112065000023
 30
0.0
 40
1.000000000003422
 50
37.91724400028699
 51
217.917244002403
  0
LINE
  5
2A7
  8
1_5__-1
  6
CONTINUOUS
 62
     1
 10
1030.0625
 20
1241.557455000002
 30
0.0
 11
1030.0625
 21
1233.557455000002
 31
0.0
  0
LINE
  5
2A8
  8
1_5__-1
  6
CONTINUOUS
 62
     1
 10
1028.562500000001
 20
1241.557455000002
 30
0.0
 11
1030.0625
 21
1241.557455000002
 31
0.0
  0
LINE
  5
2A9
  8
1_5__-1
  6
CONTINUOUS
 62
     1
 10
1031.3125
 20
1188.390785000025
 30
0.0
 11
1028.562500000001
 21
1192.390785000025
 31
0.0
  0
LINE
  5
2AA
  8
1_5__-1
  6
CONTINUOUS
 62
     1
 10
1028.562500000001
 20
1262.890784999996
 30
0.0
 11
1028.562500000001
 21
1236.890784999996
 31
0.0
  0
LINE
  5
2AB
  8
1_5__-1
  6
CONTINUOUS
 62
     1
 10
1042.0625
 20
1241.557455000002
 30
0.0
 11
1040.562500000001
 21
1241.557455000002
 31
0.0
  0
LINE
  5
2AC
  8
1_5__-1
  6
CONTINUOUS
 62
     1
 10
1040.562500000001
 20
1241.557455000002
 30
0.0
 11
1040.562500000001
 21
1233.557455000002
 31
0.0
  0
ARC
  5
2AD
  8
1_5__-1
  6
CONTINUOUS
 62
     1
 10
1046.435135000002
 20
1240.112065000023
 30
0.0
 40
1.000000000020948
 50
322.0827559983815
 51
142.0827560005316
  0
ARC
  5
2AE
  8
1_5__-1
  6
CONTINUOUS
 62
     1
 10
1070.506315000001
 20
1221.361525000044
 30
0.0
 40
29.51236499996551
 50
142.0827560000847
 51
165.2191660000171
  0
ARC
  5
2AF
  8
1_5__-1
  6
CONTINUOUS
 62
     1
 10
1070.506315000001
 20
1221.361525000044
 30
0.0
 40
31.51236499999136
 50
142.082756000021
 51
166.1765770000671
  0
LINE
  5
2B0
  8
1_5__-1
  6
CONTINUOUS
 62
     1
 10
1042.0625
 20
1228.890784999996
 30
0.0
 11
1042.0625
 21
1226.390784999996
 31
0.0
  0
LINE
  5
2B1
  8
1_5__-1
  6
CONTINUOUS
 62
     1
 10
1042.0625
 20
1218.390785000025
 30
0.0
 11
1042.0625
 21
1215.890785000025
 31
0.0
  0
LINE
  5
2B2
  8
1_5__-1
  6
CONTINUOUS
 62
     1
 10
1042.0625
 20
1207.890784999996
 30
0.0
 11
1042.0625
 21
1205.390784999996
 31
0.0
  0
LINE
  5
2B3
  8
1_5__-1
  6
CONTINUOUS
 62
     1
 10
1039.812500000001
 20
1231.890784999996
 30
0.0
 11
1039.812500000001
 21
1228.890784999996
 31
0.0
  0
LINE
  5
2B4
  8
1_5__-1
  6
CONTINUOUS
 62
     1
 10
1039.812500000001
 20
1231.890784999996
 30
0.0
 11
1042.0625
 21
1236.890784999996
 31
0.0
  0
LINE
  5
2B5
  8
1_5__-1
  6
CONTINUOUS
 62
     1
 10
1039.812500000001
 20
1228.890784999996
 30
0.0
 11
1042.0625
 21
1228.890784999996
 31
0.0
  0
LINE
  5
2B6
  8
1_5__-1
  6
CONTINUOUS
 62
     1
 10
1039.812500000001
 20
1221.390784999996
 30
0.0
 11
1039.812500000001
 21
1218.390785000025
 31
0.0
  0
LINE
  5
2B7
  8
1_5__-1
  6
CONTINUOUS
 62
     1
 10
1039.812500000001
 20
1221.390784999996
 30
0.0
 11
1042.0625
 21
1226.390784999996
 31
0.0
  0
LINE
  5
2B8
  8
1_5__-1
  6
CONTINUOUS
 62
     1
 10
1039.812500000001
 20
1218.390785000025
 30
0.0
 11
1042.0625
 21
1218.390785000025
 31
0.0
  0
LINE
  5
2B9
  8
1_5__-1
  6
CONTINUOUS
 62
     1
 10
1039.812500000001
 20
1210.890785000025
 30
0.0
 11
1039.812500000001
 21
1207.890784999996
 31
0.0
  0
LINE
  5
2BA
  8
1_5__-1
  6
CONTINUOUS
 62
     1
 10
1039.812500000001
 20
1210.890785000025
 30
0.0
 11
1042.0625
 21
1215.890785000025
 31
0.0
  0
LINE
  5
2BB
  8
1_5__-1
  6
CONTINUOUS
 62
     1
 10
1039.812500000001
 20
1207.890784999996
 30
0.0
 11
1042.0625
 21
1207.890784999996
 31
0.0
  0
LINE
  5
2BC
  8
1_5__-1
  6
CONTINUOUS
 62
     1
 10
1042.0625
 20
1197.390785000025
 30
0.0
 11
1042.0625
 21
1192.390785000025
 31
0.0
  0
LINE
  5
2BD
  8
1_5__-1
  6
CONTINUOUS
 62
     1
 10
1039.812500000001
 20
1200.390784999996
 30
0.0
 11
1042.0625
 21
1205.390784999996
 31
0.0
  0
LINE
  5
2BE
  8
1_5__-1
  6
CONTINUOUS
 62
     1
 10
1039.812500000001
 20
1200.390784999996
 30
0.0
 11
1039.812500000001
 21
1197.390785000025
 31
0.0
  0
LINE
  5
2BF
  8
1_5__-1
  6
CONTINUOUS
 62
     1
 10
1039.812500000001
 20
1197.390785000025
 30
0.0
 11
1042.0625
 21
1197.390785000025
 31
0.0
  0
LINE
  5
2C0
  8
1_5__-1
  6
CONTINUOUS
 62
     1
 10
1039.312500000001
 20
1188.390785000025
 30
0.0
 11
1042.0625
 21
1192.390785000025
 31
0.0
  0
LINE
  5
2C1
  8
1_5__-1
  6
CONTINUOUS
 62
     1
 10
1042.0625
 20
1262.890784999996
 30
0.0
 11
1042.0625
 21
1236.890784999996
 31
0.0
  0
LINE
  5
2C2
  8
1_5__-1
  6
CONTINUOUS
 62
     1
 10
1031.3125
 20
1188.390785000025
 30
0.0
 11
1034.812500000001
 21
1188.390785000025
 31
0.0
  0
TEXT
  5
2C3
  8
1_5__-1
 62
     1
 10
793.4512700000017
 20
1332.778642788047
 30
0.0
 40
11.06258439429012
  1
ハンガーボルト（×2）
  7
YUGOTHIC_MEDIUM
 11
793.4512700000017
 21
1343.841227182337
 31
0.0
 73
     3
  0
LINE
  5
2C4
  8
1_5__-1
  6
CONTINUOUS
 62
     1
 10
832.6255700000014
 20
1219.679774999997
 30
0.0
 11
831.8135700000006
 21
1221.08620000002
 31
0.0
  0
LINE
  5
2C5
  8
1_5__-1
  6
CONTINUOUS
 62
     1
 10
831.8135700000006
 20
1221.08620000002
 30
0.0
 11
831.8135700000006
 21
1272.679774999997
 31
0.0
  0
LINE
  5
2C6
  8
1_5__-1
  6
CONTINUOUS
 62
     1
 10
832.6255700000014
 20
1219.679774999997
 30
0.0
 11
832.6255700000014
 21
1271.867775000021
 31
0.0
  0
LINE
  5
2C7
  8
1_5__-1
  6
CONTINUOUS
 62
     1
 10
831.8135700000006
 20
1272.679774999997
 30
0.0
 11
832.6255700000014
 21
1271.867775000021
 31
0.0
  0
LINE
  5
2C8
  8
1_5__-1
  6
CONTINUOUS
 62
     1
 10
822.6255700000014
 20
1271.867775000021
 30
0.0
 11
832.6255700000014
 21
1271.867775000021
 31
0.0
  0
LINE
  5
2C9
  8
1_5__-1
  6
CONTINUOUS
 62
     1
 10
822.6255700000014
 20
1221.08620000002
 30
0.0
 11
832.6255700000014
 21
1221.08620000002
 31
0.0
  0
LINE
  5
2CA
  8
1_5__-1
  6
CONTINUOUS
 62
     1
 10
823.4375700000008
 20
1272.679774999997
 30
0.0
 11
822.6255700000014
 21
1271.867775000021
 31
0.0
  0
LINE
  5
2CB
  8
1_5__-1
  6
CONTINUOUS
 62
     1
 10
822.6255700000014
 20
1219.679774999997
 30
0.0
 11
823.4375700000008
 21
1221.08620000002
 31
0.0
  0
LINE
  5
2CC
  8
1_5__-1
  6
CONTINUOUS
 62
     1
 10
823.4375700000008
 20
1221.08620000002
 30
0.0
 11
823.4375700000008
 21
1272.679774999997
 31
0.0
  0
LINE
  5
2CD
  8
1_5__-1
  6
CONTINUOUS
 62
     1
 10
822.6255700000014
 20
1219.679774999997
 30
0.0
 11
822.6255700000014
 21
1271.867775000021
 31
0.0
  0
LINE
  5
2CE
  8
1_5__-1
  6
CONTINUOUS
 62
     1
 10
822.6255700000014
 20
1219.679774999997
 30
0.0
 11
832.6255700000014
 21
1219.679774999997
 31
0.0
  0
LINE
  5
2CF
  8
1_5__-1
  6
CONTINUOUS
 62
     1
 10
825.6790700000009
 20
1134.686620000022
 30
0.0
 11
827.6255700000014
 21
1132.679774999997
 31
0.0
  0
LINE
  5
2D0
  8
1_5__-1
  6
CONTINUOUS
 62
     1
 10
831.5722850000001
 20
1136.831574999989
 30
0.0
 11
825.6790700000009
 21
1134.686620000022
 31
0.0
  0
LINE
  5
2D1
  8
1_5__-1
  6
CONTINUOUS
 62
     1
 10
823.12557
 20
1139.905925000057
 30
0.0
 11
831.5722850000001
 21
1136.831574999989
 31
0.0
  0
LINE
  5
2D2
  8
1_5__-1
  6
CONTINUOUS
 62
     1
 10
832.1255699999996
 20
1143.181660000002
 30
0.0
 11
823.12557
 21
1139.905925000057
 31
0.0
  0
LINE
  5
2D3
  8
1_5__-1
  6
CONTINUOUS
 62
     1
 10
823.12557
 20
1146.457389999996
 30
0.0
 11
832.1255699999996
 21
1143.181660000002
 31
0.0
  0
LINE
  5
2D4
  8
1_5__-1
  6
CONTINUOUS
 62
     1
 10
832.1255699999996
 20
1149.733120000019
 30
0.0
 11
823.12557
 21
1146.457389999996
 31
0.0
  0
LINE
  5
2D5
  8
1_5__-1
  6
CONTINUOUS
 62
     1
 10
823.12557
 20
1153.008855000022
 30
0.0
 11
832.1255699999996
 21
1149.733120000019
 31
0.0
  0
LINE
  5
2D6
  8
1_5__-1
  6
CONTINUOUS
 62
     1
 10
832.1255699999996
 20
1156.284585000045
 30
0.0
 11
823.12557
 21
1153.008855000022
 31
0.0
  0
LINE
  5
2D7
  8
1_5__-1
  6
CONTINUOUS
 62
     1
 10
823.12557
 20
1159.560320000019
 30
0.0
 11
832.1255699999996
 21
1156.284585000045
 31
0.0
  0
LINE
  5
2D8
  8
1_5__-1
  6
CONTINUOUS
 62
     1
 10
832.1255699999996
 20
1162.836049999984
 30
0.0
 11
823.12557
 21
1159.560320000019
 31
0.0
  0
LINE
  5
2D9
  8
1_5__-1
  6
CONTINUOUS
 62
     1
 10
823.12557
 20
1166.111785000045
 30
0.0
 11
832.1255699999996
 21
1162.836049999984
 31
0.0
  0
LINE
  5
2DA
  8
1_5__-1
  6
CONTINUOUS
 62
     1
 10
832.1255699999996
 20
1169.387515000009
 30
0.0
 11
823.12557
 21
1166.111785000045
 31
0.0
  0
LINE
  5
2DB
  8
1_5__-1
  6
CONTINUOUS
 62
     1
 10
823.12557
 20
1172.663245000003
 30
0.0
 11
832.1255699999996
 21
1169.387515000009
 31
0.0
  0
LINE
  5
2DC
  8
1_5__-1
  6
CONTINUOUS
 62
     1
 10
832.1255699999996
 20
1175.938980000064
 30
0.0
 11
823.12557
 21
1172.663245000003
 31
0.0
  0
LINE
  5
2DD
  8
1_5__-1
  6
CONTINUOUS
 62
     1
 10
823.12557
 20
1179.214710000029
 30
0.0
 11
832.1255699999996
 21
1175.938980000064
 31
0.0
  0
LINE
  5
2DE
  8
1_5__-1
  6
CONTINUOUS
 62
     1
 10
832.1255699999996
 20
1182.490445000003
 30
0.0
 11
823.12557
 21
1179.214710000029
 31
0.0
  0
LINE
  5
2DF
  8
1_5__-1
  6
CONTINUOUS
 62
     1
 10
823.12557
 20
1185.766175000026
 30
0.0
 11
832.1255699999996
 21
1182.490445000003
 31
0.0
  0
LINE
  5
2E0
  8
1_5__-1
  6
CONTINUOUS
 62
     1
 10
832.1255699999996
 20
1189.041910000029
 30
0.0
 11
823.12557
 21
1185.766175000026
 31
0.0
  0
LINE
  5
2E1
  8
1_5__-1
  6
CONTINUOUS
 62
     1
 10
827.6255700000014
 20
1190.679775000026
 30
0.0
 11
832.1255699999996
 21
1189.041910000029
 31
0.0
  0
ARC
  5
2E2
  8
1_5__-1
  6
CONTINUOUS
 62
     1
 10
828.3755699999996
 20
1143.22377500002
 30
0.0
 40
2.999999999995001
 50
339.4439550003519
 51
0.0
  0
ARC
  5
2E3
  8
1_5__-1
  6
CONTINUOUS
 62
     1
 10
826.87557
 20
1143.22377500002
 30
0.0
 40
2.999999999998636
 50
180.0
 51
200.5560449996237
  0
LINE
  5
2E4
  8
1_5__-1
  6
CONTINUOUS
 62
     1
 10
827.6255700000014
 20
1132.679774999997
 30
0.0
 11
831.1845600000014
 21
1142.170405000012
 31
0.0
  0
LINE
  5
2E5
  8
1_5__-1
  6
CONTINUOUS
 62
     1
 10
824.0665850000017
 20
1142.170405000012
 30
0.0
 11
827.6255700000014
 21
1132.679774999997
 31
0.0
  0
LINE
  5
2E6
  8
1_5__-1
  6
CONTINUOUS
 62
     1
 10
831.3755700000014
 20
1143.22377500002
 30
0.0
 11
831.3755700000014
 21
1190.679775000026
 31
0.0
  0
LINE
  5
2E7
  8
1_5__-1
  6
CONTINUOUS
 62
     1
 10
823.8755700000014
 20
1143.22377500002
 30
0.0
 11
823.8755700000014
 21
1190.679775000026
 31
0.0
  0
LINE
  5
2E8
  8
1_5__-1
  6
ISO-10______
 62
     2
 10
827.6255700000014
 20
1131.377005000046
 30
0.0
 11
827.6255700000014
 21
1273.701854999992
 31
0.0
  0
LINE
  5
2E9
  8
1_5__-1
  6
CONTINUOUS
 62
     1
 10
823.4375700000008
 20
1272.679774999997
 30
0.0
 11
831.8135700000006
 21
1272.679774999997
 31
0.0
  0
LINE
  5
2EA
  8
1_5__-1
  6
ISO-10______
 62
     2
 10
863.1326000000003
 20
978.3403500000131
 30
0.0
 11
820.8046700000003
 21
978.3403500000131
 31
0.0
  0
CIRCLE
  5
2EB
  8
1_5__-1
  6
CONTINUOUS
 62
     1
 10
1266.30786
 20
978.1611100000137
 30
0.0
 40
4.323500000000422
  0
CIRCLE
  5
2EC
  8
1_5__-1
  6
CONTINUOUS
 62
     1
 10
1266.30786
 20
978.1611100000137
 30
0.0
 40
5.0
  0
CIRCLE
  5
2ED
  8
1_5__-1
  6
CONTINUOUS
 62
     1
 10
1266.30786
 20
978.1611100000137
 30
0.0
 40
8.50000000000091
  0
LINE
  5
2EE
  8
1_5__-1
  6
CONTINUOUS
 62
     1
 10
1271.215335
 20
986.6611100000137
 30
0.0
 11
1276.122815000001
 21
978.1611100000137
 31
0.0
  0
LINE
  5
2EF
  8
1_5__-1
  6
CONTINUOUS
 62
     1
 10
1256.492905000001
 20
978.1611100000137
 30
0.0
 11
1261.400380000001
 21
969.6611100000428
 31
0.0
  0
LINE
  5
2F0
  8
1_5__-1
  6
CONTINUOUS
 62
     1
 10
1276.122815000001
 20
978.1611100000137
 30
0.0
 11
1271.215335
 21
969.6611100000428
 31
0.0
  0
LINE
  5
2F1
  8
1_5__-1
  6
CONTINUOUS
 62
     1
 10
1261.400380000001
 20
986.6611100000137
 30
0.0
 11
1256.492905000001
 21
978.1611100000137
 31
0.0
  0
LINE
  5
2F2
  8
1_5__-1
  6
CONTINUOUS
 62
     1
 10
1271.215335
 20
969.6611100000428
 30
0.0
 11
1261.400380000001
 21
969.6611100000428
 31
0.0
  0
LINE
  5
2F3
  8
1_5__-1
  6
CONTINUOUS
 62
     1
 10
1271.215335
 20
986.6611100000137
 30
0.0
 11
1261.400380000001
 21
986.6611100000137
 31
0.0
  0
LINE
  5
2F4
  8
1_5__-1
  6
ISO-10______
 62
     2
 10
1266.30786
 20
989.0270600000204
 30
0.0
 11
1266.30786
 21
967.1912500000017
 31
0.0
  0
LINE
  5
2F5
  8
1_5__-1
  6
ISO-10______
 62
     2
 10
1277.229985000001
 20
978.1611100000137
 30
0.0
 11
1254.629705
 21
978.1611100000137
 31
0.0
  0
LINE
  5
2F6
  8
1_5__-1
  6
ISO-10______
 62
     2
 10
1043.531250000001
 20
906.4690400000254
 30
0.0
 11
1043.531250000001
 21
902.4219350000203
 31
0.0
  0
LINE
  5
2F7
  8
1_5__-1
  6
CONTINUOUS
 62
     1
 10
1028.531250000001
 20
903.5783550000051
 30
0.0
 11
1058.531250000001
 21
903.5783550000051
 31
0.0
  0
LINE
  5
2F8
  8
1_5__-1
  6
ISO-10______
 62
     2
 10
1043.531250000001
 20
998.5887700000021
 30
0.0
 11
1043.531250000001
 21
957.9822749999876
 31
0.0
  0
LINE
  5
2F9
  8
1_5__-1
  6
ISO-10______
 62
     2
 10
1063.392285000001
 20
978.3403500000131
 30
0.0
 11
1023.581995000001
 21
978.3403500000131
 31
0.0
  0
LINE
  5
2FA
  8
1_5__-1
  6
CONTINUOUS
 62
     1
 10
829.6187050000007
 20
889.8488652227625
 30
0.0
 11
854.6187050000007
 21
889.8488652227625
 31
0.0
  0
LINE
  5
2FB
  8
1_5__-1
  6
ISO-10______
 62
     2
 10
842.1187050000007
 20
907.47256022275
 30
0.0
 11
842.1187050000007
 21
888.4965252227503
 31
0.0
  0
LINE
  5
2FC
  8
1_5__-1
  6
ISO-10______
 62
     2
 10
842.1187050000007
 20
998.1256750000466
 30
0.0
 11
842.1187050000007
 21
958.5130500000378
 31
0.0
  0
TEXT
  5
2FD
  8
1_5__-1
 62
     1
 10
1231.89588
 20
1054.974647788052
 30
0.0
 40
11.06258439429012
  1
取付ナット（×2）
  7
YUGOTHIC_MEDIUM
 11
1231.89588
 21
1066.037232182342
 31
0.0
 73
     3
  0
TEXT
  5
2FE
  8
1_5__-1
 62
     1
 10
1013.287850000001
 20
1054.974647788052
 30
0.0
 40
11.06258439429012
  1
スリップワッシャ（×2）
  7
YUGOTHIC_MEDIUM
 11
1013.287850000001
 21
1066.037232182342
 31
0.0
 73
     3
  0
CIRCLE
  5
2FF
  8
1_5__-1
  6
CONTINUOUS
 62
     1
 10
842.1187050000007
 20
978.3403500000131
 30
0.0
 40
18.00000000000045
  0
CIRCLE
  5
300
  8
1_5__-1
  6
CONTINUOUS
 62
     1
 10
842.1187050000007
 20
978.3403500000131
 30
0.0
 40
7.0
  0
CIRCLE
  5
301
  8
1_5__-1
  6
CONTINUOUS
 62
     1
 10
842.1187050000007
 20
978.3403500000131
 30
0.0
 40
5.500000000000455
  0
LINE
  5
302
  8
1_5__-1
  6
CONTINUOUS
 62
     1
 10
824.1187050000007
 20
891.8488652227334
 30
0.0
 11
860.1187050000011
 21
891.8488652227334
 31
0.0
  0
LINE
  5
303
  8
1_5__-1
  6
CONTINUOUS
 62
     1
 10
824.1187050000007
 20
893.8488652227625
 30
0.0
 11
860.1187050000011
 21
893.8488652227625
 31
0.0
  0
LINE
  5
304
  8
1_5__-1
  6
CONTINUOUS
 62
     1
 10
824.1187050000007
 20
893.8488652227625
 30
0.0
 11
824.1187050000007
 21
891.8488652227334
 31
0.0
  0
LINE
  5
305
  8
1_5__-1
  6
CONTINUOUS
 62
     1
 10
860.1187050000011
 20
893.8488652227625
 30
0.0
 11
860.1187050000011
 21
891.8488652227334
 31
0.0
  0
LINE
  5
306
  8
1_5__-1
  6
CONTINUOUS
 62
     1
 10
829.6187050000007
 20
889.8488652227625
 30
0.0
 11
824.1187050000007
 21
891.8488652227334
 31
0.0
  0
LINE
  5
307
  8
1_5__-1
  6
CONTINUOUS
 62
     1
 10
854.6187050000007
 20
889.8488652227625
 30
0.0
 11
860.1187050000011
 21
891.8488652227334
 31
0.0
  0
LINE
  5
308
  8
1_5__-1
  6
CONTINUOUS
 62
     1
 10
835.1187050000011
 20
905.3488652227334
 30
0.0
 11
849.1187050000007
 21
905.3488652227334
 31
0.0
  0
LINE
  5
309
  8
1_5__-1
  6
CONTINUOUS
 62
     1
 10
835.1187050000011
 20
905.3488652227334
 30
0.0
 11
835.1187050000011
 21
893.8488652227625
 31
0.0
  0
LINE
  5
30A
  8
1_5__-1
  6
CONTINUOUS
 62
     1
 10
849.1187050000007
 20
905.3488652227334
 30
0.0
 11
849.1187050000007
 21
893.8488652227625
 31
0.0
  0
LINE
  5
30B
  8
1_5__-1
  6
CONTINUOUS
 62
     1
 10
823.1332550000005
 20
1204.679774999997
 30
0.0
 11
823.1281300000013
 21
1204.679774999997
 31
0.0
  0
LINE
  5
30C
  8
1_5__-1
  6
CONTINUOUS
 62
     1
 10
832.1281300000009
 20
1204.679774999997
 30
0.0
 11
832.1230100000015
 21
1204.679774999997
 31
0.0
  0
LINE
  5
30D
  8
1_5__-1
  6
CONTINUOUS
 62
     1
 10
825.566580000001
 20
1204.679774999997
 30
0.0
 11
825.1948050000009
 21
1204.679774999997
 31
0.0
  0
LINE
  5
30E
  8
1_5__-1
  6
CONTINUOUS
 62
     1
 10
823.12557
 20
1204.679774999997
 30
0.0
 11
825.1948050000009
 21
1204.679774999997
 31
0.0
  0
LINE
  5
30F
  8
1_5__-1
  6
CONTINUOUS
 62
     1
 10
825.566580000001
 20
1204.679774999997
 30
0.0
 11
830.0563350000006
 21
1204.679774999997
 31
0.0
  0
LINE
  5
310
  8
1_5__-1
  6
CONTINUOUS
 62
     1
 10
823.1332550000005
 20
1194.132805000001
 30
0.0
 11
823.1281300000013
 21
1194.132805000001
 31
0.0
  0
LINE
  5
311
  8
1_5__-1
  6
CONTINUOUS
 62
     1
 10
823.8781299999995
 20
1190.679775000026
 30
0.0
 11
831.3781299999995
 21
1190.679775000026
 31
0.0
  0
LINE
  5
312
  8
1_5__-1
  6
CONTINUOUS
 62
     1
 10
832.1281300000009
 20
1194.132805000001
 30
0.0
 11
832.1230100000015
 21
1194.132805000001
 31
0.0
  0
POLYLINE
  5
313
  8
1_5__-1
  6
CONTINUOUS
 62
     1
 66
     1
 10
0.0
 20
0.0
 30
0.0
 70
   128
  0
VERTEX
  5
314
  8
1_5__-1
  6
CONTINUOUS
 62
     1
 10
831.4109283571009
 20
1194.132803671993
 30
0.0
  0
VERTEX
  5
315
  8
1_5__-1
  6
CONTINUOUS
 62
     1
 10
831.401800913707
 20
1194.110719364204
 30
0.0
  0
VERTEX
  5
316
  8
1_5__-1
  6
CONTINUOUS
 62
     1
 10
831.392449186483
 20
1194.088392767126
 30
0.0
  0
VERTEX
  5
317
  8
1_5__-1
  6
CONTINUOUS
 62
     1
 10
831.382873175429
 20
1194.06582388076
 30
0.0
  0
VERTEX
  5
318
  8
1_5__-1
  6
CONTINUOUS
 62
     1
 10
831.373072880545
 20
1194.043012705105
 30
0.0
  0
VERTEX
  5
319
  8
1_5__-1
  6
CONTINUOUS
 62
     1
 10
831.363048301831
 20
1194.019959240161
 30
0.0
  0
VERTEX
  5
31A
  8
1_5__-1
  6
CONTINUOUS
 62
     1
 10
831.352799439287
 20
1193.99666348593
 30
0.0
  0
VERTEX
  5
31B
  8
1_5__-1
  6
CONTINUOUS
 62
     1
 10
831.3423262929128
 20
1193.97312544241
 30
0.0
  0
VERTEX
  5
31C
  8
1_5__-1
  6
CONTINUOUS
 62
     1
 10
831.3316288627088
 20
1193.949345109601
 30
0.0
  0
VERTEX
  5
31D
  8
1_5__-1
  6
CONTINUOUS
 62
     1
 10
831.3207071486747
 20
1193.925322487504
 30
0.0
  0
VERTEX
  5
31E
  8
1_5__-1
  6
CONTINUOUS
 62
     1
 10
831.3095611508106
 20
1193.901057576119
 30
0.0
  0
VERTEX
  5
31F
  8
1_5__-1
  6
CONTINUOUS
 62
     1
 10
831.2981908691165
 20
1193.876550375445
 30
0.0
  0
VERTEX
  5
320
  8
1_5__-1
  6
CONTINUOUS
 62
     1
 10
831.2865963035924
 20
1193.851800885483
 30
0.0
  0
VERTEX
  5
321
  8
1_5__-1
  6
CONTINUOUS
 62
     1
 10
831.2747774542382
 20
1193.826809106232
 30
0.0
  0
VERTEX
  5
322
  8
1_5__-1
  6
CONTINUOUS
 62
     1
 10
831.262734321054
 20
1193.801575037694
 30
0.0
  0
VERTEX
  5
323
  8
1_5__-1
  6
CONTINUOUS
 62
     1
 10
831.2504669040399
 20
1193.776098679866
 30
0.0
  0
VERTEX
  5
324
  8
1_5__-1
  6
CONTINUOUS
 62
     1
 10
831.2379752031957
 20
1193.75038003275
 30
0.0
  0
VERTEX
  5
325
  8
1_5__-1
  6
CONTINUOUS
 62
     1
 10
831.2252592185215
 20
1193.724419096346
 30
0.0
  0
VERTEX
  5
326
  8
1_5__-1
  6
CONTINUOUS
 62
     1
 10
831.2123189500172
 20
1193.698215870653
 30
0.0
  0
VERTEX
  5
327
  8
1_5__-1
  6
CONTINUOUS
 62
     1
 10
831.1991543976831
 20
1193.671770355672
 30
0.0
  0
VERTEX
  5
328
  8
1_5__-1
  6
CONTINUOUS
 62
     1
 10
831.1857655615188
 20
1193.645082551403
 30
0.0
  0
VERTEX
  5
329
  8
1_5__-1
  6
CONTINUOUS
 62
     1
 10
831.1721524415245
 20
1193.618152457845
 30
0.0
  0
VERTEX
  5
32A
  8
1_5__-1
  6
CONTINUOUS
 62
     1
 10
831.1583150377002
 20
1193.590980074998
 30
0.0
  0
VERTEX
  5
32B
  8
1_5__-1
  6
CONTINUOUS
 62
     1
 10
831.1442533500458
 20
1193.563565402863
 30
0.0
  0
VERTEX
  5
32C
  8
1_5__-1
  6
CONTINUOUS
 62
     1
 10
831.1299673785616
 20
1193.53590844144
 30
0.0
  0
VERTEX
  5
32D
  8
1_5__-1
  6
CONTINUOUS
 62
     1
 10
831.1154571232471
 20
1193.508009190729
 30
0.0
  0
VERTEX
  5
32E
  8
1_5__-1
  6
CONTINUOUS
 62
     1
 10
831.1007225841028
 20
1193.479867650728
 30
0.0
  0
VERTEX
  5
32F
  8
1_5__-1
  6
CONTINUOUS
 62
     1
 10
831.0857637611284
 20
1193.45148382144
 30
0.0
  0
VERTEX
  5
330
  8
1_5__-1
  6
CONTINUOUS
 62
     1
 10
831.070580654324
 20
1193.422857702863
 30
0.0
  0
VERTEX
  5
331
  8
1_5__-1
  6
CONTINUOUS
 62
     1
 10
831.0551732636897
 20
1193.393989294998
 30
0.0
  0
VERTEX
  5
332
  8
1_5__-1
  6
CONTINUOUS
 62
     1
 10
831.0395415892252
 20
1193.364878597844
 30
0.0
  0
VERTEX
  5
333
  8
1_5__-1
  6
CONTINUOUS
 62
     1
 10
831.0236856309308
 20
1193.335525611402
 30
0.0
  0
VERTEX
  5
334
  8
1_5__-1
  6
CONTINUOUS
 62
     1
 10
831.0076053888063
 20
1193.305930335671
 30
0.0
  0
VERTEX
  5
335
  8
1_5__-1
  6
CONTINUOUS
 62
     1
 10
830.9913008628519
 20
1193.276092770653
 30
0.0
  0
VERTEX
  5
336
  8
1_5__-1
  6
CONTINUOUS
 62
     1
 10
830.9747720530673
 20
1193.246012916345
 30
0.0
  0
VERTEX
  5
337
  8
1_5__-1
  6
CONTINUOUS
 62
     1
 10
830.9580189594528
 20
1193.215690772749
 30
0.0
  0
VERTEX
  5
338
  8
1_5__-1
  6
CONTINUOUS
 62
     1
 10
830.9410415820084
 20
1193.185126339864
 30
0.0
  0
VERTEX
  5
339
  8
1_5__-1
  6
CONTINUOUS
 62
     1
 10
830.9238399207338
 20
1193.154319617692
 30
0.0
  0
VERTEX
  5
33A
  8
1_5__-1
  6
CONTINUOUS
 62
     1
 10
830.9064139756292
 20
1193.123270606231
 30
0.0
  0
VERTEX
  5
33B
  8
1_5__-1
  6
CONTINUOUS
 62
     1
 10
830.8887637466947
 20
1193.091979305481
 30
0.0
  0
VERTEX
  5
33C
  8
1_5__-1
  6
CONTINUOUS
 62
     1
 10
830.8708892339301
 20
1193.060445715443
 30
0.0
  0
VERTEX
  5
33D
  8
1_5__-1
  6
CONTINUOUS
 62
     1
 10
830.8527904373356
 20
1193.028669836116
 30
0.0
  0
VERTEX
  5
33E
  8
1_5__-1
  6
CONTINUOUS
 62
     1
 10
830.8344673569109
 20
1192.996651667502
 30
0.0
  0
VERTEX
  5
33F
  8
1_5__-1
  6
CONTINUOUS
 62
     1
 10
830.8159199926563
 20
1192.964391209598
 30
0.0
  0
VERTEX
  5
340
  8
1_5__-1
  6
CONTINUOUS
 62
     1
 10
830.7971483445717
 20
1192.931888462407
 30
0.0
  0
VERTEX
  5
341
  8
1_5__-1
  6
CONTINUOUS
 62
     1
 10
830.7781524126569
 20
1192.899143425926
 30
0.0
  0
VERTEX
  5
342
  8
1_5__-1
  6
CONTINUOUS
 62
     1
 10
830.7589321969124
 20
1192.866156100158
 30
0.0
  0
VERTEX
  5
343
  8
1_5__-1
  6
CONTINUOUS
 62
     1
 10
830.7394876973376
 20
1192.832926485101
 30
0.0
  0
VERTEX
  5
344
  8
1_5__-1
  6
CONTINUOUS
 62
     1
 10
830.719818913933
 20
1192.799454580756
 30
0.0
  0
VERTEX
  5
345
  8
1_5__-1
  6
CONTINUOUS
 62
     1
 10
830.6999258466983
 20
1192.765740387122
 30
0.0
  0
VERTEX
  5
346
  8
1_5__-1
  6
CONTINUOUS
 62
     1
 10
830.6798084956336
 20
1192.7317839042
 30
0.0
  0
VERTEX
  5
347
  8
1_5__-1
  6
CONTINUOUS
 62
     1
 10
830.6594668607388
 20
1192.697585131989
 30
0.0
  0
VERTEX
  5
348
  8
1_5__-1
  6
CONTINUOUS
 62
     1
 10
830.638900942014
 20
1192.66314407049
 30
0.0
  0
VERTEX
  5
349
  8
1_5__-1
  6
CONTINUOUS
 62
     1
 10
830.6181107394592
 20
1192.628460719703
 30
0.0
  0
VERTEX
  5
34A
  8
1_5__-1
  6
CONTINUOUS
 62
     1
 10
830.5970962530744
 20
1192.593535079627
 30
0.0
  0
VERTEX
  5
34B
  8
1_5__-1
  6
CONTINUOUS
 62
     1
 10
830.5758574828596
 20
1192.558367150262
 30
0.0
  0
VERTEX
  5
34C
  8
1_5__-1
  6
CONTINUOUS
 62
     1
 10
830.5543944288147
 20
1192.52295693161
 30
0.0
  0
VERTEX
  5
34D
  8
1_5__-1
  6
CONTINUOUS
 62
     1
 10
830.5327070909399
 20
1192.487304423669
 30
0.0
  0
VERTEX
  5
34E
  8
1_5__-1
  6
CONTINUOUS
 62
     1
 10
830.5107954692351
 20
1192.451409626439
 30
0.0
  0
VERTEX
  5
34F
  8
1_5__-1
  6
CONTINUOUS
 62
     1
 10
830.4886595637001
 20
1192.415272539921
 30
0.0
  0
VERTEX
  5
350
  8
1_5__-1
  6
CONTINUOUS
 62
     1
 10
830.4662993743352
 20
1192.378893164114
 30
0.0
  0
VERTEX
  5
351
  8
1_5__-1
  6
CONTINUOUS
 62
     1
 10
830.4437149011403
 20
1192.34227149902
 30
0.0
  0
VERTEX
  5
352
  8
1_5__-1
  6
CONTINUOUS
 62
     1
 10
830.4209061441154
 20
1192.305407544637
 30
0.0
  0
VERTEX
  5
353
  8
1_5__-1
  6
CONTINUOUS
 62
     1
 10
830.3978731032605
 20
1192.268301300965
 30
0.0
  0
VERTEX
  5
354
  8
1_5__-1
  6
CONTINUOUS
 62
     1
 10
830.3746157785755
 20
1192.230952768004
 30
0.0
  0
VERTEX
  5
355
  8
1_5__-1
  6
CONTINUOUS
 62
     1
 10
830.3512454334872
 20
1192.194068318223
 30
0.0
  0
VERTEX
  5
356
  8
1_5__-1
  6
CONTINUOUS
 62
     1
 10
830.3278733314223
 20
1192.158354324088
 30
0.0
  0
VERTEX
  5
357
  8
1_5__-1
  6
CONTINUOUS
 62
     1
 10
830.3044994723807
 20
1192.123810785598
 30
0.0
  0
VERTEX
  5
358
  8
1_5__-1
  6
CONTINUOUS
 62
     1
 10
830.2811238563626
 20
1192.090437702755
 30
0.0
  0
VERTEX
  5
359
  8
1_5__-1
  6
CONTINUOUS
 62
     1
 10
830.2577464833678
 20
1192.058235075557
 30
0.0
  0
VERTEX
  5
35A
  8
1_5__-1
  6
CONTINUOUS
 62
     1
 10
830.2343673533964
 20
1192.027202904006
 30
0.0
  0
VERTEX
  5
35B
  8
1_5__-1
  6
CONTINUOUS
 62
     1
 10
830.2109864664483
 20
1191.9973411881
 30
0.0
  0
VERTEX
  5
35C
  8
1_5__-1
  6
CONTINUOUS
 62
     1
 10
830.1876038225237
 20
1191.968649927841
 30
0.0
  0
VERTEX
  5
35D
  8
1_5__-1
  6
CONTINUOUS
 62
     1
 10
830.1642194216223
 20
1191.941129123228
 30
0.0
  0
VERTEX
  5
35E
  8
1_5__-1
  6
CONTINUOUS
 62
     1
 10
830.1408332637443
 20
1191.91477877426
 30
0.0
  0
VERTEX
  5
35F
  8
1_5__-1
  6
CONTINUOUS
 62
     1
 10
830.1174453488898
 20
1191.889598880938
 30
0.0
  0
VERTEX
  5
360
  8
1_5__-1
  6
CONTINUOUS
 62
     1
 10
830.0940556770586
 20
1191.865589443263
 30
0.0
  0
VERTEX
  5
361
  8
1_5__-1
  6
CONTINUOUS
 62
     1
 10
830.0706642482508
 20
1191.842750461233
 30
0.0
  0
VERTEX
  5
362
  8
1_5__-1
  6
CONTINUOUS
 62
     1
 10
830.0472710624663
 20
1191.821081934849
 30
0.0
  0
VERTEX
  5
363
  8
1_5__-1
  6
CONTINUOUS
 62
     1
 10
830.0238761197052
 20
1191.800583864112
 30
0.0
  0
VERTEX
  5
364
  8
1_5__-1
  6
CONTINUOUS
 62
     1
 10
830.0004794199674
 20
1191.78125624902
 30
0.0
  0
VERTEX
  5
365
  8
1_5__-1
  6
CONTINUOUS
 62
     1
 10
829.977080963253
 20
1191.763099089574
 30
0.0
  0
VERTEX
  5
366
  8
1_5__-1
  6
CONTINUOUS
 62
     1
 10
829.953680749562
 20
1191.746112385774
 30
0.0
  0
VERTEX
  5
367
  8
1_5__-1
  6
CONTINUOUS
 62
     1
 10
829.9302787788944
 20
1191.73029613762
 30
0.0
  0
VERTEX
  5
368
  8
1_5__-1
  6
CONTINUOUS
 62
     1
 10
829.9068750512502
 20
1191.715650345113
 30
0.0
  0
VERTEX
  5
369
  8
1_5__-1
  6
CONTINUOUS
 62
     1
 10
829.8834695666293
 20
1191.702175008251
 30
0.0
  0
VERTEX
  5
36A
  8
1_5__-1
  6
CONTINUOUS
 62
     1
 10
829.8600623250318
 20
1191.689870127035
 30
0.0
  0
VERTEX
  5
36B
  8
1_5__-1
  6
CONTINUOUS
 62
     1
 10
829.8366533264576
 20
1191.678735701465
 30
0.0
  0
VERTEX
  5
36C
  8
1_5__-1
  6
CONTINUOUS
 62
     1
 10
829.8132425709068
 20
1191.668771731541
 30
0.0
  0
VERTEX
  5
36D
  8
1_5__-1
  6
CONTINUOUS
 62
     1
 10
829.7898300583794
 20
1191.659978217263
 30
0.0
  0
VERTEX
  5
36E
  8
1_5__-1
  6
CONTINUOUS
 62
     1
 10
829.7664157888754
 20
1191.652355158631
 30
0.0
  0
VERTEX
  5
36F
  8
1_5__-1
  6
CONTINUOUS
 62
     1
 10
829.7429997623947
 20
1191.645902555646
 30
0.0
  0
VERTEX
  5
370
  8
1_5__-1
  6
CONTINUOUS
 62
     1
 10
829.7195819789374
 20
1191.640620408305
 30
0.0
  0
VERTEX
  5
371
  8
1_5__-1
  6
CONTINUOUS
 62
     1
 10
829.6961624385035
 20
1191.636508716611
 30
0.0
  0
VERTEX
  5
372
  8
1_5__-1
  6
CONTINUOUS
 62
     1
 10
829.672741141093
 20
1191.633567480563
 30
0.0
  0
VERTEX
  5
373
  8
1_5__-1
  6
CONTINUOUS
 62
     1
 10
829.6493180867058
 20
1191.631796700161
 30
0.0
  0
VERTEX
  5
374
  8
1_5__-1
  6
CONTINUOUS
 62
     1
 10
829.6258932753419
 20
1191.631196375405
 30
0.0
  0
VERTEX
  5
375
  8
1_5__-1
  6
CONTINUOUS
 62
     1
 10
829.6024667070014
 20
1191.631766506295
 30
0.0
  0
VERTEX
  5
376
  8
1_5__-1
  6
CONTINUOUS
 62
     1
 10
829.5790383816844
 20
1191.633507092831
 30
0.0
  0
VERTEX
  5
377
  8
1_5__-1
  6
CONTINUOUS
 62
     1
 10
829.5556082993907
 20
1191.636418135012
 30
0.0
  0
VERTEX
  5
378
  8
1_5__-1
  6
CONTINUOUS
 62
     1
 10
829.5321764601204
 20
1191.640499632841
 30
0.0
  0
VERTEX
  5
379
  8
1_5__-1
  6
CONTINUOUS
 62
     1
 10
829.5087428638734
 20
1191.645751586314
 30
0.0
  0
VERTEX
  5
37A
  8
1_5__-1
  6
CONTINUOUS
 62
     1
 10
829.4853075106498
 20
1191.652173995434
 30
0.0
  0
VERTEX
  5
37B
  8
1_5__-1
  6
CONTINUOUS
 62
     1
 10
829.4618704004496
 20
1191.659766860199
 30
0.0
  0
VERTEX
  5
37C
  8
1_5__-1
  6
CONTINUOUS
 62
     1
 10
829.4384315332727
 20
1191.668530180611
 30
0.0
  0
VERTEX
  5
37D
  8
1_5__-1
  6
CONTINUOUS
 62
     1
 10
829.4149909091192
 20
1191.678463956669
 30
0.0
  0
VERTEX
  5
37E
  8
1_5__-1
  6
CONTINUOUS
 62
     1
 10
829.3915485279891
 20
1191.689568188373
 30
0.0
  0
VERTEX
  5
37F
  8
1_5__-1
  6
CONTINUOUS
 62
     1
 10
829.3681043898823
 20
1191.701842875722
 30
0.0
  0
VERTEX
  5
380
  8
1_5__-1
  6
CONTINUOUS
 62
     1
 10
829.344658494799
 20
1191.715288018718
 30
0.0
  0
VERTEX
  5
381
  8
1_5__-1
  6
CONTINUOUS
 62
     1
 10
829.321210842739
 20
1191.729903617359
 30
0.0
  0
VERTEX
  5
382
  8
1_5__-1
  6
CONTINUOUS
 62
     1
 10
829.2977614337024
 20
1191.745689671647
 30
0.0
  0
VERTEX
  5
383
  8
1_5__-1
  6
CONTINUOUS
 62
     1
 10
829.2743102676891
 20
1191.762646181581
 30
0.0
  0
VERTEX
  5
384
  8
1_5__-1
  6
CONTINUOUS
 62
     1
 10
829.2508573446992
 20
1191.78077314716
 30
0.0
  0
VERTEX
  5
385
  8
1_5__-1
  6
CONTINUOUS
 62
     1
 10
829.2274026647326
 20
1191.800070568386
 30
0.0
  0
VERTEX
  5
386
  8
1_5__-1
  6
CONTINUOUS
 62
     1
 10
829.2039462277894
 20
1191.820538445257
 30
0.0
  0
VERTEX
  5
387
  8
1_5__-1
  6
CONTINUOUS
 62
     1
 10
829.1804880338697
 20
1191.842176777775
 30
0.0
  0
VERTEX
  5
388
  8
1_5__-1
  6
CONTINUOUS
 62
     1
 10
829.1570280829733
 20
1191.864985565938
 30
0.0
  0
VERTEX
  5
389
  8
1_5__-1
  6
CONTINUOUS
 62
     1
 10
829.1335663751001
 20
1191.888964809748
 30
0.0
  0
VERTEX
  5
38A
  8
1_5__-1
  6
CONTINUOUS
 62
     1
 10
829.1101029102505
 20
1191.914114509203
 30
0.0
  0
VERTEX
  5
38B
  8
1_5__-1
  6
CONTINUOUS
 62
     1
 10
829.0866376884242
 20
1191.940434664304
 30
0.0
  0
VERTEX
  5
38C
  8
1_5__-1
  6
CONTINUOUS
 62
     1
 10
829.0631707096213
 20
1191.967925275052
 30
0.0
  0
VERTEX
  5
38D
  8
1_5__-1
  6
CONTINUOUS
 62
     1
 10
829.0397019738417
 20
1191.996586341445
 30
0.0
  0
VERTEX
  5
38E
  8
1_5__-1
  6
CONTINUOUS
 62
     1
 10
829.0162314810855
 20
1192.026417863484
 30
0.0
  0
VERTEX
  5
38F
  8
1_5__-1
  6
CONTINUOUS
 62
     1
 10
828.9927592313527
 20
1192.057419841169
 30
0.0
  0
VERTEX
  5
390
  8
1_5__-1
  6
CONTINUOUS
 62
     1
 10
828.9692852246432
 20
1192.089592274501
 30
0.0
  0
VERTEX
  5
391
  8
1_5__-1
  6
CONTINUOUS
 62
     1
 10
828.9458094609571
 20
1192.122935163478
 30
0.0
  0
VERTEX
  5
392
  8
1_5__-1
  6
CONTINUOUS
 62
     1
 10
828.9223319402944
 20
1192.157448508101
 30
0.0
  0
VERTEX
  5
393
  8
1_5__-1
  6
CONTINUOUS
 62
     1
 10
828.898852662655
 20
1192.19313230837
 30
0.0
  0
VERTEX
  5
394
  8
1_5__-1
  6
CONTINUOUS
 62
     1
 10
828.875371628039
 20
1192.229986564285
 30
0.0
  0
VERTEX
  5
395
  8
1_5__-1
  6
CONTINUOUS
 62
     1
 10
828.8520038958316
 20
1192.267305611048
 30
0.0
  0
VERTEX
  5
396
  8
1_5__-1
  6
CONTINUOUS
 62
     1
 10
828.8288645254179
 20
1192.30438378386
 30
0.0
  0
VERTEX
  5
397
  8
1_5__-1
  6
CONTINUOUS
 62
     1
 10
828.8059535167977
 20
1192.34122108272
 30
0.0
  0
VERTEX
  5
398
  8
1_5__-1
  6
CONTINUOUS
 62
     1
 10
828.7832708699714
 20
1192.37781750763
 30
0.0
  0
VERTEX
  5
399
  8
1_5__-1
  6
CONTINUOUS
 62
     1
 10
828.7608165849385
 20
1192.414173058589
 30
0.0
  0
VERTEX
  5
39A
  8
1_5__-1
  6
CONTINUOUS
 62
     1
 10
828.7385906616996
 20
1192.450287735597
 30
0.0
  0
VERTEX
  5
39B
  8
1_5__-1
  6
CONTINUOUS
 62
     1
 10
828.7165931002542
 20
1192.486161538654
 30
0.0
  0
VERTEX
  5
39C
  8
1_5__-1
  6
CONTINUOUS
 62
     1
 10
828.6948239006026
 20
1192.52179446776
 30
0.0
  0
VERTEX
  5
39D
  8
1_5__-1
  6
CONTINUOUS
 62
     1
 10
828.6732830627445
 20
1192.557186522915
 30
0.0
  0
VERTEX
  5
39E
  8
1_5__-1
  6
CONTINUOUS
 62
     1
 10
828.6519705866802
 20
1192.592337704119
 30
0.0
  0
VERTEX
  5
39F
  8
1_5__-1
  6
CONTINUOUS
 62
     1
 10
828.6308864724097
 20
1192.627248011373
 30
0.0
  0
VERTEX
  5
3A0
  8
1_5__-1
  6
CONTINUOUS
 62
     1
 10
828.6100307199328
 20
1192.661917444675
 30
0.0
  0
VERTEX
  5
3A1
  8
1_5__-1
  6
CONTINUOUS
 62
     1
 10
828.5894033292495
 20
1192.696346004027
 30
0.0
  0
VERTEX
  5
3A2
  8
1_5__-1
  6
CONTINUOUS
 62
     1
 10
828.5690043003599
 20
1192.730533689427
 30
0.0
  0
VERTEX
  5
3A3
  8
1_5__-1
  6
CONTINUOUS
 62
     1
 10
828.548833633264
 20
1192.764480500876
 30
0.0
  0
VERTEX
  5
3A4
  8
1_5__-1
  6
CONTINUOUS
 62
     1
 10
828.5288913279619
 20
1192.798186438375
 30
0.0
  0
VERTEX
  5
3A5
  8
1_5__-1
  6
CONTINUOUS
 62
     1
 10
828.5091773844533
 20
1192.831651501922
 30
0.0
  0
VERTEX
  5
3A6
  8
1_5__-1
  6
CONTINUOUS
 62
     1
 10
828.4896918027384
 20
1192.864875691519
 30
0.0
  0
VERTEX
  5
3A7
  8
1_5__-1
  6
CONTINUOUS
 62
     1
 10
828.4704345828173
 20
1192.897859007164
 30
0.0
  0
VERTEX
  5
3A8
  8
1_5__-1
  6
CONTINUOUS
 62
     1
 10
828.45140572469
 20
1192.930601448859
 30
0.0
  0
VERTEX
  5
3A9
  8
1_5__-1
  6
CONTINUOUS
 62
     1
 10
828.4326052283561
 20
1192.963103016603
 30
0.0
  0
VERTEX
  5
3AA
  8
1_5__-1
  6
CONTINUOUS
 62
     1
 10
828.414033093816
 20
1192.995363710396
 30
0.0
  0
VERTEX
  5
3AB
  8
1_5__-1
  6
CONTINUOUS
 62
     1
 10
828.3956893210697
 20
1193.027383530238
 30
0.0
  0
VERTEX
  5
3AC
  8
1_5__-1
  6
CONTINUOUS
 62
     1
 10
828.377573910117
 20
1193.059162476129
 30
0.0
  0
VERTEX
  5
3AD
  8
1_5__-1
  6
CONTINUOUS
 62
     1
 10
828.3596868609579
 20
1193.090700548069
 30
0.0
  0
VERTEX
  5
3AE
  8
1_5__-1
  6
CONTINUOUS
 62
     1
 10
828.3420281735926
 20
1193.121997746057
 30
0.0
  0
VERTEX
  5
3AF
  8
1_5__-1
  6
CONTINUOUS
 62
     1
 10
828.3245978480209
 20
1193.153054070096
 30
0.0
  0
VERTEX
  5
3B0
  8
1_5__-1
  6
CONTINUOUS
 62
     1
 10
828.307395884243
 20
1193.183869520183
 30
0.0
  0
VERTEX
  5
3B1
  8
1_5__-1
  6
CONTINUOUS
 62
     1
 10
828.2904222822586
 20
1193.214444096319
 30
0.0
  0
VERTEX
  5
3B2
  8
1_5__-1
  6
CONTINUOUS
 62
     1
 10
828.273677042068
 20
1193.244777798504
 30
0.0
  0
VERTEX
  5
3B3
  8
1_5__-1
  6
CONTINUOUS
 62
     1
 10
828.2571601636712
 20
1193.274870626739
 30
0.0
  0
VERTEX
  5
3B4
  8
1_5__-1
  6
CONTINUOUS
 62
     1
 10
828.2408716470679
 20
1193.304722581022
 30
0.0
  0
VERTEX
  5
3B5
  8
1_5__-1
  6
CONTINUOUS
 62
     1
 10
828.2248114922584
 20
1193.334333661355
 30
0.0
  0
VERTEX
  5
3B6
  8
1_5__-1
  6
CONTINUOUS
 62
     1
 10
828.2089796992425
 20
1193.363703867736
 30
0.0
  0
VERTEX
  5
3B7
  8
1_5__-1
  6
CONTINUOUS
 62
     1
 10
828.1933762680203
 20
1193.392833200166
 30
0.0
  0
VERTEX
  5
3B8
  8
1_5__-1
  6
CONTINUOUS
 62
     1
 10
828.1780011985918
 20
1193.421721658646
 30
0.0
  0
VERTEX
  5
3B9
  8
1_5__-1
  6
CONTINUOUS
 62
     1
 10
828.162854490957
 20
1193.450369243175
 30
0.0
  0
VERTEX
  5
3BA
  8
1_5__-1
  6
CONTINUOUS
 62
     1
 10
828.1479361451159
 20
1193.478775953753
 30
0.0
  0
VERTEX
  5
3BB
  8
1_5__-1
  6
CONTINUOUS
 62
     1
 10
828.1332461610684
 20
1193.50694179038
 30
0.0
  0
VERTEX
  5
3BC
  8
1_5__-1
  6
CONTINUOUS
 62
     1
 10
828.1187845388146
 20
1193.534866753056
 30
0.0
  0
VERTEX
  5
3BD
  8
1_5__-1
  6
CONTINUOUS
 62
     1
 10
828.1045512783545
 20
1193.562550841781
 30
0.0
  0
VERTEX
  5
3BE
  8
1_5__-1
  6
CONTINUOUS
 62
     1
 10
828.0905463796881
 20
1193.589994056555
 30
0.0
  0
VERTEX
  5
3BF
  8
1_5__-1
  6
CONTINUOUS
 62
     1
 10
828.0767698428153
 20
1193.617196397378
 30
0.0
  0
VERTEX
  5
3C0
  8
1_5__-1
  6
CONTINUOUS
 62
     1
 10
828.0632216677363
 20
1193.64415786425
 30
0.0
  0
VERTEX
  5
3C1
  8
1_5__-1
  6
CONTINUOUS
 62
     1
 10
828.049901854451
 20
1193.670878457171
 30
0.0
  0
VERTEX
  5
3C2
  8
1_5__-1
  6
CONTINUOUS
 62
     1
 10
828.0368104029594
 20
1193.697358176141
 30
0.0
  0
VERTEX
  5
3C3
  8
1_5__-1
  6
CONTINUOUS
 62
     1
 10
828.0239473132614
 20
1193.72359702116
 30
0.0
  0
VERTEX
  5
3C4
  8
1_5__-1
  6
CONTINUOUS
 62
     1
 10
828.011312585357
 20
1193.749594992229
 30
0.0
  0
VERTEX
  5
3C5
  8
1_5__-1
  6
CONTINUOUS
 62
     1
 10
827.9989062192465
 20
1193.775352089346
 30
0.0
  0
VERTEX
  5
3C6
  8
1_5__-1
  6
CONTINUOUS
 62
     1
 10
827.9867282149296
 20
1193.800868312513
 30
0.0
  0
VERTEX
  5
3C7
  8
1_5__-1
  6
CONTINUOUS
 62
     1
 10
827.9747785724063
 20
1193.826143661728
 30
0.0
  0
VERTEX
  5
3C8
  8
1_5__-1
  6
CONTINUOUS
 62
     1
 10
827.9630572916767
 20
1193.851178136993
 30
0.0
  0
VERTEX
  5
3C9
  8
1_5__-1
  6
CONTINUOUS
 62
     1
 10
827.9515643727409
 20
1193.875971738306
 30
0.0
  0
VERTEX
  5
3CA
  8
1_5__-1
  6
CONTINUOUS
 62
     1
 10
827.9402998155988
 20
1193.900524465669
 30
0.0
  0
VERTEX
  5
3CB
  8
1_5__-1
  6
CONTINUOUS
 62
     1
 10
827.9292636202503
 20
1193.92483631908
 30
0.0
  0
VERTEX
  5
3CC
  8
1_5__-1
  6
CONTINUOUS
 62
     1
 10
827.9184557866954
 20
1193.948907298541
 30
0.0
  0
VERTEX
  5
3CD
  8
1_5__-1
  6
CONTINUOUS
 62
     1
 10
827.9078763149342
 20
1193.972737404051
 30
0.0
  0
VERTEX
  5
3CE
  8
1_5__-1
  6
CONTINUOUS
 62
     1
 10
827.8975252049668
 20
1193.996326635609
 30
0.0
  0
VERTEX
  5
3CF
  8
1_5__-1
  6
CONTINUOUS
 62
     1
 10
827.8874024567931
 20
1194.019674993217
 30
0.0
  0
VERTEX
  5
3D0
  8
1_5__-1
  6
CONTINUOUS
 62
     1
 10
827.877508070413
 20
1194.042782476874
 30
0.0
  0
VERTEX
  5
3D1
  8
1_5__-1
  6
CONTINUOUS
 62
     1
 10
827.8678420458266
 20
1194.065649086581
 30
0.0
  0
VERTEX
  5
3D2
  8
1_5__-1
  6
CONTINUOUS
 62
     1
 10
827.8584043830339
 20
1194.088274822336
 30
0.0
  0
VERTEX
  5
3D3
  8
1_5__-1
  6
CONTINUOUS
 62
     1
 10
827.8491950820348
 20
1194.11065968414
 30
0.0
  0
VERTEX
  5
3D4
  8
1_5__-1
  6
CONTINUOUS
 62
     1
 10
827.8402141428295
 20
1194.132803671993
 30
0.0
  0
VERTEX
  5
3D5
  8
1_5__-1
  6
CONTINUOUS
 62
     1
 10
827.8402141428295
 20
1194.132803671993
 30
0.0
  0
SEQEND
  5
3D6
  8
1_5__-1
  6
CONTINUOUS
 62
     1
  0
POLYLINE
  5
3D7
  8
1_5__-1
  6
CONTINUOUS
 62
     1
 66
     1
 10
0.0
 20
0.0
 30
0.0
 70
   128
  0
VERTEX
  5
3D8
  8
1_5__-1
  6
CONTINUOUS
 62
     1
 10
827.4109283571
 20
1194.132803671993
 30
0.0
  0
VERTEX
  5
3D9
  8
1_5__-1
  6
CONTINUOUS
 62
     1
 10
827.4018433132559
 20
1194.110703115511
 30
0.0
  0
VERTEX
  5
3DA
  8
1_5__-1
  6
CONTINUOUS
 62
     1
 10
827.3925327636018
 20
1194.088360580256
 30
0.0
  0
VERTEX
  5
3DB
  8
1_5__-1
  6
CONTINUOUS
 62
     1
 10
827.3829967081377
 20
1194.065776066228
 30
0.0
  0
VERTEX
  5
3DC
  8
1_5__-1
  6
CONTINUOUS
 62
     1
 10
827.3732351468636
 20
1194.042949573429
 30
0.0
  0
VERTEX
  5
3DD
  8
1_5__-1
  6
CONTINUOUS
 62
     1
 10
827.3632480797797
 20
1194.019881101858
 30
0.0
  0
VERTEX
  5
3DE
  8
1_5__-1
  6
CONTINUOUS
 62
     1
 10
827.3530355068858
 20
1193.996570651514
 30
0.0
  0
VERTEX
  5
3DF
  8
1_5__-1
  6
CONTINUOUS
 62
     1
 10
827.342597428182
 20
1193.973018222397
 30
0.0
  0
VERTEX
  5
3E0
  8
1_5__-1
  6
CONTINUOUS
 62
     1
 10
827.3319338436681
 20
1193.949223814509
 30
0.0
  0
VERTEX
  5
3E1
  8
1_5__-1
  6
CONTINUOUS
 62
     1
 10
827.3210447533444
 20
1193.925187427848
 30
0.0
  0
VERTEX
  5
3E2
  8
1_5__-1
  6
CONTINUOUS
 62
     1
 10
827.3099301572107
 20
1193.900909062414
 30
0.0
  0
VERTEX
  5
3E3
  8
1_5__-1
  6
CONTINUOUS
 62
     1
 10
827.298590055267
 20
1193.876388718209
 30
0.0
  0
VERTEX
  5
3E4
  8
1_5__-1
  6
CONTINUOUS
 62
     1
 10
827.2870244475134
 20
1193.851626395231
 30
0.0
  0
VERTEX
  5
3E5
  8
1_5__-1
  6
CONTINUOUS
 62
     1
 10
827.2752333339499
 20
1193.826622093481
 30
0.0
  0
VERTEX
  5
3E6
  8
1_5__-1
  6
CONTINUOUS
 62
     1
 10
827.2632167145764
 20
1193.801375812959
 30
0.0
  0
VERTEX
  5
3E7
  8
1_5__-1
  6
CONTINUOUS
 62
     1
 10
827.2509745893929
 20
1193.775887553664
 30
0.0
  0
VERTEX
  5
3E8
  8
1_5__-1
  6
CONTINUOUS
 62
     1
 10
827.2385069583995
 20
1193.750157315597
 30
0.0
  0
VERTEX
  5
3E9
  8
1_5__-1
  6
CONTINUOUS
 62
     1
 10
827.2258138215961
 20
1193.724185098758
 30
0.0
  0
VERTEX
  5
3EA
  8
1_5__-1
  6
CONTINUOUS
 62
     1
 10
827.2128951789828
 20
1193.697970903146
 30
0.0
  0
VERTEX
  5
3EB
  8
1_5__-1
  6
CONTINUOUS
 62
     1
 10
827.1997510305596
 20
1193.671514728762
 30
0.0
  0
VERTEX
  5
3EC
  8
1_5__-1
  6
CONTINUOUS
 62
     1
 10
827.1863813763264
 20
1193.644816575606
 30
0.0
  0
VERTEX
  5
3ED
  8
1_5__-1
  6
CONTINUOUS
 62
     1
 10
827.1727862162832
 20
1193.617876443678
 30
0.0
  0
VERTEX
  5
3EE
  8
1_5__-1
  6
CONTINUOUS
 62
     1
 10
827.15896555043
 20
1193.590694332977
 30
0.0
  0
VERTEX
  5
3EF
  8
1_5__-1
  6
CONTINUOUS
 62
     1
 10
827.144919378767
 20
1193.563270243504
 30
0.0
  0
VERTEX
  5
3F0
  8
1_5__-1
  6
CONTINUOUS
 62
     1
 10
827.130647701294
 20
1193.535604175258
 30
0.0
  0
VERTEX
  5
3F1
  8
1_5__-1
  6
CONTINUOUS
 62
     1
 10
827.1161505180111
 20
1193.507696128241
 30
0.0
  0
VERTEX
  5
3F2
  8
1_5__-1
  6
CONTINUOUS
 62
     1
 10
827.1014278289181
 20
1193.479546102451
 30
0.0
  0
VERTEX
  5
3F3
  8
1_5__-1
  6
CONTINUOUS
 62
     1
 10
827.0864796340153
 20
1193.451154097889
 30
0.0
  0
VERTEX
  5
3F4
  8
1_5__-1
  6
CONTINUOUS
 62
     1
 10
827.0713059333025
 20
1193.422520114554
 30
0.0
  0
VERTEX
  5
3F5
  8
1_5__-1
  6
CONTINUOUS
 62
     1
 10
827.0559067267798
 20
1193.393644152447
 30
0.0
  0
VERTEX
  5
3F6
  8
1_5__-1
  6
CONTINUOUS
 62
     1
 10
827.040282014447
 20
1193.364526211568
 30
0.0
  0
VERTEX
  5
3F7
  8
1_5__-1
  6
CONTINUOUS
 62
     1
 10
827.0244317963043
 20
1193.335166291917
 30
0.0
  0
VERTEX
  5
3F8
  8
1_5__-1
  6
CONTINUOUS
 62
     1
 10
827.0083560723517
 20
1193.305564393493
 30
0.0
  0
VERTEX
  5
3F9
  8
1_5__-1
  6
CONTINUOUS
 62
     1
 10
826.9920548425891
 20
1193.275720516297
 30
0.0
  0
VERTEX
  5
3FA
  8
1_5__-1
  6
CONTINUOUS
 62
     1
 10
826.9755281070167
 20
1193.245634660329
 30
0.0
  0
VERTEX
  5
3FB
  8
1_5__-1
  6
CONTINUOUS
 62
     1
 10
826.9587758656342
 20
1193.215306825588
 30
0.0
  0
VERTEX
  5
3FC
  8
1_5__-1
  6
CONTINUOUS
 62
     1
 10
826.9417981184417
 20
1193.184737012075
 30
0.0
  0
VERTEX
  5
3FD
  8
1_5__-1
  6
CONTINUOUS
 62
     1
 10
826.9245948654394
 20
1193.15392521979
 30
0.0
  0
VERTEX
  5
3FE
  8
1_5__-1
  6
CONTINUOUS
 62
     1
 10
826.9071661066271
 20
1193.122871448733
 30
0.0
  0
VERTEX
  5
3FF
  8
1_5__-1
  6
CONTINUOUS
 62
     1
 10
826.8895118420048
 20
1193.091575698903
 30
0.0
  0
VERTEX
  5
400
  8
1_5__-1
  6
CONTINUOUS
 62
     1
 10
826.8716320715725
 20
1193.060037970301
 30
0.0
  0
VERTEX
  5
401
  8
1_5__-1
  6
CONTINUOUS
 62
     1
 10
826.8535267953305
 20
1193.028258262927
 30
0.0
  0
VERTEX
  5
402
  8
1_5__-1
  6
CONTINUOUS
 62
     1
 10
826.8351960132784
 20
1192.99623657678
 30
0.0
  0
VERTEX
  5
403
  8
1_5__-1
  6
CONTINUOUS
 62
     1
 10
826.8166397254163
 20
1192.963972911861
 30
0.0
  0
VERTEX
  5
404
  8
1_5__-1
  6
CONTINUOUS
 62
     1
 10
826.7978579317443
 20
1192.93146726817
 30
0.0
  0
VERTEX
  5
405
  8
1_5__-1
  6
CONTINUOUS
 62
     1
 10
826.7788506322623
 20
1192.898719645706
 30
0.0
  0
VERTEX
  5
406
  8
1_5__-1
  6
CONTINUOUS
 62
     1
 10
826.7596178269704
 20
1192.865730044471
 30
0.0
  0
VERTEX
  5
407
  8
1_5__-1
  6
CONTINUOUS
 62
     1
 10
826.7401595158685
 20
1192.832498464462
 30
0.0
  0
VERTEX
  5
408
  8
1_5__-1
  6
CONTINUOUS
 62
     1
 10
826.7204756989568
 20
1192.799024905682
 30
0.0
  0
VERTEX
  5
409
  8
1_5__-1
  6
CONTINUOUS
 62
     1
 10
826.700566376235
 20
1192.765309368129
 30
0.0
  0
VERTEX
  5
40A
  8
1_5__-1
  6
CONTINUOUS
 62
     1
 10
826.6804315477033
 20
1192.731351851804
 30
0.0
  0
VERTEX
  5
40B
  8
1_5__-1
  6
CONTINUOUS
 62
     1
 10
826.6600712133616
 20
1192.697152356707
 30
0.0
  0
VERTEX
  5
40C
  8
1_5__-1
  6
CONTINUOUS
 62
     1
 10
826.6394853732099
 20
1192.662710882837
 30
0.0
  0
VERTEX
  5
40D
  8
1_5__-1
  6
CONTINUOUS
 62
     1
 10
826.6186740272485
 20
1192.628027430196
 30
0.0
  0
VERTEX
  5
40E
  8
1_5__-1
  6
CONTINUOUS
 62
     1
 10
826.597637175477
 20
1192.593101998782
 30
0.0
  0
VERTEX
  5
40F
  8
1_5__-1
  6
CONTINUOUS
 62
     1
 10
826.5763748178955
 20
1192.557934588595
 30
0.0
  0
VERTEX
  5
410
  8
1_5__-1
  6
CONTINUOUS
 62
     1
 10
826.554886954504
 20
1192.522525199636
 30
0.0
  0
VERTEX
  5
411
  8
1_5__-1
  6
CONTINUOUS
 62
     1
 10
826.5331735853026
 20
1192.486873831905
 30
0.0
  0
VERTEX
  5
412
  8
1_5__-1
  6
CONTINUOUS
 62
     1
 10
826.5112347102913
 20
1192.450980485402
 30
0.0
  0
VERTEX
  5
413
  8
1_5__-1
  6
CONTINUOUS
 62
     1
 10
826.4890703294701
 20
1192.414845160126
 30
0.0
  0
VERTEX
  5
414
  8
1_5__-1
  6
CONTINUOUS
 62
     1
 10
826.4666804428389
 20
1192.378467856078
 30
0.0
  0
VERTEX
  5
415
  8
1_5__-1
  6
CONTINUOUS
 62
     1
 10
826.4440650503977
 20
1192.341848573258
 30
0.0
  0
VERTEX
  5
416
  8
1_5__-1
  6
CONTINUOUS
 62
     1
 10
826.4212241521466
 20
1192.304987311666
 30
0.0
  0
VERTEX
  5
417
  8
1_5__-1
  6
CONTINUOUS
 62
     1
 10
826.3981577480855
 20
1192.267884071301
 30
0.0
  0
VERTEX
  5
418
  8
1_5__-1
  6
CONTINUOUS
 62
     1
 10
826.3748658382145
 20
1192.230538852164
 30
0.0
  0
VERTEX
  5
419
  8
1_5__-1
  6
CONTINUOUS
 62
     1
 10
826.3514608951542
 20
1192.193657973415
 30
0.0
  0
VERTEX
  5
41A
  8
1_5__-1
  6
CONTINUOUS
 62
     1
 10
826.3280553915251
 20
1192.157947754215
 30
0.0
  0
VERTEX
  5
41B
  8
1_5__-1
  6
CONTINUOUS
 62
     1
 10
826.3046493273275
 20
1192.123408194564
 30
0.0
  0
VERTEX
  5
41C
  8
1_5__-1
  6
CONTINUOUS
 62
     1
 10
826.281242702561
 20
1192.090039294464
 30
0.0
  0
VERTEX
  5
41D
  8
1_5__-1
  6
CONTINUOUS
 62
     1
 10
826.2578355172259
 20
1192.057841053911
 30
0.0
  0
VERTEX
  5
41E
  8
1_5__-1
  6
CONTINUOUS
 62
     1
 10
826.2344277713221
 20
1192.026813472909
 30
0.0
  0
VERTEX
  5
41F
  8
1_5__-1
  6
CONTINUOUS
 62
     1
 10
826.2110194648496
 20
1191.996956551455
 30
0.0
  0
VERTEX
  5
420
  8
1_5__-1
  6
CONTINUOUS
 62
     1
 10
826.1876105978084
 20
1191.968270289551
 30
0.0
  0
VERTEX
  5
421
  8
1_5__-1
  6
CONTINUOUS
 62
     1
 10
826.1642011701986
 20
1191.940754687196
 30
0.0
  0
VERTEX
  5
422
  8
1_5__-1
  6
CONTINUOUS
 62
     1
 10
826.14079118202
 20
1191.91440974439
 30
0.0
  0
VERTEX
  5
423
  8
1_5__-1
  6
CONTINUOUS
 62
     1
 10
826.1173806332728
 20
1191.889235461133
 30
0.0
  0
VERTEX
  5
424
  8
1_5__-1
  6
CONTINUOUS
 62
     1
 10
826.0939695239567
 20
1191.865231837426
 30
0.0
  0
VERTEX
  5
425
  8
1_5__-1
  6
CONTINUOUS
 62
     1
 10
826.0705578540721
 20
1191.842398873267
 30
0.0
  0
VERTEX
  5
426
  8
1_5__-1
  6
CONTINUOUS
 62
     1
 10
826.0471456236188
 20
1191.820736568658
 30
0.0
  0
VERTEX
  5
427
  8
1_5__-1
  6
CONTINUOUS
 62
     1
 10
826.0237328325968
 20
1191.800244923598
 30
0.0
  0
VERTEX
  5
428
  8
1_5__-1
  6
CONTINUOUS
 62
     1
 10
826.000319481006
 20
1191.780923938087
 30
0.0
  0
VERTEX
  5
429
  8
1_5__-1
  6
CONTINUOUS
 62
     1
 10
825.9769055688466
 20
1191.762773612124
 30
0.0
  0
VERTEX
  5
42A
  8
1_5__-1
  6
CONTINUOUS
 62
     1
 10
825.9534910961186
 20
1191.745793945712
 30
0.0
  0
VERTEX
  5
42B
  8
1_5__-1
  6
CONTINUOUS
 62
     1
 10
825.9300760628217
 20
1191.729984938849
 30
0.0
  0
VERTEX
  5
42C
  8
1_5__-1
  6
CONTINUOUS
 62
     1
 10
825.9066604689563
 20
1191.715346591535
 30
0.0
  0
VERTEX
  5
42D
  8
1_5__-1
  6
CONTINUOUS
 62
     1
 10
825.883244314522
 20
1191.70187890377
 30
0.0
  0
VERTEX
  5
42E
  8
1_5__-1
  6
CONTINUOUS
 62
     1
 10
825.8598275995191
 20
1191.689581875554
 30
0.0
  0
VERTEX
  5
42F
  8
1_5__-1
  6
CONTINUOUS
 62
     1
 10
825.8364103239476
 20
1191.678455506887
 30
0.0
  0
VERTEX
  5
430
  8
1_5__-1
  6
CONTINUOUS
 62
     1
 10
825.8129924878074
 20
1191.66849979777
 30
0.0
  0
VERTEX
  5
431
  8
1_5__-1
  6
CONTINUOUS
 62
     1
 10
825.7895740910983
 20
1191.659714748201
 30
0.0
  0
VERTEX
  5
432
  8
1_5__-1
  6
CONTINUOUS
 62
     1
 10
825.7661551338207
 20
1191.652100358182
 30
0.0
  0
VERTEX
  5
433
  8
1_5__-1
  6
CONTINUOUS
 62
     1
 10
825.7427356159744
 20
1191.645656627712
 30
0.0
  0
VERTEX
  5
434
  8
1_5__-1
  6
CONTINUOUS
 62
     1
 10
825.7193155375594
 20
1191.640383556792
 30
0.0
  0
VERTEX
  5
435
  8
1_5__-1
  6
CONTINUOUS
 62
     1
 10
825.6958948985756
 20
1191.63628114542
 30
0.0
  0
VERTEX
  5
436
  8
1_5__-1
  6
CONTINUOUS
 62
     1
 10
825.6724736990232
 20
1191.633349393598
 30
0.0
  0
VERTEX
  5
437
  8
1_5__-1
  6
CONTINUOUS
 62
     1
 10
825.6490519389021
 20
1191.631588301324
 30
0.0
  0
VERTEX
  5
438
  8
1_5__-1
  6
CONTINUOUS
 62
     1
 10
825.6256296182123
 20
1191.6309978686
 30
0.0
  0
VERTEX
  5
439
  8
1_5__-1
  6
CONTINUOUS
 62
     1
 10
825.6022067369538
 20
1191.631578095425
 30
0.0
  0
VERTEX
  5
43A
  8
1_5__-1
  6
CONTINUOUS
 62
     1
 10
825.5787832951265
 20
1191.6333289818
 30
0.0
  0
VERTEX
  5
43B
  8
1_5__-1
  6
CONTINUOUS
 62
     1
 10
825.5553592927306
 20
1191.636250527723
 30
0.0
  0
VERTEX
  5
43C
  8
1_5__-1
  6
CONTINUOUS
 62
     1
 10
825.5319347297661
 20
1191.640342733196
 30
0.0
  0
VERTEX
  5
43D
  8
1_5__-1
  6
CONTINUOUS
 62
     1
 10
825.5085096062328
 20
1191.645605598218
 30
0.0
  0
VERTEX
  5
43E
  8
1_5__-1
  6
CONTINUOUS
 62
     1
 10
825.4850839221308
 20
1191.652039122789
 30
0.0
  0
VERTEX
  5
43F
  8
1_5__-1
  6
CONTINUOUS
 62
     1
 10
825.4616576774602
 20
1191.659643306909
 30
0.0
  0
VERTEX
  5
440
  8
1_5__-1
  6
CONTINUOUS
 62
     1
 10
825.4382308722209
 20
1191.668418150578
 30
0.0
  0
VERTEX
  5
441
  8
1_5__-1
  6
CONTINUOUS
 62
     1
 10
825.4148035064128
 20
1191.678363653797
 30
0.0
  0
VERTEX
  5
442
  8
1_5__-1
  6
CONTINUOUS
 62
     1
 10
825.3913755800361
 20
1191.689479816565
 30
0.0
  0
VERTEX
  5
443
  8
1_5__-1
  6
CONTINUOUS
 62
     1
 10
825.3679470930906
 20
1191.701766638882
 30
0.0
  0
VERTEX
  5
444
  8
1_5__-1
  6
CONTINUOUS
 62
     1
 10
825.3445180455765
 20
1191.715224120748
 30
0.0
  0
VERTEX
  5
445
  8
1_5__-1
  6
CONTINUOUS
 62
     1
 10
825.3210884374937
 20
1191.729852262164
 30
0.0
  0
VERTEX
  5
446
  8
1_5__-1
  6
CONTINUOUS
 62
     1
 10
825.2976582688423
 20
1191.745651063128
 30
0.0
  0
VERTEX
  5
447
  8
1_5__-1
  6
CONTINUOUS
 62
     1
 10
825.274227539622
 20
1191.762620523642
 30
0.0
  0
VERTEX
  5
448
  8
1_5__-1
  6
CONTINUOUS
 62
     1
 10
825.2507962498331
 20
1191.780760643705
 30
0.0
  0
VERTEX
  5
449
  8
1_5__-1
  6
CONTINUOUS
 62
     1
 10
825.2273643994756
 20
1191.800071423316
 30
0.0
  0
VERTEX
  5
44A
  8
1_5__-1
  6
CONTINUOUS
 62
     1
 10
825.2039319885492
 20
1191.820552862478
 30
0.0
  0
VERTEX
  5
44B
  8
1_5__-1
  6
CONTINUOUS
 62
     1
 10
825.1804990170543
 20
1191.842204961188
 30
0.0
  0
VERTEX
  5
44C
  8
1_5__-1
  6
CONTINUOUS
 62
     1
 10
825.1570654849907
 20
1191.865027719448
 30
0.0
  0
VERTEX
  5
44D
  8
1_5__-1
  6
CONTINUOUS
 62
     1
 10
825.1336313923583
 20
1191.889021137257
 30
0.0
  0
VERTEX
  5
44E
  8
1_5__-1
  6
CONTINUOUS
 62
     1
 10
825.1101967391572
 20
1191.914185214614
 30
0.0
  0
VERTEX
  5
44F
  8
1_5__-1
  6
CONTINUOUS
 62
     1
 10
825.0867615253875
 20
1191.940519951521
 30
0.0
  0
VERTEX
  5
450
  8
1_5__-1
  6
CONTINUOUS
 62
     1
 10
825.0633257510491
 20
1191.968025347978
 30
0.0
  0
VERTEX
  5
451
  8
1_5__-1
  6
CONTINUOUS
 62
     1
 10
825.0398894161419
 20
1191.996701403983
 30
0.0
  0
VERTEX
  5
452
  8
1_5__-1
  6
CONTINUOUS
 62
     1
 10
825.0164525206661
 20
1192.026548119538
 30
0.0
  0
VERTEX
  5
453
  8
1_5__-1
  6
CONTINUOUS
 62
     1
 10
824.9930150646217
 20
1192.057565494641
 30
0.0
  0
VERTEX
  5
454
  8
1_5__-1
  6
CONTINUOUS
 62
     1
 10
824.9695770480084
 20
1192.089753529295
 30
0.0
  0
VERTEX
  5
455
  8
1_5__-1
  6
CONTINUOUS
 62
     1
 10
824.9461384708266
 20
1192.123112223497
 30
0.0
  0
VERTEX
  5
456
  8
1_5__-1
  6
CONTINUOUS
 62
     1
 10
824.9226993330759
 20
1192.157641577249
 30
0.0
  0
VERTEX
  5
457
  8
1_5__-1
  6
CONTINUOUS
 62
     1
 10
824.8992596347566
 20
1192.19334159055
 30
0.0
  0
VERTEX
  5
458
  8
1_5__-1
  6
CONTINUOUS
 62
     1
 10
824.8758193758687
 20
1192.230212263399
 30
0.0
  0
VERTEX
  5
459
  8
1_5__-1
  6
CONTINUOUS
 62
     1
 10
824.8524922618121
 20
1192.267547515838
 30
0.0
  0
VERTEX
  5
45A
  8
1_5__-1
  6
CONTINUOUS
 62
     1
 10
824.8293919979869
 20
1192.304641267906
 30
0.0
  0
VERTEX
  5
45B
  8
1_5__-1
  6
CONTINUOUS
 62
     1
 10
824.8065185843932
 20
1192.341493519604
 30
0.0
  0
VERTEX
  5
45C
  8
1_5__-1
  6
CONTINUOUS
 62
     1
 10
824.7838720210309
 20
1192.37810427093
 30
0.0
  0
VERTEX
  5
45D
  8
1_5__-1
  6
CONTINUOUS
 62
     1
 10
824.7614523079001
 20
1192.414473521886
 30
0.0
  0
VERTEX
  5
45E
  8
1_5__-1
  6
CONTINUOUS
 62
     1
 10
824.7392594450007
 20
1192.450601272471
 30
0.0
  0
VERTEX
  5
45F
  8
1_5__-1
  6
CONTINUOUS
 62
     1
 10
824.7172934323328
 20
1192.486487522685
 30
0.0
  0
VERTEX
  5
460
  8
1_5__-1
  6
CONTINUOUS
 62
     1
 10
824.6955542698962
 20
1192.522132272529
 30
0.0
  0
VERTEX
  5
461
  8
1_5__-1
  6
CONTINUOUS
 62
     1
 10
824.6740419576911
 20
1192.557535522001
 30
0.0
  0
VERTEX
  5
462
  8
1_5__-1
  6
CONTINUOUS
 62
     1
 10
824.6527564957175
 20
1192.592697271104
 30
0.0
  0
VERTEX
  5
463
  8
1_5__-1
  6
CONTINUOUS
 62
     1
 10
824.6316978839753
 20
1192.627617519835
 30
0.0
  0
VERTEX
  5
464
  8
1_5__-1
  6
CONTINUOUS
 62
     1
 10
824.6108661224646
 20
1192.662296268195
 30
0.0
  0
VERTEX
  5
465
  8
1_5__-1
  6
CONTINUOUS
 62
     1
 10
824.5902612111852
 20
1192.696733516185
 30
0.0
  0
VERTEX
  5
466
  8
1_5__-1
  6
CONTINUOUS
 62
     1
 10
824.5698831501373
 20
1192.730929263804
 30
0.0
  0
VERTEX
  5
467
  8
1_5__-1
  6
CONTINUOUS
 62
     1
 10
824.549731939321
 20
1192.764883511052
 30
0.0
  0
VERTEX
  5
468
  8
1_5__-1
  6
CONTINUOUS
 62
     1
 10
824.5298075787359
 20
1192.798596257929
 30
0.0
  0
VERTEX
  5
469
  8
1_5__-1
  6
CONTINUOUS
 62
     1
 10
824.5101100683823
 20
1192.832067504435
 30
0.0
  0
VERTEX
  5
46A
  8
1_5__-1
  6
CONTINUOUS
 62
     1
 10
824.4906394082602
 20
1192.865297250571
 30
0.0
  0
VERTEX
  5
46B
  8
1_5__-1
  6
CONTINUOUS
 62
     1
 10
824.4713955983696
 20
1192.898285496336
 30
0.0
  0
VERTEX
  5
46C
  8
1_5__-1
  6
CONTINUOUS
 62
     1
 10
824.4523786387103
 20
1192.93103224173
 30
0.0
  0
VERTEX
  5
46D
  8
1_5__-1
  6
CONTINUOUS
 62
     1
 10
824.4335885292826
 20
1192.963537486753
 30
0.0
  0
VERTEX
  5
46E
  8
1_5__-1
  6
CONTINUOUS
 62
     1
 10
824.4150252700862
 20
1192.995801231405
 30
0.0
  0
VERTEX
  5
46F
  8
1_5__-1
  6
CONTINUOUS
 62
     1
 10
824.3966888611212
 20
1193.027823475687
 30
0.0
  0
VERTEX
  5
470
  8
1_5__-1
  6
CONTINUOUS
 62
     1
 10
824.3785793023878
 20
1193.059604219598
 30
0.0
  0
VERTEX
  5
471
  8
1_5__-1
  6
CONTINUOUS
 62
     1
 10
824.3606965938858
 20
1193.091143463138
 30
0.0
  0
VERTEX
  5
472
  8
1_5__-1
  6
CONTINUOUS
 62
     1
 10
824.3430407356152
 20
1193.122441206307
 30
0.0
  0
VERTEX
  5
473
  8
1_5__-1
  6
CONTINUOUS
 62
     1
 10
824.325611727576
 20
1193.153497449106
 30
0.0
  0
VERTEX
  5
474
  8
1_5__-1
  6
CONTINUOUS
 62
     1
 10
824.3084095697683
 20
1193.184312191534
 30
0.0
  0
VERTEX
  5
475
  8
1_5__-1
  6
CONTINUOUS
 62
     1
 10
824.2914342621921
 20
1193.214885433591
 30
0.0
  0
VERTEX
  5
476
  8
1_5__-1
  6
CONTINUOUS
 62
     1
 10
824.2746858048472
 20
1193.245217175277
 30
0.0
  0
VERTEX
  5
477
  8
1_5__-1
  6
CONTINUOUS
 62
     1
 10
824.2581641977338
 20
1193.275307416593
 30
0.0
  0
VERTEX
  5
478
  8
1_5__-1
  6
CONTINUOUS
 62
     1
 10
824.2418694408518
 20
1193.305156157538
 30
0.0
  0
VERTEX
  5
479
  8
1_5__-1
  6
CONTINUOUS
 62
     1
 10
824.2258015342013
 20
1193.334763398112
 30
0.0
  0
VERTEX
  5
47A
  8
1_5__-1
  6
CONTINUOUS
 62
     1
 10
824.2099604777823
 20
1193.364129138315
 30
0.0
  0
VERTEX
  5
47B
  8
1_5__-1
  6
CONTINUOUS
 62
     1
 10
824.1943462715947
 20
1193.393253378147
 30
0.0
  0
VERTEX
  5
47C
  8
1_5__-1
  6
CONTINUOUS
 62
     1
 10
824.1789589156385
 20
1193.422136117608
 30
0.0
  0
VERTEX
  5
47D
  8
1_5__-1
  6
CONTINUOUS
 62
     1
 10
824.1637984099137
 20
1193.450777356699
 30
0.0
  0
VERTEX
  5
47E
  8
1_5__-1
  6
CONTINUOUS
 62
     1
 10
824.1488647544204
 20
1193.479177095419
 30
0.0
  0
VERTEX
  5
47F
  8
1_5__-1
  6
CONTINUOUS
 62
     1
 10
824.1341579491586
 20
1193.507335333768
 30
0.0
  0
VERTEX
  5
480
  8
1_5__-1
  6
CONTINUOUS
 62
     1
 10
824.1196779941281
 20
1193.535252071747
 30
0.0
  0
VERTEX
  5
481
  8
1_5__-1
  6
CONTINUOUS
 62
     1
 10
824.1054248893291
 20
1193.562927309354
 30
0.0
  0
VERTEX
  5
482
  8
1_5__-1
  6
CONTINUOUS
 62
     1
 10
824.0913986347616
 20
1193.590361046591
 30
0.0
  0
VERTEX
  5
483
  8
1_5__-1
  6
CONTINUOUS
 62
     1
 10
824.0775992304254
 20
1193.617553283457
 30
0.0
  0
VERTEX
  5
484
  8
1_5__-1
  6
CONTINUOUS
 62
     1
 10
824.0640266763209
 20
1193.644504019952
 30
0.0
  0
VERTEX
  5
485
  8
1_5__-1
  6
CONTINUOUS
 62
     1
 10
824.0506809724476
 20
1193.671213256077
 30
0.0
  0
VERTEX
  5
486
  8
1_5__-1
  6
CONTINUOUS
 62
     1
 10
824.0375621188058
 20
1193.697680991831
 30
0.0
  0
VERTEX
  5
487
  8
1_5__-1
  6
CONTINUOUS
 62
     1
 10
824.0246701153955
 20
1193.723907227214
 30
0.0
  0
VERTEX
  5
488
  8
1_5__-1
  6
CONTINUOUS
 62
     1
 10
824.0120049622166
 20
1193.749891962226
 30
0.0
  0
VERTEX
  5
489
  8
1_5__-1
  6
CONTINUOUS
 62
     1
 10
823.9995666592691
 20
1193.775635196867
 30
0.0
  0
VERTEX
  5
48A
  8
1_5__-1
  6
CONTINUOUS
 62
     1
 10
823.987355206553
 20
1193.801136931138
 30
0.0
  0
VERTEX
  5
48B
  8
1_5__-1
  6
CONTINUOUS
 62
     1
 10
823.9753706040685
 20
1193.826397165038
 30
0.0
  0
VERTEX
  5
48C
  8
1_5__-1
  6
CONTINUOUS
 62
     1
 10
823.9636128518154
 20
1193.851415898567
 30
0.0
  0
VERTEX
  5
48D
  8
1_5__-1
  6
CONTINUOUS
 62
     1
 10
823.9520819497936
 20
1193.876193131724
 30
0.0
  0
VERTEX
  5
48E
  8
1_5__-1
  6
CONTINUOUS
 62
     1
 10
823.9407778980034
 20
1193.900728864512
 30
0.0
  0
VERTEX
  5
48F
  8
1_5__-1
  6
CONTINUOUS
 62
     1
 10
823.9297006964446
 20
1193.925023096929
 30
0.0
  0
VERTEX
  5
490
  8
1_5__-1
  6
CONTINUOUS
 62
     1
 10
823.9188503451171
 20
1193.949075828974
 30
0.0
  0
VERTEX
  5
491
  8
1_5__-1
  6
CONTINUOUS
 62
     1
 10
823.9082268440212
 20
1193.97288706065
 30
0.0
  0
VERTEX
  5
492
  8
1_5__-1
  6
CONTINUOUS
 62
     1
 10
823.8978301931568
 20
1193.996456791954
 30
0.0
  0
VERTEX
  5
493
  8
1_5__-1
  6
CONTINUOUS
 62
     1
 10
823.8876603925237
 20
1194.019785022887
 30
0.0
  0
VERTEX
  5
494
  8
1_5__-1
  6
CONTINUOUS
 62
     1
 10
823.877717442122
 20
1194.04287175345
 30
0.0
  0
VERTEX
  5
495
  8
1_5__-1
  6
CONTINUOUS
 62
     1
 10
823.8680013419519
 20
1194.065716983642
 30
0.0
  0
VERTEX
  5
496
  8
1_5__-1
  6
CONTINUOUS
 62
     1
 10
823.8585120920131
 20
1194.088320713463
 30
0.0
  0
VERTEX
  5
497
  8
1_5__-1
  6
CONTINUOUS
 62
     1
 10
823.8492496923059
 20
1194.110682942914
 30
0.0
  0
VERTEX
  5
498
  8
1_5__-1
  6
CONTINUOUS
 62
     1
 10
823.84021414283
 20
1194.132803671993
 30
0.0
  0
VERTEX
  5
499
  8
1_5__-1
  6
CONTINUOUS
 62
     1
 10
823.84021414283
 20
1194.132803671993
 30
0.0
  0
SEQEND
  5
49A
  8
1_5__-1
  6
CONTINUOUS
 62
     1
  0
LINE
  5
49B
  8
1_5__-1
  6
CONTINUOUS
 62
     1
 10
831.625570000001
 20
1204.679774999997
 30
0.0
 11
831.4109299999999
 21
1204.679774999997
 31
0.0
  0
LINE
  5
49C
  8
1_5__-1
  6
CONTINUOUS
 62
     1
 10
831.625570000001
 20
1194.132805000001
 30
0.0
 11
831.625570000001
 21
1204.679774999997
 31
0.0
  0
LINE
  5
49D
  8
1_5__-1
  6
CONTINUOUS
 62
     1
 10
823.8402150000014
 20
1204.679774999997
 30
0.0
 11
823.6255700000005
 21
1204.679774999997
 31
0.0
  0
LINE
  5
49E
  8
1_5__-1
  6
CONTINUOUS
 62
     1
 10
823.6255700000005
 20
1204.679774999997
 30
0.0
 11
823.6255700000005
 21
1194.132805000001
 31
0.0
  0
LINE
  5
49F
  8
1_5__-1
  6
CONTINUOUS
 62
     1
 10
831.4109299999999
 20
1204.679774999997
 30
0.0
 11
831.4109299999999
 21
1194.132805000001
 31
0.0
  0
LINE
  5
4A0
  8
1_5__-1
  6
CONTINUOUS
 62
     1
 10
827.840215000001
 20
1204.679774999997
 30
0.0
 11
827.4109300000008
 21
1204.679774999997
 31
0.0
  0
LINE
  5
4A1
  8
1_5__-1
  6
CONTINUOUS
 62
     1
 10
827.840215000001
 20
1194.132805000001
 30
0.0
 11
827.840215000001
 21
1204.679774999997
 31
0.0
  0
LINE
  5
4A2
  8
1_5__-1
  6
CONTINUOUS
 62
     1
 10
827.4109300000008
 20
1204.679774999997
 30
0.0
 11
827.4109300000008
 21
1194.132805000001
 31
0.0
  0
LINE
  5
4A3
  8
1_5__-1
  6
CONTINUOUS
 62
     1
 10
823.8402150000014
 20
1204.679774999997
 30
0.0
 11
827.4109300000008
 21
1204.679774999997
 31
0.0
  0
LINE
  5
4A4
  8
1_5__-1
  6
CONTINUOUS
 62
     1
 10
823.8402150000014
 20
1194.132805000001
 30
0.0
 11
823.8402150000014
 21
1204.679774999997
 31
0.0
  0
LINE
  5
4A5
  8
1_5__-1
  6
CONTINUOUS
 62
     1
 10
831.625570000001
 20
1194.132805000001
 30
0.0
 11
831.4109299999999
 21
1194.132805000001
 31
0.0
  0
LINE
  5
4A6
  8
1_5__-1
  6
CONTINUOUS
 62
     1
 10
827.840215000001
 20
1194.132805000001
 30
0.0
 11
827.4109300000008
 21
1194.132805000001
 31
0.0
  0
LINE
  5
4A7
  8
1_5__-1
  6
CONTINUOUS
 62
     1
 10
823.8402150000014
 20
1194.132805000001
 30
0.0
 11
823.6255700000005
 21
1194.132805000001
 31
0.0
  0
LINE
  5
4A8
  8
1_5__-1
  6
CONTINUOUS
 62
     1
 10
823.6255700000005
 20
1194.132805000001
 30
0.0
 11
823.6255700000005
 21
1191.830784999998
 31
0.0
  0
LINE
  5
4A9
  8
1_5__-1
  6
CONTINUOUS
 62
     1
 10
831.3755700000014
 20
1190.679775000026
 30
0.0
 11
831.6260350000006
 21
1191.832920000015
 31
0.0
  0
LINE
  5
4AA
  8
1_5__-1
  6
CONTINUOUS
 62
     1
 10
823.6251100000007
 20
1191.832920000015
 30
0.0
 11
823.8755700000014
 21
1190.679775000026
 31
0.0
  0
LINE
  5
4AB
  8
1_5__-1
  6
CONTINUOUS
 62
     1
 10
823.8755700000014
 20
1190.679775000026
 30
0.0
 11
831.3755700000014
 21
1190.679775000026
 31
0.0
  0
LINE
  5
4AC
  8
1_5__-1
  6
CONTINUOUS
 62
     1
 10
831.625570000001
 20
1194.132805000001
 30
0.0
 11
831.625570000001
 21
1191.830784999998
 31
0.0
  0
ARC
  5
4AD
  8
1_5__-1
  6
CONTINUOUS
 62
     1
 10
825.62557
 20
1205.026234999998
 30
0.0
 40
1.818664999996476
 50
190.9820939994053
 51
349.0179060005947
  0
ARC
  5
4AE
  8
1_5__-1
  6
CONTINUOUS
 62
     1
 10
829.6255699999996
 20
1205.026234999998
 30
0.0
 40
1.818664999995136
 50
190.9820939994135
 51
349.0179060005866
  0
LINE
  5
4AF
  8
1_5__-1
  6
CONTINUOUS
 62
     1
 10
823.12557
 20
1219.679774999997
 30
0.0
 11
823.12557
 21
1204.679774999997
 31
0.0
  0
LINE
  5
4B0
  8
1_5__-1
  6
CONTINUOUS
 62
     1
 10
823.12557
 20
1204.679774999997
 30
0.0
 11
823.6255700000005
 21
1203.207570000028
 31
0.0
  0
LINE
  5
4B1
  8
1_5__-1
  6
CONTINUOUS
 62
     1
 10
832.1255699999996
 20
1204.679774999997
 30
0.0
 11
830.0563350000006
 21
1204.679774999997
 31
0.0
  0
LINE
  5
4B2
  8
1_5__-1
  6
CONTINUOUS
 62
     1
 10
832.1255699999996
 20
1219.679774999997
 30
0.0
 11
832.1255699999996
 21
1204.679774999997
 31
0.0
  0
LINE
  5
4B3
  8
1_5__-1
  6
CONTINUOUS
 62
     1
 10
832.1255699999996
 20
1204.679774999997
 30
0.0
 11
831.625570000001
 21
1203.207570000028
 31
0.0
  0
LINE
  5
4B4
  8
1_5__-1
  6
CONTINUOUS
 62
     1
 10
832.1178900000008
 20
1204.679774999997
 30
0.0
 11
832.1230100000015
 21
1204.679774999997
 31
0.0
  0
LINE
  5
4B5
  8
1_5__-1
  6
CONTINUOUS
 62
     1
 10
1266.30786
 20
924.6635399999795
 30
0.0
 11
1266.30786
 21
913.9970650000032
 31
0.0
  0
POLYLINE
  5
4B6
  8
1_5__-1
  6
CONTINUOUS
 62
     1
 66
     1
 10
0.0
 20
0.0
 30
0.0
 70
   128
  0
VERTEX
  5
4B7
  8
1_5__-1
  6
CONTINUOUS
 62
     1
 10
1256.492904261971
 20
921.729039890808
 30
0.0
  0
VERTEX
  5
4B8
  8
1_5__-1
  6
CONTINUOUS
 62
     1
 10
1256.524470196153
 20
921.7604269841327
 30
0.0
  0
VERTEX
  5
4B9
  8
1_5__-1
  6
CONTINUOUS
 62
     1
 10
1256.556251414527
 20
921.7913200340813
 30
0.0
  0
VERTEX
  5
4BA
  8
1_5__-1
  6
CONTINUOUS
 62
     1
 10
1256.588247917093
 20
921.8217190406554
 30
0.0
  0
VERTEX
  5
4BB
  8
1_5__-1
  6
CONTINUOUS
 62
     1
 10
1256.620459703849
 20
921.8516240038539
 30
0.0
  0
VERTEX
  5
4BC
  8
1_5__-1
  6
CONTINUOUS
 62
     1
 10
1256.652886774797
 20
921.8810349236769
 30
0.0
  0
VERTEX
  5
4BD
  8
1_5__-1
  6
CONTINUOUS
 62
     1
 10
1256.685529129935
 20
921.9099518001249
 30
0.0
  0
VERTEX
  5
4BE
  8
1_5__-1
  6
CONTINUOUS
 62
     1
 10
1256.718386769265
 20
921.9383746331973
 30
0.0
  0
VERTEX
  5
4BF
  8
1_5__-1
  6
CONTINUOUS
 62
     1
 10
1256.751459692786
 20
921.9663034228947
 30
0.0
  0
VERTEX
  5
4C0
  8
1_5__-1
  6
CONTINUOUS
 62
     1
 10
1256.784747900498
 20
921.9937381692166
 30
0.0
  0
VERTEX
  5
4C1
  8
1_5__-1
  6
CONTINUOUS
 62
     1
 10
1256.818251392402
 20
922.0206788721634
 30
0.0
  0
VERTEX
  5
4C2
  8
1_5__-1
  6
CONTINUOUS
 62
     1
 10
1256.851970168496
 20
922.0471255317348
 30
0.0
  0
VERTEX
  5
4C3
  8
1_5__-1
  6
CONTINUOUS
 62
     1
 10
1256.885904228782
 20
922.073078147931
 30
0.0
  0
VERTEX
  5
4C4
  8
1_5__-1
  6
CONTINUOUS
 62
     1
 10
1256.920053573258
 20
922.0985367207518
 30
0.0
  0
VERTEX
  5
4C5
  8
1_5__-1
  6
CONTINUOUS
 62
     1
 10
1256.954418201927
 20
922.1235012501975
 30
0.0
  0
VERTEX
  5
4C6
  8
1_5__-1
  6
CONTINUOUS
 62
     1
 10
1256.988998114786
 20
922.1479717362677
 30
0.0
  0
VERTEX
  5
4C7
  8
1_5__-1
  6
CONTINUOUS
 62
     1
 10
1257.023793311836
 20
922.1719481789632
 30
0.0
  0
VERTEX
  5
4C8
  8
1_5__-1
  6
CONTINUOUS
 62
     1
 10
1257.058803793077
 20
922.1954305782833
 30
0.0
  0
VERTEX
  5
4C9
  8
1_5__-1
  6
CONTINUOUS
 62
     1
 10
1257.09402955851
 20
922.2184189342279
 30
0.0
  0
VERTEX
  5
4CA
  8
1_5__-1
  6
CONTINUOUS
 62
     1
 10
1257.129470608133
 20
922.2409132467969
 30
0.0
  0
VERTEX
  5
4CB
  8
1_5__-1
  6
CONTINUOUS
 62
     1
 10
1257.165126941949
 20
922.2629135159909
 30
0.0
  0
VERTEX
  5
4CC
  8
1_5__-1
  6
CONTINUOUS
 62
     1
 10
1257.200998559955
 20
922.2844197418094
 30
0.0
  0
VERTEX
  5
4CD
  8
1_5__-1
  6
CONTINUOUS
 62
     1
 10
1257.237085462152
 20
922.3054319242533
 30
0.0
  0
VERTEX
  5
4CE
  8
1_5__-1
  6
CONTINUOUS
 62
     1
 10
1257.27338764854
 20
922.3259500633217
 30
0.0
  0
VERTEX
  5
4CF
  8
1_5__-1
  6
CONTINUOUS
 62
     1
 10
1257.30990511912
 20
922.3459741590145
 30
0.0
  0
VERTEX
  5
4D0
  8
1_5__-1
  6
CONTINUOUS
 62
     1
 10
1257.34663787389
 20
922.3655042113319
 30
0.0
  0
VERTEX
  5
4D1
  8
1_5__-1
  6
CONTINUOUS
 62
     1
 10
1257.383585912852
 20
922.3845402202742
 30
0.0
  0
VERTEX
  5
4D2
  8
1_5__-1
  6
CONTINUOUS
 62
     1
 10
1257.420749236005
 20
922.4030821858414
 30
0.0
  0
VERTEX
  5
4D3
  8
1_5__-1
  6
CONTINUOUS
 62
     1
 10
1257.458127843349
 20
922.4211301080331
 30
0.0
  0
VERTEX
  5
4D4
  8
1_5__-1
  6
CONTINUOUS
 62
     1
 10
1257.495721734885
 20
922.4386839868498
 30
0.0
  0
VERTEX
  5
4D5
  8
1_5__-1
  6
CONTINUOUS
 62
     1
 10
1257.533530910611
 20
922.455743822291
 30
0.0
  0
VERTEX
  5
4D6
  8
1_5__-1
  6
CONTINUOUS
 62
     1
 10
1257.571555370529
 20
922.4723096143566
 30
0.0
  0
VERTEX
  5
4D7
  8
1_5__-1
  6
CONTINUOUS
 62
     1
 10
1257.609795114638
 20
922.4883813630477
 30
0.0
  0
VERTEX
  5
4D8
  8
1_5__-1
  6
CONTINUOUS
 62
     1
 10
1257.648250142938
 20
922.5039590683632
 30
0.0
  0
VERTEX
  5
4D9
  8
1_5__-1
  6
CONTINUOUS
 62
     1
 10
1257.686920455429
 20
922.5190427303032
 30
0.0
  0
VERTEX
  5
4DA
  8
1_5__-1
  6
CONTINUOUS
 62
     1
 10
1257.725806052111
 20
922.5336323488682
 30
0.0
  0
VERTEX
  5
4DB
  8
1_5__-1
  6
CONTINUOUS
 62
     1
 10
1257.764906932984
 20
922.5477279240577
 30
0.0
  0
VERTEX
  5
4DC
  8
1_5__-1
  6
CONTINUOUS
 62
     1
 10
1257.804223098049
 20
922.561329455872
 30
0.0
  0
VERTEX
  5
4DD
  8
1_5__-1
  6
CONTINUOUS
 62
     1
 10
1257.843754547305
 20
922.5744369443114
 30
0.0
  0
VERTEX
  5
4DE
  8
1_5__-1
  6
CONTINUOUS
 62
     1
 10
1257.883501280751
 20
922.5870503893752
 30
0.0
  0
VERTEX
  5
4DF
  8
1_5__-1
  6
CONTINUOUS
 62
     1
 10
1257.923463298389
 20
922.5991697910636
 30
0.0
  0
VERTEX
  5
4E0
  8
1_5__-1
  6
CONTINUOUS
 62
     1
 10
1257.963640600219
 20
922.6107951493764
 30
0.0
  0
VERTEX
  5
4E1
  8
1_5__-1
  6
CONTINUOUS
 62
     1
 10
1258.004033186239
 20
922.6219264643146
 30
0.0
  0
VERTEX
  5
4E2
  8
1_5__-1
  6
CONTINUOUS
 62
     1
 10
1258.04464105645
 20
922.6325637358773
 30
0.0
  0
VERTEX
  5
4E3
  8
1_5__-1
  6
CONTINUOUS
 62
     1
 10
1258.085464210853
 20
922.6427069640645
 30
0.0
  0
VERTEX
  5
4E4
  8
1_5__-1
  6
CONTINUOUS
 62
     1
 10
1258.126502649447
 20
922.6523561488766
 30
0.0
  0
VERTEX
  5
4E5
  8
1_5__-1
  6
CONTINUOUS
 62
     1
 10
1258.167756372232
 20
922.6615112903132
 30
0.0
  0
VERTEX
  5
4E6
  8
1_5__-1
  6
CONTINUOUS
 62
     1
 10
1258.209225379208
 20
922.6701723883748
 30
0.0
  0
VERTEX
  5
4E7
  8
1_5__-1
  6
CONTINUOUS
 62
     1
 10
1258.250909670376
 20
922.6783394430613
 30
0.0
  0
VERTEX
  5
4E8
  8
1_5__-1
  6
CONTINUOUS
 62
     1
 10
1258.292809245734
 20
922.6860124543723
 30
0.0
  0
VERTEX
  5
4E9
  8
1_5__-1
  6
CONTINUOUS
 62
     1
 10
1258.334924105284
 20
922.6931914223082
 30
0.0
  0
VERTEX
  5
4EA
  8
1_5__-1
  6
CONTINUOUS
 62
     1
 10
1258.377254249024
 20
922.6998763468682
 30
0.0
  0
VERTEX
  5
4EB
  8
1_5__-1
  6
CONTINUOUS
 62
     1
 10
1258.419799676956
 20
922.7060672280536
 30
0.0
  0
VERTEX
  5
4EC
  8
1_5__-1
  6
CONTINUOUS
 62
     1
 10
1258.462560389079
 20
922.7117640658639
 30
0.0
  0
VERTEX
  5
4ED
  8
1_5__-1
  6
CONTINUOUS
 62
     1
 10
1258.505536385394
 20
922.7169668602983
 30
0.0
  0
VERTEX
  5
4EE
  8
1_5__-1
  6
CONTINUOUS
 62
     1
 10
1258.548727665899
 20
922.721675611358
 30
0.0
  0
VERTEX
  5
4EF
  8
1_5__-1
  6
CONTINUOUS
 62
     1
 10
1258.592134230596
 20
922.7258903190418
 30
0.0
  0
VERTEX
  5
4F0
  8
1_5__-1
  6
CONTINUOUS
 62
     1
 10
1258.635756079484
 20
922.7296109833505
 30
0.0
  0
VERTEX
  5
4F1
  8
1_5__-1
  6
CONTINUOUS
 62
     1
 10
1258.679593212562
 20
922.7328376042842
 30
0.0
  0
VERTEX
  5
4F2
  8
1_5__-1
  6
CONTINUOUS
 62
     1
 10
1258.723645629832
 20
922.7355701818424
 30
0.0
  0
VERTEX
  5
4F3
  8
1_5__-1
  6
CONTINUOUS
 62
     1
 10
1258.767913331294
 20
922.7378087160255
 30
0.0
  0
VERTEX
  5
4F4
  8
1_5__-1
  6
CONTINUOUS
 62
     1
 10
1258.812396316946
 20
922.7395532068326
 30
0.0
  0
VERTEX
  5
4F5
  8
1_5__-1
  6
CONTINUOUS
 62
     1
 10
1258.85709458679
 20
922.7408036542652
 30
0.0
  0
VERTEX
  5
4F6
  8
1_5__-1
  6
CONTINUOUS
 62
     1
 10
1258.902008140824
 20
922.7415600583222
 30
0.0
  0
VERTEX
  5
4F7
  8
1_5__-1
  6
CONTINUOUS
 62
     1
 10
1258.94713697905
 20
922.7418224190042
 30
0.0
  0
VERTEX
  5
4F8
  8
1_5__-1
  6
CONTINUOUS
 62
     1
 10
1258.992265576029
 20
922.7415902569674
 30
0.0
  0
VERTEX
  5
4F9
  8
1_5__-1
  6
CONTINUOUS
 62
     1
 10
1259.037178406324
 20
922.7408630928676
 30
0.0
  0
VERTEX
  5
4FA
  8
1_5__-1
  6
CONTINUOUS
 62
     1
 10
1259.081875469935
 20
922.7396409267053
 30
0.0
  0
VERTEX
  5
4FB
  8
1_5__-1
  6
CONTINUOUS
 62
     1
 10
1259.126356766861
 20
922.7379237584814
 30
0.0
  0
VERTEX
  5
4FC
  8
1_5__-1
  6
CONTINUOUS
 62
     1
 10
1259.170622297103
 20
922.7357115881946
 30
0.0
  0
VERTEX
  5
4FD
  8
1_5__-1
  6
CONTINUOUS
 62
     1
 10
1259.21467206066
 20
922.7330044158457
 30
0.0
  0
VERTEX
  5
4FE
  8
1_5__-1
  6
CONTINUOUS
 62
     1
 10
1259.258506057533
 20
922.7298022414343
 30
0.0
  0
VERTEX
  5
4FF
  8
1_5__-1
  6
CONTINUOUS
 62
     1
 10
1259.302124287722
 20
922.7261050649608
 30
0.0
  0
VERTEX
  5
500
  8
1_5__-1
  6
CONTINUOUS
 62
     1
 10
1259.345526751227
 20
922.721912886424
 30
0.0
  0
VERTEX
  5
501
  8
1_5__-1
  6
CONTINUOUS
 62
     1
 10
1259.388713448047
 20
922.7172257058255
 30
0.0
  0
VERTEX
  5
502
  8
1_5__-1
  6
CONTINUOUS
 62
     1
 10
1259.431684378183
 20
922.7120435231645
 30
0.0
  0
VERTEX
  5
503
  8
1_5__-1
  6
CONTINUOUS
 62
     1
 10
1259.474439541634
 20
922.7063663384411
 30
0.0
  0
VERTEX
  5
504
  8
1_5__-1
  6
CONTINUOUS
 62
     1
 10
1259.516978938401
 20
922.7001941516551
 30
0.0
  0
VERTEX
  5
505
  8
1_5__-1
  6
CONTINUOUS
 62
     1
 10
1259.559302568484
 20
922.6935269628061
 30
0.0
  0
VERTEX
  5
506
  8
1_5__-1
  6
CONTINUOUS
 62
     1
 10
1259.601410431882
 20
922.6863647718951
 30
0.0
  0
VERTEX
  5
507
  8
1_5__-1
  6
CONTINUOUS
 62
     1
 10
1259.643302528596
 20
922.6787075789225
 30
0.0
  0
VERTEX
  5
508
  8
1_5__-1
  6
CONTINUOUS
 62
     1
 10
1259.684978858626
 20
922.670555383887
 30
0.0
  0
VERTEX
  5
509
  8
1_5__-1
  6
CONTINUOUS
 62
     1
 10
1259.726439421971
 20
922.6619081867889
 30
0.0
  0
VERTEX
  5
50A
  8
1_5__-1
  6
CONTINUOUS
 62
     1
 10
1259.767684218633
 20
922.6527659876288
 30
0.0
  0
VERTEX
  5
50B
  8
1_5__-1
  6
CONTINUOUS
 62
     1
 10
1259.808713248609
 20
922.6431287864057
 30
0.0
  0
VERTEX
  5
50C
  8
1_5__-1
  6
CONTINUOUS
 62
     1
 10
1259.849526511902
 20
922.6329965831201
 30
0.0
  0
VERTEX
  5
50D
  8
1_5__-1
  6
CONTINUOUS
 62
     1
 10
1259.89012400851
 20
922.6223693777724
 30
0.0
  0
VERTEX
  5
50E
  8
1_5__-1
  6
CONTINUOUS
 62
     1
 10
1259.930505738433
 20
922.6112471703623
 30
0.0
  0
VERTEX
  5
50F
  8
1_5__-1
  6
CONTINUOUS
 62
     1
 10
1259.970671701672
 20
922.5996299608901
 30
0.0
  0
VERTEX
  5
510
  8
1_5__-1
  6
CONTINUOUS
 62
     1
 10
1260.010621898228
 20
922.5875177493549
 30
0.0
  0
VERTEX
  5
511
  8
1_5__-1
  6
CONTINUOUS
 62
     1
 10
1260.050356328098
 20
922.5749105357577
 30
0.0
  0
VERTEX
  5
512
  8
1_5__-1
  6
CONTINUOUS
 62
     1
 10
1260.089874991284
 20
922.561808320098
 30
0.0
  0
VERTEX
  5
513
  8
1_5__-1
  6
CONTINUOUS
 62
     1
 10
1260.129177887786
 20
922.5482111023757
 30
0.0
  0
VERTEX
  5
514
  8
1_5__-1
  6
CONTINUOUS
 62
     1
 10
1260.168265017604
 20
922.534118882591
 30
0.0
  0
VERTEX
  5
515
  8
1_5__-1
  6
CONTINUOUS
 62
     1
 10
1260.207136380737
 20
922.5195316607442
 30
0.0
  0
VERTEX
  5
516
  8
1_5__-1
  6
CONTINUOUS
 62
     1
 10
1260.245791977186
 20
922.5044494368349
 30
0.0
  0
VERTEX
  5
517
  8
1_5__-1
  6
CONTINUOUS
 62
     1
 10
1260.284231806951
 20
922.4888722108626
 30
0.0
  0
VERTEX
  5
518
  8
1_5__-1
  6
CONTINUOUS
 62
     1
 10
1260.322455870031
 20
922.4727999828278
 30
0.0
  0
VERTEX
  5
519
  8
1_5__-1
  6
CONTINUOUS
 62
     1
 10
1260.360464166427
 20
922.4562327527315
 30
0.0
  0
VERTEX
  5
51A
  8
1_5__-1
  6
CONTINUOUS
 62
     1
 10
1260.398256696138
 20
922.4391705205721
 30
0.0
  0
VERTEX
  5
51B
  8
1_5__-1
  6
CONTINUOUS
 62
     1
 10
1260.435833459165
 20
922.4216132863512
 30
0.0
  0
VERTEX
  5
51C
  8
1_5__-1
  6
CONTINUOUS
 62
     1
 10
1260.473194455508
 20
922.4035610500673
 30
0.0
  0
VERTEX
  5
51D
  8
1_5__-1
  6
CONTINUOUS
 62
     1
 10
1260.510339685167
 20
922.3850138117209
 30
0.0
  0
VERTEX
  5
51E
  8
1_5__-1
  6
CONTINUOUS
 62
     1
 10
1260.547269148141
 20
922.3659715713125
 30
0.0
  0
VERTEX
  5
51F
  8
1_5__-1
  6
CONTINUOUS
 62
     1
 10
1260.58398284443
 20
922.346434328841
 30
0.0
  0
VERTEX
  5
520
  8
1_5__-1
  6
CONTINUOUS
 62
     1
 10
1260.620480774036
 20
922.3264020843071
 30
0.0
  0
VERTEX
  5
521
  8
1_5__-1
  6
CONTINUOUS
 62
     1
 10
1260.656762936957
 20
922.3058748377111
 30
0.0
  0
VERTEX
  5
522
  8
1_5__-1
  6
CONTINUOUS
 62
     1
 10
1260.692829333194
 20
922.2848525890527
 30
0.0
  0
VERTEX
  5
523
  8
1_5__-1
  6
CONTINUOUS
 62
     1
 10
1260.728679962746
 20
922.2633353383321
 30
0.0
  0
VERTEX
  5
524
  8
1_5__-1
  6
CONTINUOUS
 62
     1
 10
1260.764314825614
 20
922.2413230855486
 30
0.0
  0
VERTEX
  5
525
  8
1_5__-1
  6
CONTINUOUS
 62
     1
 10
1260.799733921798
 20
922.2188158307031
 30
0.0
  0
VERTEX
  5
526
  8
1_5__-1
  6
CONTINUOUS
 62
     1
 10
1260.834937251297
 20
922.195813573795
 30
0.0
  0
VERTEX
  5
527
  8
1_5__-1
  6
CONTINUOUS
 62
     1
 10
1260.869924814112
 20
922.1723163148245
 30
0.0
  0
VERTEX
  5
528
  8
1_5__-1
  6
CONTINUOUS
 62
     1
 10
1260.904696610243
 20
922.1483240537914
 30
0.0
  0
VERTEX
  5
529
  8
1_5__-1
  6
CONTINUOUS
 62
     1
 10
1260.939252639689
 20
922.1238367906963
 30
0.0
  0
VERTEX
  5
52A
  8
1_5__-1
  6
CONTINUOUS
 62
     1
 10
1260.973592902451
 20
922.0988545255386
 30
0.0
  0
VERTEX
  5
52B
  8
1_5__-1
  6
CONTINUOUS
 62
     1
 10
1261.007717398529
 20
922.0733772583185
 30
0.0
  0
VERTEX
  5
52C
  8
1_5__-1
  6
CONTINUOUS
 62
     1
 10
1261.041626127922
 20
922.0474049890358
 30
0.0
  0
VERTEX
  5
52D
  8
1_5__-1
  6
CONTINUOUS
 62
     1
 10
1261.075319090631
 20
922.0209377176911
 30
0.0
  0
VERTEX
  5
52E
  8
1_5__-1
  6
CONTINUOUS
 62
     1
 10
1261.108796286656
 20
921.9939754442835
 30
0.0
  0
VERTEX
  5
52F
  8
1_5__-1
  6
CONTINUOUS
 62
     1
 10
1261.142057715996
 20
921.9665181688138
 30
0.0
  0
VERTEX
  5
530
  8
1_5__-1
  6
CONTINUOUS
 62
     1
 10
1261.175103378652
 20
921.9385658912811
 30
0.0
  0
VERTEX
  5
531
  8
1_5__-1
  6
CONTINUOUS
 62
     1
 10
1261.207933274624
 20
921.9101186116864
 30
0.0
  0
VERTEX
  5
532
  8
1_5__-1
  6
CONTINUOUS
 62
     1
 10
1261.240547403911
 20
921.8811763300296
 30
0.0
  0
VERTEX
  5
533
  8
1_5__-1
  6
CONTINUOUS
 62
     1
 10
1261.272945766514
 20
921.8517390463098
 30
0.0
  0
VERTEX
  5
534
  8
1_5__-1
  6
CONTINUOUS
 62
     1
 10
1261.305128362432
 20
921.821806760528
 30
0.0
  0
VERTEX
  5
535
  8
1_5__-1
  6
CONTINUOUS
 62
     1
 10
1261.337095191666
 20
921.7913794726842
 30
0.0
  0
VERTEX
  5
536
  8
1_5__-1
  6
CONTINUOUS
 62
     1
 10
1261.368846254216
 20
921.7604571827774
 30
0.0
  0
VERTEX
  5
537
  8
1_5__-1
  6
CONTINUOUS
 62
     1
 10
1261.400381550082
 20
921.729039890808
 30
0.0
  0
VERTEX
  5
538
  8
1_5__-1
  6
CONTINUOUS
 62
     1
 10
1261.400381550082
 20
921.729039890808
 30
0.0
  0
SEQEND
  5
539
  8
1_5__-1
  6
CONTINUOUS
 62
     1
  0
POLYLINE
  5
53A
  8
1_5__-1
  6
CONTINUOUS
 62
     1
 66
     1
 10
0.0
 20
0.0
 30
0.0
 70
   128
  0
VERTEX
  5
53B
  8
1_5__-1
  6
CONTINUOUS
 62
     1
 10
1261.400381550082
 20
921.729039890808
 30
0.0
  0
VERTEX
  5
53C
  8
1_5__-1
  6
CONTINUOUS
 62
     1
 10
1261.472021166784
 20
921.7647404271711
 30
0.0
  0
VERTEX
  5
53D
  8
1_5__-1
  6
CONTINUOUS
 62
     1
 10
1261.543821286891
 20
921.7998797591949
 30
0.0
  0
VERTEX
  5
53E
  8
1_5__-1
  6
CONTINUOUS
 62
     1
 10
1261.615781910404
 20
921.8344578868805
 30
0.0
  0
VERTEX
  5
53F
  8
1_5__-1
  6
CONTINUOUS
 62
     1
 10
1261.687903037322
 20
921.8684748102264
 30
0.0
  0
VERTEX
  5
540
  8
1_5__-1
  6
CONTINUOUS
 62
     1
 10
1261.760184667645
 20
921.9019305292336
 30
0.0
  0
VERTEX
  5
541
  8
1_5__-1
  6
CONTINUOUS
 62
     1
 10
1261.832626801373
 20
921.934825043902
 30
0.0
  0
VERTEX
  5
542
  8
1_5__-1
  6
CONTINUOUS
 62
     1
 10
1261.905229438507
 20
921.9671583542313
 30
0.0
  0
VERTEX
  5
543
  8
1_5__-1
  6
CONTINUOUS
 62
     1
 10
1261.977992579046
 20
921.9989304602218
 30
0.0
  0
VERTEX
  5
544
  8
1_5__-1
  6
CONTINUOUS
 62
     1
 10
1262.05091622299
 20
922.0301413618736
 30
0.0
  0
VERTEX
  5
545
  8
1_5__-1
  6
CONTINUOUS
 62
     1
 10
1262.124000370339
 20
922.0607910591862
 30
0.0
  0
VERTEX
  5
546
  8
1_5__-1
  6
CONTINUOUS
 62
     1
 10
1262.197245021093
 20
922.09087955216
 30
0.0
  0
VERTEX
  5
547
  8
1_5__-1
  6
CONTINUOUS
 62
     1
 10
1262.270650175252
 20
922.1204068407947
 30
0.0
  0
VERTEX
  5
548
  8
1_5__-1
  6
CONTINUOUS
 62
     1
 10
1262.344215832817
 20
922.1493729250906
 30
0.0
  0
VERTEX
  5
549
  8
1_5__-1
  6
CONTINUOUS
 62
     1
 10
1262.417941993787
 20
922.1777778050478
 30
0.0
  0
VERTEX
  5
54A
  8
1_5__-1
  6
CONTINUOUS
 62
     1
 10
1262.491828658162
 20
922.2056214806657
 30
0.0
  0
VERTEX
  5
54B
  8
1_5__-1
  6
CONTINUOUS
 62
     1
 10
1262.565875825942
 20
922.2329039519445
 30
0.0
  0
VERTEX
  5
54C
  8
1_5__-1
  6
CONTINUOUS
 62
     1
 10
1262.640083497128
 20
922.2596252188846
 30
0.0
  0
VERTEX
  5
54D
  8
1_5__-1
  6
CONTINUOUS
 62
     1
 10
1262.714451671718
 20
922.2857852814859
 30
0.0
  0
VERTEX
  5
54E
  8
1_5__-1
  6
CONTINUOUS
 62
     1
 10
1262.788980349714
 20
922.3113841397485
 30
0.0
  0
VERTEX
  5
54F
  8
1_5__-1
  6
CONTINUOUS
 62
     1
 10
1262.863669531115
 20
922.3364217936719
 30
0.0
  0
VERTEX
  5
550
  8
1_5__-1
  6
CONTINUOUS
 62
     1
 10
1262.938519215921
 20
922.3608982432565
 30
0.0
  0
VERTEX
  5
551
  8
1_5__-1
  6
CONTINUOUS
 62
     1
 10
1263.013529404133
 20
922.384813488502
 30
0.0
  0
VERTEX
  5
552
  8
1_5__-1
  6
CONTINUOUS
 62
     1
 10
1263.08870009575
 20
922.4081675294087
 30
0.0
  0
VERTEX
  5
553
  8
1_5__-1
  6
CONTINUOUS
 62
     1
 10
1263.164031290771
 20
922.4309603659763
 30
0.0
  0
VERTEX
  5
554
  8
1_5__-1
  6
CONTINUOUS
 62
     1
 10
1263.239522989198
 20
922.453191998205
 30
0.0
  0
VERTEX
  5
555
  8
1_5__-1
  6
CONTINUOUS
 62
     1
 10
1263.315175191031
 20
922.4748624260951
 30
0.0
  0
VERTEX
  5
556
  8
1_5__-1
  6
CONTINUOUS
 62
     1
 10
1263.390987896268
 20
922.495971649646
 30
0.0
  0
VERTEX
  5
557
  8
1_5__-1
  6
CONTINUOUS
 62
     1
 10
1263.466961104911
 20
922.5165196688581
 30
0.0
  0
VERTEX
  5
558
  8
1_5__-1
  6
CONTINUOUS
 62
     1
 10
1263.543094816959
 20
922.536506483731
 30
0.0
  0
VERTEX
  5
559
  8
1_5__-1
  6
CONTINUOUS
 62
     1
 10
1263.619389032412
 20
922.5559320942652
 30
0.0
  0
VERTEX
  5
55A
  8
1_5__-1
  6
CONTINUOUS
 62
     1
 10
1263.69584375127
 20
922.5747965004607
 30
0.0
  0
VERTEX
  5
55B
  8
1_5__-1
  6
CONTINUOUS
 62
     1
 10
1263.772458973533
 20
922.593099702317
 30
0.0
  0
VERTEX
  5
55C
  8
1_5__-1
  6
CONTINUOUS
 62
     1
 10
1263.849234699202
 20
922.6108416998345
 30
0.0
  0
VERTEX
  5
55D
  8
1_5__-1
  6
CONTINUOUS
 62
     1
 10
1263.926170928276
 20
922.6280224930128
 30
0.0
  0
VERTEX
  5
55E
  8
1_5__-1
  6
CONTINUOUS
 62
     1
 10
1264.003267660755
 20
922.6446420818525
 30
0.0
  0
VERTEX
  5
55F
  8
1_5__-1
  6
CONTINUOUS
 62
     1
 10
1264.080524896639
 20
922.6607004663533
 30
0.0
  0
VERTEX
  5
560
  8
1_5__-1
  6
CONTINUOUS
 62
     1
 10
1264.157942635929
 20
922.676197646515
 30
0.0
  0
VERTEX
  5
561
  8
1_5__-1
  6
CONTINUOUS
 62
     1
 10
1264.235520878623
 20
922.6911336223379
 30
0.0
  0
VERTEX
  5
562
  8
1_5__-1
  6
CONTINUOUS
 62
     1
 10
1264.313259624723
 20
922.7055083938217
 30
0.0
  0
VERTEX
  5
563
  8
1_5__-1
  6
CONTINUOUS
 62
     1
 10
1264.391158874228
 20
922.7193219609667
 30
0.0
  0
VERTEX
  5
564
  8
1_5__-1
  6
CONTINUOUS
 62
     1
 10
1264.469218627138
 20
922.732574323773
 30
0.0
  0
VERTEX
  5
565
  8
1_5__-1
  6
CONTINUOUS
 62
     1
 10
1264.547438883454
 20
922.74526548224
 30
0.0
  0
VERTEX
  5
566
  8
1_5__-1
  6
CONTINUOUS
 62
     1
 10
1264.625819643174
 20
922.7573954363684
 30
0.0
  0
VERTEX
  5
567
  8
1_5__-1
  6
CONTINUOUS
 62
     1
 10
1264.7043609063
 20
922.7689641861575
 30
0.0
  0
VERTEX
  5
568
  8
1_5__-1
  6
CONTINUOUS
 62
     1
 10
1264.783062672831
 20
922.7799717316079
 30
0.0
  0
VERTEX
  5
569
  8
1_5__-1
  6
CONTINUOUS
 62
     1
 10
1264.861924942767
 20
922.7904180727191
 30
0.0
  0
VERTEX
  5
56A
  8
1_5__-1
  6
CONTINUOUS
 62
     1
 10
1264.940947716109
 20
922.8003032094916
 30
0.0
  0
VERTEX
  5
56B
  8
1_5__-1
  6
CONTINUOUS
 62
     1
 10
1265.020130992855
 20
922.8096271419254
 30
0.0
  0
VERTEX
  5
56C
  8
1_5__-1
  6
CONTINUOUS
 62
     1
 10
1265.099474773007
 20
922.8183898700204
 30
0.0
  0
VERTEX
  5
56D
  8
1_5__-1
  6
CONTINUOUS
 62
     1
 10
1265.178979056564
 20
922.8265913937762
 30
0.0
  0
VERTEX
  5
56E
  8
1_5__-1
  6
CONTINUOUS
 62
     1
 10
1265.258643843526
 20
922.8342317131928
 30
0.0
  0
VERTEX
  5
56F
  8
1_5__-1
  6
CONTINUOUS
 62
     1
 10
1265.338469133894
 20
922.8413108282707
 30
0.0
  0
VERTEX
  5
570
  8
1_5__-1
  6
CONTINUOUS
 62
     1
 10
1265.418454927667
 20
922.8478287390094
 30
0.0
  0
VERTEX
  5
571
  8
1_5__-1
  6
CONTINUOUS
 62
     1
 10
1265.498601224844
 20
922.8537854454098
 30
0.0
  0
VERTEX
  5
572
  8
1_5__-1
  6
CONTINUOUS
 62
     1
 10
1265.578908025427
 20
922.8591809474706
 30
0.0
  0
VERTEX
  5
573
  8
1_5__-1
  6
CONTINUOUS
 62
     1
 10
1265.659375329415
 20
922.8640152451931
 30
0.0
  0
VERTEX
  5
574
  8
1_5__-1
  6
CONTINUOUS
 62
     1
 10
1265.740003136809
 20
922.8682883385763
 30
0.0
  0
VERTEX
  5
575
  8
1_5__-1
  6
CONTINUOUS
 62
     1
 10
1265.820791447607
 20
922.8720002276209
 30
0.0
  0
VERTEX
  5
576
  8
1_5__-1
  6
CONTINUOUS
 62
     1
 10
1265.901740261811
 20
922.8751509123263
 30
0.0
  0
VERTEX
  5
577
  8
1_5__-1
  6
CONTINUOUS
 62
     1
 10
1265.98284957942
 20
922.8777403926929
 30
0.0
  0
VERTEX
  5
578
  8
1_5__-1
  6
CONTINUOUS
 62
     1
 10
1266.064119400434
 20
922.8797686687208
 30
0.0
  0
VERTEX
  5
579
  8
1_5__-1
  6
CONTINUOUS
 62
     1
 10
1266.145549724854
 20
922.881235740409
 30
0.0
  0
VERTEX
  5
57A
  8
1_5__-1
  6
CONTINUOUS
 62
     1
 10
1266.227140552678
 20
922.8821416077585
 30
0.0
  0
VERTEX
  5
57B
  8
1_5__-1
  6
CONTINUOUS
 62
     1
 10
1266.308891883908
 20
922.8824862707697
 30
0.0
  0
VERTEX
  5
57C
  8
1_5__-1
  6
CONTINUOUS
 62
     1
 10
1266.390642710721
 20
922.8822677275407
 30
0.0
  0
VERTEX
  5
57D
  8
1_5__-1
  6
CONTINUOUS
 62
     1
 10
1266.472232025295
 20
922.8814839761694
 30
0.0
  0
VERTEX
  5
57E
  8
1_5__-1
  6
CONTINUOUS
 62
     1
 10
1266.55365982763
 20
922.8801350166573
 30
0.0
  0
VERTEX
  5
57F
  8
1_5__-1
  6
CONTINUOUS
 62
     1
 10
1266.634926117727
 20
922.8782208490034
 30
0.0
  0
VERTEX
  5
580
  8
1_5__-1
  6
CONTINUOUS
 62
     1
 10
1266.716030895584
 20
922.8757414732077
 30
0.0
  0
VERTEX
  5
581
  8
1_5__-1
  6
CONTINUOUS
 62
     1
 10
1266.796974161202
 20
922.8726968892711
 30
0.0
  0
VERTEX
  5
582
  8
1_5__-1
  6
CONTINUOUS
 62
     1
 10
1266.877755914582
 20
922.8690870971927
 30
0.0
  0
VERTEX
  5
583
  8
1_5__-1
  6
CONTINUOUS
 62
     1
 10
1266.958376155722
 20
922.8649120969726
 30
0.0
  0
VERTEX
  5
584
  8
1_5__-1
  6
CONTINUOUS
 62
     1
 10
1267.038834884624
 20
922.8601718886111
 30
0.0
  0
VERTEX
  5
585
  8
1_5__-1
  6
CONTINUOUS
 62
     1
 10
1267.119132101287
 20
922.8548664721084
 30
0.0
  0
VERTEX
  5
586
  8
1_5__-1
  6
CONTINUOUS
 62
     1
 10
1267.199267805711
 20
922.8489958474638
 30
0.0
  0
VERTEX
  5
587
  8
1_5__-1
  6
CONTINUOUS
 62
     1
 10
1267.279241997896
 20
922.8425600146779
 30
0.0
  0
VERTEX
  5
588
  8
1_5__-1
  6
CONTINUOUS
 62
     1
 10
1267.359054677842
 20
922.8355589737507
 30
0.0
  0
VERTEX
  5
589
  8
1_5__-1
  6
CONTINUOUS
 62
     1
 10
1267.438705845549
 20
922.8279927246817
 30
0.0
  0
VERTEX
  5
58A
  8
1_5__-1
  6
CONTINUOUS
 62
     1
 10
1267.518195501017
 20
922.819861267471
 30
0.0
  0
VERTEX
  5
58B
  8
1_5__-1
  6
CONTINUOUS
 62
     1
 10
1267.597523644247
 20
922.8111646021189
 30
0.0
  0
VERTEX
  5
58C
  8
1_5__-1
  6
CONTINUOUS
 62
     1
 10
1267.676690275237
 20
922.8019027286255
 30
0.0
  0
VERTEX
  5
58D
  8
1_5__-1
  6
CONTINUOUS
 62
     1
 10
1267.755695393989
 20
922.7920756469903
 30
0.0
  0
VERTEX
  5
58E
  8
1_5__-1
  6
CONTINUOUS
 62
     1
 10
1267.834539000501
 20
922.7816833572138
 30
0.0
  0
VERTEX
  5
58F
  8
1_5__-1
  6
CONTINUOUS
 62
     1
 10
1267.913221094775
 20
922.7707258592959
 30
0.0
  0
VERTEX
  5
590
  8
1_5__-1
  6
CONTINUOUS
 62
     1
 10
1267.99174167681
 20
922.7592031532363
 30
0.0
  0
VERTEX
  5
591
  8
1_5__-1
  6
CONTINUOUS
 62
     1
 10
1268.070100746606
 20
922.7471152390353
 30
0.0
  0
VERTEX
  5
592
  8
1_5__-1
  6
CONTINUOUS
 62
     1
 10
1268.148298304163
 20
922.7344621166926
 30
0.0
  0
VERTEX
  5
593
  8
1_5__-1
  6
CONTINUOUS
 62
     1
 10
1268.226334349481
 20
922.7212437862086
 30
0.0
  0
VERTEX
  5
594
  8
1_5__-1
  6
CONTINUOUS
 62
     1
 10
1268.30420888256
 20
922.7074602475827
 30
0.0
  0
VERTEX
  5
595
  8
1_5__-1
  6
CONTINUOUS
 62
     1
 10
1268.381921903401
 20
922.693111500816
 30
0.0
  0
VERTEX
  5
596
  8
1_5__-1
  6
CONTINUOUS
 62
     1
 10
1268.459473412002
 20
922.6781975459076
 30
0.0
  0
VERTEX
  5
597
  8
1_5__-1
  6
CONTINUOUS
 62
     1
 10
1268.536863408365
 20
922.6627183828573
 30
0.0
  0
VERTEX
  5
598
  8
1_5__-1
  6
CONTINUOUS
 62
     1
 10
1268.614091892488
 20
922.6466740116653
 30
0.0
  0
VERTEX
  5
599
  8
1_5__-1
  6
CONTINUOUS
 62
     1
 10
1268.691158864373
 20
922.6300644323323
 30
0.0
  0
VERTEX
  5
59A
  8
1_5__-1
  6
CONTINUOUS
 62
     1
 10
1268.768064324019
 20
922.6128896448577
 30
0.0
  0
VERTEX
  5
59B
  8
1_5__-1
  6
CONTINUOUS
 62
     1
 10
1268.844808271426
 20
922.5951496492416
 30
0.0
  0
VERTEX
  5
59C
  8
1_5__-1
  6
CONTINUOUS
 62
     1
 10
1268.921390706594
 20
922.5768444454839
 30
0.0
  0
VERTEX
  5
59D
  8
1_5__-1
  6
CONTINUOUS
 62
     1
 10
1268.997811629523
 20
922.5579740335847
 30
0.0
  0
VERTEX
  5
59E
  8
1_5__-1
  6
CONTINUOUS
 62
     1
 10
1269.074071040213
 20
922.5385384135438
 30
0.0
  0
VERTEX
  5
59F
  8
1_5__-1
  6
CONTINUOUS
 62
     1
 10
1269.150168938665
 20
922.5185375853621
 30
0.0
  0
VERTEX
  5
5A0
  8
1_5__-1
  6
CONTINUOUS
 62
     1
 10
1269.226105324877
 20
922.4979715490381
 30
0.0
  0
VERTEX
  5
5A1
  8
1_5__-1
  6
CONTINUOUS
 62
     1
 10
1269.30188019885
 20
922.4768403045732
 30
0.0
  0
VERTEX
  5
5A2
  8
1_5__-1
  6
CONTINUOUS
 62
     1
 10
1269.377493560585
 20
922.4551438519661
 30
0.0
  0
VERTEX
  5
5A3
  8
1_5__-1
  6
CONTINUOUS
 62
     1
 10
1269.452945410081
 20
922.4328821912181
 30
0.0
  0
VERTEX
  5
5A4
  8
1_5__-1
  6
CONTINUOUS
 62
     1
 10
1269.528235747337
 20
922.4100553223284
 30
0.0
  0
VERTEX
  5
5A5
  8
1_5__-1
  6
CONTINUOUS
 62
     1
 10
1269.603364572355
 20
922.3866632452973
 30
0.0
  0
VERTEX
  5
5A6
  8
1_5__-1
  6
CONTINUOUS
 62
     1
 10
1269.678331885134
 20
922.3627059601245
 30
0.0
  0
VERTEX
  5
5A7
  8
1_5__-1
  6
CONTINUOUS
 62
     1
 10
1269.753137685674
 20
922.3381834668103
 30
0.0
  0
VERTEX
  5
5A8
  8
1_5__-1
  6
CONTINUOUS
 62
     1
 10
1269.827781973976
 20
922.3130957653543
 30
0.0
  0
VERTEX
  5
5A9
  8
1_5__-1
  6
CONTINUOUS
 62
     1
 10
1269.902264750038
 20
922.287442855757
 30
0.0
  0
VERTEX
  5
5AA
  8
1_5__-1
  6
CONTINUOUS
 62
     1
 10
1269.976586013861
 20
922.261224738018
 30
0.0
  0
VERTEX
  5
5AB
  8
1_5__-1
  6
CONTINUOUS
 62
     1
 10
1270.050745765446
 20
922.234441412138
 30
0.0
  0
VERTEX
  5
5AC
  8
1_5__-1
  6
CONTINUOUS
 62
     1
 10
1270.124744004791
 20
922.2070928781163
 30
0.0
  0
VERTEX
  5
5AD
  8
1_5__-1
  6
CONTINUOUS
 62
     1
 10
1270.198580731898
 20
922.1791791359533
 30
0.0
  0
VERTEX
  5
5AE
  8
1_5__-1
  6
CONTINUOUS
 62
     1
 10
1270.272255946766
 20
922.150700185648
 30
0.0
  0
VERTEX
  5
5AF
  8
1_5__-1
  6
CONTINUOUS
 62
     1
 10
1270.345769649394
 20
922.1216560272019
 30
0.0
  0
VERTEX
  5
5B0
  8
1_5__-1
  6
CONTINUOUS
 62
     1
 10
1270.419121839784
 20
922.0920466606144
 30
0.0
  0
VERTEX
  5
5B1
  8
1_5__-1
  6
CONTINUOUS
 62
     1
 10
1270.492312517935
 20
922.0618720858847
 30
0.0
  0
VERTEX
  5
5B2
  8
1_5__-1
  6
CONTINUOUS
 62
     1
 10
1270.565341683848
 20
922.0311323030141
 30
0.0
  0
VERTEX
  5
5B3
  8
1_5__-1
  6
CONTINUOUS
 62
     1
 10
1270.638209337521
 20
921.9998273120013
 30
0.0
  0
VERTEX
  5
5B4
  8
1_5__-1
  6
CONTINUOUS
 62
     1
 10
1270.710915478955
 20
921.9679571128472
 30
0.0
  0
VERTEX
  5
5B5
  8
1_5__-1
  6
CONTINUOUS
 62
     1
 10
1270.783460108151
 20
921.9355217055522
 30
0.0
  0
VERTEX
  5
5B6
  8
1_5__-1
  6
CONTINUOUS
 62
     1
 10
1270.855843225107
 20
921.902521090115
 30
0.0
  0
VERTEX
  5
5B7
  8
1_5__-1
  6
CONTINUOUS
 62
     1
 10
1270.928064829825
 20
921.8689552665369
 30
0.0
  0
VERTEX
  5
5B8
  8
1_5__-1
  6
CONTINUOUS
 62
     1
 10
1271.000124922303
 20
921.834824234817
 30
0.0
  0
VERTEX
  5
5B9
  8
1_5__-1
  6
CONTINUOUS
 62
     1
 10
1271.072023502543
 20
921.8001279949553
 30
0.0
  0
VERTEX
  5
5BA
  8
1_5__-1
  6
CONTINUOUS
 62
     1
 10
1271.143760570544
 20
921.7648665469524
 30
0.0
  0
VERTEX
  5
5BB
  8
1_5__-1
  6
CONTINUOUS
 62
     1
 10
1271.215336126306
 20
921.729039890808
 30
0.0
  0
VERTEX
  5
5BC
  8
1_5__-1
  6
CONTINUOUS
 62
     1
 10
1271.215336126306
 20
921.729039890808
 30
0.0
  0
SEQEND
  5
5BD
  8
1_5__-1
  6
CONTINUOUS
 62
     1
  0
POLYLINE
  5
5BE
  8
1_5__-1
  6
CONTINUOUS
 62
     1
 66
     1
 10
0.0
 20
0.0
 30
0.0
 70
   128
  0
VERTEX
  5
5BF
  8
1_5__-1
  6
CONTINUOUS
 62
     1
 10
1271.215336126306
 20
921.729039890808
 30
0.0
  0
VERTEX
  5
5C0
  8
1_5__-1
  6
CONTINUOUS
 62
     1
 10
1271.246902060489
 20
921.7604269841327
 30
0.0
  0
VERTEX
  5
5C1
  8
1_5__-1
  6
CONTINUOUS
 62
     1
 10
1271.278683278863
 20
921.7913200340813
 30
0.0
  0
VERTEX
  5
5C2
  8
1_5__-1
  6
CONTINUOUS
 62
     1
 10
1271.310679781428
 20
921.8217190406554
 30
0.0
  0
VERTEX
  5
5C3
  8
1_5__-1
  6
CONTINUOUS
 62
     1
 10
1271.342891568185
 20
921.8516240038539
 30
0.0
  0
VERTEX
  5
5C4
  8
1_5__-1
  6
CONTINUOUS
 62
     1
 10
1271.375318639132
 20
921.8810349236769
 30
0.0
  0
VERTEX
  5
5C5
  8
1_5__-1
  6
CONTINUOUS
 62
     1
 10
1271.407960994271
 20
921.9099518001249
 30
0.0
  0
VERTEX
  5
5C6
  8
1_5__-1
  6
CONTINUOUS
 62
     1
 10
1271.440818633601
 20
921.9383746331973
 30
0.0
  0
VERTEX
  5
5C7
  8
1_5__-1
  6
CONTINUOUS
 62
     1
 10
1271.473891557122
 20
921.9663034228947
 30
0.0
  0
VERTEX
  5
5C8
  8
1_5__-1
  6
CONTINUOUS
 62
     1
 10
1271.507179764834
 20
921.9937381692166
 30
0.0
  0
VERTEX
  5
5C9
  8
1_5__-1
  6
CONTINUOUS
 62
     1
 10
1271.540683256737
 20
922.0206788721634
 30
0.0
  0
VERTEX
  5
5CA
  8
1_5__-1
  6
CONTINUOUS
 62
     1
 10
1271.574402032832
 20
922.0471255317348
 30
0.0
  0
VERTEX
  5
5CB
  8
1_5__-1
  6
CONTINUOUS
 62
     1
 10
1271.608336093117
 20
922.073078147931
 30
0.0
  0
VERTEX
  5
5CC
  8
1_5__-1
  6
CONTINUOUS
 62
     1
 10
1271.642485437594
 20
922.0985367207518
 30
0.0
  0
VERTEX
  5
5CD
  8
1_5__-1
  6
CONTINUOUS
 62
     1
 10
1271.676850066262
 20
922.1235012501975
 30
0.0
  0
VERTEX
  5
5CE
  8
1_5__-1
  6
CONTINUOUS
 62
     1
 10
1271.711429979121
 20
922.1479717362677
 30
0.0
  0
VERTEX
  5
5CF
  8
1_5__-1
  6
CONTINUOUS
 62
     1
 10
1271.746225176172
 20
922.1719481789632
 30
0.0
  0
VERTEX
  5
5D0
  8
1_5__-1
  6
CONTINUOUS
 62
     1
 10
1271.781235657413
 20
922.1954305782833
 30
0.0
  0
VERTEX
  5
5D1
  8
1_5__-1
  6
CONTINUOUS
 62
     1
 10
1271.816461422846
 20
922.2184189342279
 30
0.0
  0
VERTEX
  5
5D2
  8
1_5__-1
  6
CONTINUOUS
 62
     1
 10
1271.851902472469
 20
922.2409132467969
 30
0.0
  0
VERTEX
  5
5D3
  8
1_5__-1
  6
CONTINUOUS
 62
     1
 10
1271.887558806284
 20
922.2629135159909
 30
0.0
  0
VERTEX
  5
5D4
  8
1_5__-1
  6
CONTINUOUS
 62
     1
 10
1271.92343042429
 20
922.2844197418094
 30
0.0
  0
VERTEX
  5
5D5
  8
1_5__-1
  6
CONTINUOUS
 62
     1
 10
1271.959517326488
 20
922.3054319242533
 30
0.0
  0
VERTEX
  5
5D6
  8
1_5__-1
  6
CONTINUOUS
 62
     1
 10
1271.995819512876
 20
922.3259500633217
 30
0.0
  0
VERTEX
  5
5D7
  8
1_5__-1
  6
CONTINUOUS
 62
     1
 10
1272.032336983456
 20
922.3459741590145
 30
0.0
  0
VERTEX
  5
5D8
  8
1_5__-1
  6
CONTINUOUS
 62
     1
 10
1272.069069738226
 20
922.3655042113319
 30
0.0
  0
VERTEX
  5
5D9
  8
1_5__-1
  6
CONTINUOUS
 62
     1
 10
1272.106017777188
 20
922.3845402202742
 30
0.0
  0
VERTEX
  5
5DA
  8
1_5__-1
  6
CONTINUOUS
 62
     1
 10
1272.143181100341
 20
922.4030821858414
 30
0.0
  0
VERTEX
  5
5DB
  8
1_5__-1
  6
CONTINUOUS
 62
     1
 10
1272.180559707685
 20
922.4211301080331
 30
0.0
  0
VERTEX
  5
5DC
  8
1_5__-1
  6
CONTINUOUS
 62
     1
 10
1272.218153599221
 20
922.4386839868498
 30
0.0
  0
VERTEX
  5
5DD
  8
1_5__-1
  6
CONTINUOUS
 62
     1
 10
1272.255962774947
 20
922.455743822291
 30
0.0
  0
VERTEX
  5
5DE
  8
1_5__-1
  6
CONTINUOUS
 62
     1
 10
1272.293987234865
 20
922.4723096143566
 30
0.0
  0
VERTEX
  5
5DF
  8
1_5__-1
  6
CONTINUOUS
 62
     1
 10
1272.332226978974
 20
922.4883813630477
 30
0.0
  0
VERTEX
  5
5E0
  8
1_5__-1
  6
CONTINUOUS
 62
     1
 10
1272.370682007274
 20
922.5039590683632
 30
0.0
  0
VERTEX
  5
5E1
  8
1_5__-1
  6
CONTINUOUS
 62
     1
 10
1272.409352319765
 20
922.5190427303032
 30
0.0
  0
VERTEX
  5
5E2
  8
1_5__-1
  6
CONTINUOUS
 62
     1
 10
1272.448237916447
 20
922.5336323488682
 30
0.0
  0
VERTEX
  5
5E3
  8
1_5__-1
  6
CONTINUOUS
 62
     1
 10
1272.48733879732
 20
922.5477279240577
 30
0.0
  0
VERTEX
  5
5E4
  8
1_5__-1
  6
CONTINUOUS
 62
     1
 10
1272.526654962385
 20
922.561329455872
 30
0.0
  0
VERTEX
  5
5E5
  8
1_5__-1
  6
CONTINUOUS
 62
     1
 10
1272.566186411641
 20
922.5744369443114
 30
0.0
  0
VERTEX
  5
5E6
  8
1_5__-1
  6
CONTINUOUS
 62
     1
 10
1272.605933145088
 20
922.5870503893752
 30
0.0
  0
VERTEX
  5
5E7
  8
1_5__-1
  6
CONTINUOUS
 62
     1
 10
1272.645895162726
 20
922.5991697910636
 30
0.0
  0
VERTEX
  5
5E8
  8
1_5__-1
  6
CONTINUOUS
 62
     1
 10
1272.686072464555
 20
922.6107951493764
 30
0.0
  0
VERTEX
  5
5E9
  8
1_5__-1
  6
CONTINUOUS
 62
     1
 10
1272.726465050575
 20
922.6219264643146
 30
0.0
  0
VERTEX
  5
5EA
  8
1_5__-1
  6
CONTINUOUS
 62
     1
 10
1272.767072920787
 20
922.6325637358773
 30
0.0
  0
VERTEX
  5
5EB
  8
1_5__-1
  6
CONTINUOUS
 62
     1
 10
1272.80789607519
 20
922.6427069640645
 30
0.0
  0
VERTEX
  5
5EC
  8
1_5__-1
  6
CONTINUOUS
 62
     1
 10
1272.848934513783
 20
922.6523561488766
 30
0.0
  0
VERTEX
  5
5ED
  8
1_5__-1
  6
CONTINUOUS
 62
     1
 10
1272.890188236569
 20
922.6615112903132
 30
0.0
  0
VERTEX
  5
5EE
  8
1_5__-1
  6
CONTINUOUS
 62
     1
 10
1272.931657243545
 20
922.6701723883748
 30
0.0
  0
VERTEX
  5
5EF
  8
1_5__-1
  6
CONTINUOUS
 62
     1
 10
1272.973341534712
 20
922.6783394430613
 30
0.0
  0
VERTEX
  5
5F0
  8
1_5__-1
  6
CONTINUOUS
 62
     1
 10
1273.015241110071
 20
922.6860124543723
 30
0.0
  0
VERTEX
  5
5F1
  8
1_5__-1
  6
CONTINUOUS
 62
     1
 10
1273.05735596962
 20
922.6931914223082
 30
0.0
  0
VERTEX
  5
5F2
  8
1_5__-1
  6
CONTINUOUS
 62
     1
 10
1273.099686113361
 20
922.6998763468682
 30
0.0
  0
VERTEX
  5
5F3
  8
1_5__-1
  6
CONTINUOUS
 62
     1
 10
1273.142231541293
 20
922.7060672280536
 30
0.0
  0
VERTEX
  5
5F4
  8
1_5__-1
  6
CONTINUOUS
 62
     1
 10
1273.184992253416
 20
922.7117640658639
 30
0.0
  0
VERTEX
  5
5F5
  8
1_5__-1
  6
CONTINUOUS
 62
     1
 10
1273.22796824973
 20
922.7169668602983
 30
0.0
  0
VERTEX
  5
5F6
  8
1_5__-1
  6
CONTINUOUS
 62
     1
 10
1273.271159530236
 20
922.721675611358
 30
0.0
  0
VERTEX
  5
5F7
  8
1_5__-1
  6
CONTINUOUS
 62
     1
 10
1273.314566094932
 20
922.7258903190418
 30
0.0
  0
VERTEX
  5
5F8
  8
1_5__-1
  6
CONTINUOUS
 62
     1
 10
1273.35818794382
 20
922.7296109833505
 30
0.0
  0
VERTEX
  5
5F9
  8
1_5__-1
  6
CONTINUOUS
 62
     1
 10
1273.402025076899
 20
922.7328376042842
 30
0.0
  0
VERTEX
  5
5FA
  8
1_5__-1
  6
CONTINUOUS
 62
     1
 10
1273.446077494169
 20
922.7355701818424
 30
0.0
  0
VERTEX
  5
5FB
  8
1_5__-1
  6
CONTINUOUS
 62
     1
 10
1273.49034519563
 20
922.7378087160255
 30
0.0
  0
VERTEX
  5
5FC
  8
1_5__-1
  6
CONTINUOUS
 62
     1
 10
1273.534828181283
 20
922.7395532068326
 30
0.0
  0
VERTEX
  5
5FD
  8
1_5__-1
  6
CONTINUOUS
 62
     1
 10
1273.579526451126
 20
922.7408036542652
 30
0.0
  0
VERTEX
  5
5FE
  8
1_5__-1
  6
CONTINUOUS
 62
     1
 10
1273.624440005161
 20
922.7415600583222
 30
0.0
  0
VERTEX
  5
5FF
  8
1_5__-1
  6
CONTINUOUS
 62
     1
 10
1273.669568843387
 20
922.7418224190042
 30
0.0
  0
VERTEX
  5
600
  8
1_5__-1
  6
CONTINUOUS
 62
     1
 10
1273.714697440366
 20
922.7415902569674
 30
0.0
  0
VERTEX
  5
601
  8
1_5__-1
  6
CONTINUOUS
 62
     1
 10
1273.759610270661
 20
922.7408630928676
 30
0.0
  0
VERTEX
  5
602
  8
1_5__-1
  6
CONTINUOUS
 62
     1
 10
1273.804307334271
 20
922.7396409267053
 30
0.0
  0
VERTEX
  5
603
  8
1_5__-1
  6
CONTINUOUS
 62
     1
 10
1273.848788631198
 20
922.7379237584814
 30
0.0
  0
VERTEX
  5
604
  8
1_5__-1
  6
CONTINUOUS
 62
     1
 10
1273.89305416144
 20
922.7357115881946
 30
0.0
  0
VERTEX
  5
605
  8
1_5__-1
  6
CONTINUOUS
 62
     1
 10
1273.937103924997
 20
922.7330044158457
 30
0.0
  0
VERTEX
  5
606
  8
1_5__-1
  6
CONTINUOUS
 62
     1
 10
1273.98093792187
 20
922.7298022414343
 30
0.0
  0
VERTEX
  5
607
  8
1_5__-1
  6
CONTINUOUS
 62
     1
 10
1274.024556152059
 20
922.7261050649608
 30
0.0
  0
VERTEX
  5
608
  8
1_5__-1
  6
CONTINUOUS
 62
     1
 10
1274.067958615563
 20
922.721912886424
 30
0.0
  0
VERTEX
  5
609
  8
1_5__-1
  6
CONTINUOUS
 62
     1
 10
1274.111145312384
 20
922.7172257058255
 30
0.0
  0
VERTEX
  5
60A
  8
1_5__-1
  6
CONTINUOUS
 62
     1
 10
1274.154116242519
 20
922.7120435231645
 30
0.0
  0
VERTEX
  5
60B
  8
1_5__-1
  6
CONTINUOUS
 62
     1
 10
1274.196871405971
 20
922.7063663384411
 30
0.0
  0
VERTEX
  5
60C
  8
1_5__-1
  6
CONTINUOUS
 62
     1
 10
1274.239410802738
 20
922.7001941516551
 30
0.0
  0
VERTEX
  5
60D
  8
1_5__-1
  6
CONTINUOUS
 62
     1
 10
1274.281734432821
 20
922.6935269628061
 30
0.0
  0
VERTEX
  5
60E
  8
1_5__-1
  6
CONTINUOUS
 62
     1
 10
1274.323842296219
 20
922.6863647718951
 30
0.0
  0
VERTEX
  5
60F
  8
1_5__-1
  6
CONTINUOUS
 62
     1
 10
1274.365734392933
 20
922.6787075789225
 30
0.0
  0
VERTEX
  5
610
  8
1_5__-1
  6
CONTINUOUS
 62
     1
 10
1274.407410722963
 20
922.670555383887
 30
0.0
  0
VERTEX
  5
611
  8
1_5__-1
  6
CONTINUOUS
 62
     1
 10
1274.448871286308
 20
922.6619081867889
 30
0.0
  0
VERTEX
  5
612
  8
1_5__-1
  6
CONTINUOUS
 62
     1
 10
1274.49011608297
 20
922.6527659876288
 30
0.0
  0
VERTEX
  5
613
  8
1_5__-1
  6
CONTINUOUS
 62
     1
 10
1274.531145112946
 20
922.6431287864057
 30
0.0
  0
VERTEX
  5
614
  8
1_5__-1
  6
CONTINUOUS
 62
     1
 10
1274.571958376238
 20
922.6329965831201
 30
0.0
  0
VERTEX
  5
615
  8
1_5__-1
  6
CONTINUOUS
 62
     1
 10
1274.612555872847
 20
922.6223693777724
 30
0.0
  0
VERTEX
  5
616
  8
1_5__-1
  6
CONTINUOUS
 62
     1
 10
1274.65293760277
 20
922.6112471703623
 30
0.0
  0
VERTEX
  5
617
  8
1_5__-1
  6
CONTINUOUS
 62
     1
 10
1274.69310356601
 20
922.5996299608901
 30
0.0
  0
VERTEX
  5
618
  8
1_5__-1
  6
CONTINUOUS
 62
     1
 10
1274.733053762564
 20
922.5875177493549
 30
0.0
  0
VERTEX
  5
619
  8
1_5__-1
  6
CONTINUOUS
 62
     1
 10
1274.772788192435
 20
922.5749105357577
 30
0.0
  0
VERTEX
  5
61A
  8
1_5__-1
  6
CONTINUOUS
 62
     1
 10
1274.812306855621
 20
922.561808320098
 30
0.0
  0
VERTEX
  5
61B
  8
1_5__-1
  6
CONTINUOUS
 62
     1
 10
1274.851609752123
 20
922.5482111023757
 30
0.0
  0
VERTEX
  5
61C
  8
1_5__-1
  6
CONTINUOUS
 62
     1
 10
1274.890696881941
 20
922.534118882591
 30
0.0
  0
VERTEX
  5
61D
  8
1_5__-1
  6
CONTINUOUS
 62
     1
 10
1274.929568245074
 20
922.5195316607442
 30
0.0
  0
VERTEX
  5
61E
  8
1_5__-1
  6
CONTINUOUS
 62
     1
 10
1274.968223841523
 20
922.5044494368349
 30
0.0
  0
VERTEX
  5
61F
  8
1_5__-1
  6
CONTINUOUS
 62
     1
 10
1275.006663671287
 20
922.4888722108626
 30
0.0
  0
VERTEX
  5
620
  8
1_5__-1
  6
CONTINUOUS
 62
     1
 10
1275.044887734368
 20
922.4727999828278
 30
0.0
  0
VERTEX
  5
621
  8
1_5__-1
  6
CONTINUOUS
 62
     1
 10
1275.082896030764
 20
922.4562327527315
 30
0.0
  0
VERTEX
  5
622
  8
1_5__-1
  6
CONTINUOUS
 62
     1
 10
1275.120688560475
 20
922.4391705205721
 30
0.0
  0
VERTEX
  5
623
  8
1_5__-1
  6
CONTINUOUS
 62
     1
 10
1275.158265323502
 20
922.4216132863512
 30
0.0
  0
VERTEX
  5
624
  8
1_5__-1
  6
CONTINUOUS
 62
     1
 10
1275.195626319845
 20
922.4035610500673
 30
0.0
  0
VERTEX
  5
625
  8
1_5__-1
  6
CONTINUOUS
 62
     1
 10
1275.232771549503
 20
922.3850138117209
 30
0.0
  0
VERTEX
  5
626
  8
1_5__-1
  6
CONTINUOUS
 62
     1
 10
1275.269701012478
 20
922.3659715713125
 30
0.0
  0
VERTEX
  5
627
  8
1_5__-1
  6
CONTINUOUS
 62
     1
 10
1275.306414708768
 20
922.346434328841
 30
0.0
  0
VERTEX
  5
628
  8
1_5__-1
  6
CONTINUOUS
 62
     1
 10
1275.342912638373
 20
922.3264020843071
 30
0.0
  0
VERTEX
  5
629
  8
1_5__-1
  6
CONTINUOUS
 62
     1
 10
1275.379194801294
 20
922.3058748377111
 30
0.0
  0
VERTEX
  5
62A
  8
1_5__-1
  6
CONTINUOUS
 62
     1
 10
1275.415261197531
 20
922.2848525890527
 30
0.0
  0
VERTEX
  5
62B
  8
1_5__-1
  6
CONTINUOUS
 62
     1
 10
1275.451111827083
 20
922.2633353383321
 30
0.0
  0
VERTEX
  5
62C
  8
1_5__-1
  6
CONTINUOUS
 62
     1
 10
1275.486746689951
 20
922.2413230855486
 30
0.0
  0
VERTEX
  5
62D
  8
1_5__-1
  6
CONTINUOUS
 62
     1
 10
1275.522165786135
 20
922.2188158307031
 30
0.0
  0
VERTEX
  5
62E
  8
1_5__-1
  6
CONTINUOUS
 62
     1
 10
1275.557369115634
 20
922.195813573795
 30
0.0
  0
VERTEX
  5
62F
  8
1_5__-1
  6
CONTINUOUS
 62
     1
 10
1275.59235667845
 20
922.1723163148245
 30
0.0
  0
VERTEX
  5
630
  8
1_5__-1
  6
CONTINUOUS
 62
     1
 10
1275.62712847458
 20
922.1483240537914
 30
0.0
  0
VERTEX
  5
631
  8
1_5__-1
  6
CONTINUOUS
 62
     1
 10
1275.661684504026
 20
922.1238367906963
 30
0.0
  0
VERTEX
  5
632
  8
1_5__-1
  6
CONTINUOUS
 62
     1
 10
1275.696024766788
 20
922.0988545255386
 30
0.0
  0
VERTEX
  5
633
  8
1_5__-1
  6
CONTINUOUS
 62
     1
 10
1275.730149262866
 20
922.0733772583185
 30
0.0
  0
VERTEX
  5
634
  8
1_5__-1
  6
CONTINUOUS
 62
     1
 10
1275.764057992259
 20
922.0474049890358
 30
0.0
  0
VERTEX
  5
635
  8
1_5__-1
  6
CONTINUOUS
 62
     1
 10
1275.797750954968
 20
922.0209377176911
 30
0.0
  0
VERTEX
  5
636
  8
1_5__-1
  6
CONTINUOUS
 62
     1
 10
1275.831228150993
 20
921.9939754442835
 30
0.0
  0
VERTEX
  5
637
  8
1_5__-1
  6
CONTINUOUS
 62
     1
 10
1275.864489580333
 20
921.9665181688138
 30
0.0
  0
VERTEX
  5
638
  8
1_5__-1
  6
CONTINUOUS
 62
     1
 10
1275.897535242989
 20
921.9385658912811
 30
0.0
  0
VERTEX
  5
639
  8
1_5__-1
  6
CONTINUOUS
 62
     1
 10
1275.930365138961
 20
921.9101186116864
 30
0.0
  0
VERTEX
  5
63A
  8
1_5__-1
  6
CONTINUOUS
 62
     1
 10
1275.962979268248
 20
921.8811763300296
 30
0.0
  0
VERTEX
  5
63B
  8
1_5__-1
  6
CONTINUOUS
 62
     1
 10
1275.995377630851
 20
921.8517390463098
 30
0.0
  0
VERTEX
  5
63C
  8
1_5__-1
  6
CONTINUOUS
 62
     1
 10
1276.027560226769
 20
921.821806760528
 30
0.0
  0
VERTEX
  5
63D
  8
1_5__-1
  6
CONTINUOUS
 62
     1
 10
1276.059527056003
 20
921.7913794726842
 30
0.0
  0
VERTEX
  5
63E
  8
1_5__-1
  6
CONTINUOUS
 62
     1
 10
1276.091278118553
 20
921.7604571827774
 30
0.0
  0
VERTEX
  5
63F
  8
1_5__-1
  6
CONTINUOUS
 62
     1
 10
1276.122813414419
 20
921.729039890808
 30
0.0
  0
VERTEX
  5
640
  8
1_5__-1
  6
CONTINUOUS
 62
     1
 10
1276.122813414419
 20
921.729039890808
 30
0.0
  0
SEQEND
  5
641
  8
1_5__-1
  6
CONTINUOUS
 62
     1
  0
POLYLINE
  5
642
  8
1_5__-1
  6
CONTINUOUS
 62
     1
 66
     1
 10
0.0
 20
0.0
 30
0.0
 70
   128
  0
VERTEX
  5
643
  8
1_5__-1
  6
CONTINUOUS
 62
     1
 10
1271.215336126306
 20
916.729039890808
 30
0.0
  0
VERTEX
  5
644
  8
1_5__-1
  6
CONTINUOUS
 62
     1
 10
1271.246902060489
 20
916.6976527974853
 30
0.0
  0
VERTEX
  5
645
  8
1_5__-1
  6
CONTINUOUS
 62
     1
 10
1271.278683278863
 20
916.6667597475384
 30
0.0
  0
VERTEX
  5
646
  8
1_5__-1
  6
CONTINUOUS
 62
     1
 10
1271.310679781428
 20
916.6363607409662
 30
0.0
  0
VERTEX
  5
647
  8
1_5__-1
  6
CONTINUOUS
 62
     1
 10
1271.342891568185
 20
916.6064557777695
 30
0.0
  0
VERTEX
  5
648
  8
1_5__-1
  6
CONTINUOUS
 62
     1
 10
1271.375318639132
 20
916.5770448579483
 30
0.0
  0
VERTEX
  5
649
  8
1_5__-1
  6
CONTINUOUS
 62
     1
 10
1271.407960994271
 20
916.5481279815017
 30
0.0
  0
VERTEX
  5
64A
  8
1_5__-1
  6
CONTINUOUS
 62
     1
 10
1271.4408186336
 20
916.5197051484306
 30
0.0
  0
VERTEX
  5
64B
  8
1_5__-1
  6
CONTINUOUS
 62
     1
 10
1271.473891557122
 20
916.491776358735
 30
0.0
  0
VERTEX
  5
64C
  8
1_5__-1
  6
CONTINUOUS
 62
     1
 10
1271.507179764834
 20
916.464341612415
 30
0.0
  0
VERTEX
  5
64D
  8
1_5__-1
  6
CONTINUOUS
 62
     1
 10
1271.540683256737
 20
916.4374009094695
 30
0.0
  0
VERTEX
  5
64E
  8
1_5__-1
  6
CONTINUOUS
 62
     1
 10
1271.574402032831
 20
916.4109542498995
 30
0.0
  0
VERTEX
  5
64F
  8
1_5__-1
  6
CONTINUOUS
 62
     1
 10
1271.608336093117
 20
916.3850016337051
 30
0.0
  0
VERTEX
  5
650
  8
1_5__-1
  6
CONTINUOUS
 62
     1
 10
1271.642485437594
 20
916.3595430608852
 30
0.0
  0
VERTEX
  5
651
  8
1_5__-1
  6
CONTINUOUS
 62
     1
 10
1271.676850066262
 20
916.3345785314409
 30
0.0
  0
VERTEX
  5
652
  8
1_5__-1
  6
CONTINUOUS
 62
     1
 10
1271.711429979121
 20
916.3101080453721
 30
0.0
  0
VERTEX
  5
653
  8
1_5__-1
  6
CONTINUOUS
 62
     1
 10
1271.746225176171
 20
916.2861316026783
 30
0.0
  0
VERTEX
  5
654
  8
1_5__-1
  6
CONTINUOUS
 62
     1
 10
1271.781235657412
 20
916.2626492033596
 30
0.0
  0
VERTEX
  5
655
  8
1_5__-1
  6
CONTINUOUS
 62
     1
 10
1271.816461422845
 20
916.2396608474164
 30
0.0
  0
VERTEX
  5
656
  8
1_5__-1
  6
CONTINUOUS
 62
     1
 10
1271.851902472469
 20
916.2171665348483
 30
0.0
  0
VERTEX
  5
657
  8
1_5__-1
  6
CONTINUOUS
 62
     1
 10
1271.887558806284
 20
916.1951662656556
 30
0.0
  0
VERTEX
  5
658
  8
1_5__-1
  6
CONTINUOUS
 62
     1
 10
1271.92343042429
 20
916.1736600398385
 30
0.0
  0
VERTEX
  5
659
  8
1_5__-1
  6
CONTINUOUS
 62
     1
 10
1271.959517326487
 20
916.152647857396
 30
0.0
  0
VERTEX
  5
65A
  8
1_5__-1
  6
CONTINUOUS
 62
     1
 10
1271.995819512875
 20
916.132129718329
 30
0.0
  0
VERTEX
  5
65B
  8
1_5__-1
  6
CONTINUOUS
 62
     1
 10
1272.032336983455
 20
916.112105622637
 30
0.0
  0
VERTEX
  5
65C
  8
1_5__-1
  6
CONTINUOUS
 62
     1
 10
1272.069069738225
 20
916.0925755703206
 30
0.0
  0
VERTEX
  5
65D
  8
1_5__-1
  6
CONTINUOUS
 62
     1
 10
1272.106017777187
 20
916.0735395613792
 30
0.0
  0
VERTEX
  5
65E
  8
1_5__-1
  6
CONTINUOUS
 62
     1
 10
1272.14318110034
 20
916.0549975958133
 30
0.0
  0
VERTEX
  5
65F
  8
1_5__-1
  6
CONTINUOUS
 62
     1
 10
1272.180559707684
 20
916.0369496736225
 30
0.0
  0
VERTEX
  5
660
  8
1_5__-1
  6
CONTINUOUS
 62
     1
 10
1272.21815359922
 20
916.0193957948072
 30
0.0
  0
VERTEX
  5
661
  8
1_5__-1
  6
CONTINUOUS
 62
     1
 10
1272.255962774946
 20
916.002335959367
 30
0.0
  0
VERTEX
  5
662
  8
1_5__-1
  6
CONTINUOUS
 62
     1
 10
1272.293987234864
 20
915.9857701673018
 30
0.0
  0
VERTEX
  5
663
  8
1_5__-1
  6
CONTINUOUS
 62
     1
 10
1272.332226978973
 20
915.9696984186121
 30
0.0
  0
VERTEX
  5
664
  8
1_5__-1
  6
CONTINUOUS
 62
     1
 10
1272.370682007273
 20
915.9541207132975
 30
0.0
  0
VERTEX
  5
665
  8
1_5__-1
  6
CONTINUOUS
 62
     1
 10
1272.409352319763
 20
915.9390370513579
 30
0.0
  0
VERTEX
  5
666
  8
1_5__-1
  6
CONTINUOUS
 62
     1
 10
1272.448237916446
 20
915.9244474327938
 30
0.0
  0
VERTEX
  5
667
  8
1_5__-1
  6
CONTINUOUS
 62
     1
 10
1272.487338797319
 20
915.9103518576053
 30
0.0
  0
VERTEX
  5
668
  8
1_5__-1
  6
CONTINUOUS
 62
     1
 10
1272.526654962384
 20
915.8967503257918
 30
0.0
  0
VERTEX
  5
669
  8
1_5__-1
  6
CONTINUOUS
 62
     1
 10
1272.56618641164
 20
915.8836428373534
 30
0.0
  0
VERTEX
  5
66A
  8
1_5__-1
  6
CONTINUOUS
 62
     1
 10
1272.605933145087
 20
915.8710293922904
 30
0.0
  0
VERTEX
  5
66B
  8
1_5__-1
  6
CONTINUOUS
 62
     1
 10
1272.645895162725
 20
915.8589099906026
 30
0.0
  0
VERTEX
  5
66C
  8
1_5__-1
  6
CONTINUOUS
 62
     1
 10
1272.686072464554
 20
915.8472846322898
 30
0.0
  0
VERTEX
  5
66D
  8
1_5__-1
  6
CONTINUOUS
 62
     1
 10
1272.726465050574
 20
915.8361533173525
 30
0.0
  0
VERTEX
  5
66E
  8
1_5__-1
  6
CONTINUOUS
 62
     1
 10
1272.767072920786
 20
915.8255160457907
 30
0.0
  0
VERTEX
  5
66F
  8
1_5__-1
  6
CONTINUOUS
 62
     1
 10
1272.807896075188
 20
915.8153728176039
 30
0.0
  0
VERTEX
  5
670
  8
1_5__-1
  6
CONTINUOUS
 62
     1
 10
1272.848934513782
 20
915.8057236327923
 30
0.0
  0
VERTEX
  5
671
  8
1_5__-1
  6
CONTINUOUS
 62
     1
 10
1272.890188236567
 20
915.7965684913561
 30
0.0
  0
VERTEX
  5
672
  8
1_5__-1
  6
CONTINUOUS
 62
     1
 10
1272.931657243543
 20
915.787907393295
 30
0.0
  0
VERTEX
  5
673
  8
1_5__-1
  6
CONTINUOUS
 62
     1
 10
1272.973341534711
 20
915.7797403386094
 30
0.0
  0
VERTEX
  5
674
  8
1_5__-1
  6
CONTINUOUS
 62
     1
 10
1273.015241110069
 20
915.7720673272993
 30
0.0
  0
VERTEX
  5
675
  8
1_5__-1
  6
CONTINUOUS
 62
     1
 10
1273.057355969619
 20
915.7648883593638
 30
0.0
  0
VERTEX
  5
676
  8
1_5__-1
  6
CONTINUOUS
 62
     1
 10
1273.09968611336
 20
915.7582034348038
 30
0.0
  0
VERTEX
  5
677
  8
1_5__-1
  6
CONTINUOUS
 62
     1
 10
1273.142231541292
 20
915.7520125536189
 30
0.0
  0
VERTEX
  5
678
  8
1_5__-1
  6
CONTINUOUS
 62
     1
 10
1273.184992253415
 20
915.7463157158095
 30
0.0
  0
VERTEX
  5
679
  8
1_5__-1
  6
CONTINUOUS
 62
     1
 10
1273.227968249729
 20
915.7411129213747
 30
0.0
  0
VERTEX
  5
67A
  8
1_5__-1
  6
CONTINUOUS
 62
     1
 10
1273.271159530235
 20
915.7364041703154
 30
0.0
  0
VERTEX
  5
67B
  8
1_5__-1
  6
CONTINUOUS
 62
     1
 10
1273.314566094931
 20
915.7321894626316
 30
0.0
  0
VERTEX
  5
67C
  8
1_5__-1
  6
CONTINUOUS
 62
     1
 10
1273.358187943819
 20
915.7284687983233
 30
0.0
  0
VERTEX
  5
67D
  8
1_5__-1
  6
CONTINUOUS
 62
     1
 10
1273.402025076898
 20
915.7252421773896
 30
0.0
  0
VERTEX
  5
67E
  8
1_5__-1
  6
CONTINUOUS
 62
     1
 10
1273.446077494168
 20
915.7225095998319
 30
0.0
  0
VERTEX
  5
67F
  8
1_5__-1
  6
CONTINUOUS
 62
     1
 10
1273.490345195629
 20
915.7202710656488
 30
0.0
  0
VERTEX
  5
680
  8
1_5__-1
  6
CONTINUOUS
 62
     1
 10
1273.534828181282
 20
915.7185265748417
 30
0.0
  0
VERTEX
  5
681
  8
1_5__-1
  6
CONTINUOUS
 62
     1
 10
1273.579526451125
 20
915.7172761274091
 30
0.0
  0
VERTEX
  5
682
  8
1_5__-1
  6
CONTINUOUS
 62
     1
 10
1273.62444000516
 20
915.7165197233521
 30
0.0
  0
VERTEX
  5
683
  8
1_5__-1
  6
CONTINUOUS
 62
     1
 10
1273.669568843386
 20
915.7162573626701
 30
0.0
  0
VERTEX
  5
684
  8
1_5__-1
  6
CONTINUOUS
 62
     1
 10
1273.714697440365
 20
915.716489524707
 30
0.0
  0
VERTEX
  5
685
  8
1_5__-1
  6
CONTINUOUS
 62
     1
 10
1273.75961027066
 20
915.7172166888063
 30
0.0
  0
VERTEX
  5
686
  8
1_5__-1
  6
CONTINUOUS
 62
     1
 10
1273.804307334271
 20
915.7184388549681
 30
0.0
  0
VERTEX
  5
687
  8
1_5__-1
  6
CONTINUOUS
 62
     1
 10
1273.848788631197
 20
915.720156023192
 30
0.0
  0
VERTEX
  5
688
  8
1_5__-1
  6
CONTINUOUS
 62
     1
 10
1273.893054161439
 20
915.7223681934788
 30
0.0
  0
VERTEX
  5
689
  8
1_5__-1
  6
CONTINUOUS
 62
     1
 10
1273.937103924996
 20
915.7250753658277
 30
0.0
  0
VERTEX
  5
68A
  8
1_5__-1
  6
CONTINUOUS
 62
     1
 10
1273.98093792187
 20
915.7282775402391
 30
0.0
  0
VERTEX
  5
68B
  8
1_5__-1
  6
CONTINUOUS
 62
     1
 10
1274.024556152058
 20
915.7319747167126
 30
0.0
  0
VERTEX
  5
68C
  8
1_5__-1
  6
CONTINUOUS
 62
     1
 10
1274.067958615563
 20
915.7361668952485
 30
0.0
  0
VERTEX
  5
68D
  8
1_5__-1
  6
CONTINUOUS
 62
     1
 10
1274.111145312383
 20
915.7408540758474
 30
0.0
  0
VERTEX
  5
68E
  8
1_5__-1
  6
CONTINUOUS
 62
     1
 10
1274.154116242519
 20
915.7460362585084
 30
0.0
  0
VERTEX
  5
68F
  8
1_5__-1
  6
CONTINUOUS
 62
     1
 10
1274.19687140597
 20
915.7517134432314
 30
0.0
  0
VERTEX
  5
690
  8
1_5__-1
  6
CONTINUOUS
 62
     1
 10
1274.239410802737
 20
915.757885630017
 30
0.0
  0
VERTEX
  5
691
  8
1_5__-1
  6
CONTINUOUS
 62
     1
 10
1274.28173443282
 20
915.764552818865
 30
0.0
  0
VERTEX
  5
692
  8
1_5__-1
  6
CONTINUOUS
 62
     1
 10
1274.323842296219
 20
915.7717150097756
 30
0.0
  0
VERTEX
  5
693
  8
1_5__-1
  6
CONTINUOUS
 62
     1
 10
1274.365734392933
 20
915.7793722027482
 30
0.0
  0
VERTEX
  5
694
  8
1_5__-1
  6
CONTINUOUS
 62
     1
 10
1274.407410722963
 20
915.7875243977833
 30
0.0
  0
VERTEX
  5
695
  8
1_5__-1
  6
CONTINUOUS
 62
     1
 10
1274.448871286308
 20
915.7961715948809
 30
0.0
  0
VERTEX
  5
696
  8
1_5__-1
  6
CONTINUOUS
 62
     1
 10
1274.490116082969
 20
915.805313794041
 30
0.0
  0
VERTEX
  5
697
  8
1_5__-1
  6
CONTINUOUS
 62
     1
 10
1274.531145112946
 20
915.8149509952632
 30
0.0
  0
VERTEX
  5
698
  8
1_5__-1
  6
CONTINUOUS
 62
     1
 10
1274.571958376238
 20
915.8250831985483
 30
0.0
  0
VERTEX
  5
699
  8
1_5__-1
  6
CONTINUOUS
 62
     1
 10
1274.612555872846
 20
915.8357104038951
 30
0.0
  0
VERTEX
  5
69A
  8
1_5__-1
  6
CONTINUOUS
 62
     1
 10
1274.65293760277
 20
915.8468326113043
 30
0.0
  0
VERTEX
  5
69B
  8
1_5__-1
  6
CONTINUOUS
 62
     1
 10
1274.693103566009
 20
915.8584498207761
 30
0.0
  0
VERTEX
  5
69C
  8
1_5__-1
  6
CONTINUOUS
 62
     1
 10
1274.733053762564
 20
915.8705620323103
 30
0.0
  0
VERTEX
  5
69D
  8
1_5__-1
  6
CONTINUOUS
 62
     1
 10
1274.772788192435
 20
915.8831692459075
 30
0.0
  0
VERTEX
  5
69E
  8
1_5__-1
  6
CONTINUOUS
 62
     1
 10
1274.812306855621
 20
915.8962714615668
 30
0.0
  0
VERTEX
  5
69F
  8
1_5__-1
  6
CONTINUOUS
 62
     1
 10
1274.851609752123
 20
915.9098686792877
 30
0.0
  0
VERTEX
  5
6A0
  8
1_5__-1
  6
CONTINUOUS
 62
     1
 10
1274.890696881941
 20
915.9239608990711
 30
0.0
  0
VERTEX
  5
6A1
  8
1_5__-1
  6
CONTINUOUS
 62
     1
 10
1274.929568245074
 20
915.9385481209174
 30
0.0
  0
VERTEX
  5
6A2
  8
1_5__-1
  6
CONTINUOUS
 62
     1
 10
1274.968223841523
 20
915.9536303448263
 30
0.0
  0
VERTEX
  5
6A3
  8
1_5__-1
  6
CONTINUOUS
 62
     1
 10
1275.006663671287
 20
915.9692075707972
 30
0.0
  0
VERTEX
  5
6A4
  8
1_5__-1
  6
CONTINUOUS
 62
     1
 10
1275.044887734367
 20
915.9852797988306
 30
0.0
  0
VERTEX
  5
6A5
  8
1_5__-1
  6
CONTINUOUS
 62
     1
 10
1275.082896030763
 20
916.0018470289265
 30
0.0
  0
VERTEX
  5
6A6
  8
1_5__-1
  6
CONTINUOUS
 62
     1
 10
1275.120688560475
 20
916.0189092610844
 30
0.0
  0
VERTEX
  5
6A7
  8
1_5__-1
  6
CONTINUOUS
 62
     1
 10
1275.158265323502
 20
916.0364664953049
 30
0.0
  0
VERTEX
  5
6A8
  8
1_5__-1
  6
CONTINUOUS
 62
     1
 10
1275.195626319845
 20
916.0545187315879
 30
0.0
  0
VERTEX
  5
6A9
  8
1_5__-1
  6
CONTINUOUS
 62
     1
 10
1275.232771549503
 20
916.0730659699329
 30
0.0
  0
VERTEX
  5
6AA
  8
1_5__-1
  6
CONTINUOUS
 62
     1
 10
1275.269701012478
 20
916.0921082103405
 30
0.0
  0
VERTEX
  5
6AB
  8
1_5__-1
  6
CONTINUOUS
 62
     1
 10
1275.306414708767
 20
916.1116454528105
 30
0.0
  0
VERTEX
  5
6AC
  8
1_5__-1
  6
CONTINUOUS
 62
     1
 10
1275.342912638373
 20
916.1316776973431
 30
0.0
  0
VERTEX
  5
6AD
  8
1_5__-1
  6
CONTINUOUS
 62
     1
 10
1275.379194801294
 20
916.1522049439377
 30
0.0
  0
VERTEX
  5
6AE
  8
1_5__-1
  6
CONTINUOUS
 62
     1
 10
1275.415261197531
 20
916.1732271925953
 30
0.0
  0
VERTEX
  5
6AF
  8
1_5__-1
  6
CONTINUOUS
 62
     1
 10
1275.451111827083
 20
916.1947444433149
 30
0.0
  0
VERTEX
  5
6B0
  8
1_5__-1
  6
CONTINUOUS
 62
     1
 10
1275.486746689951
 20
916.216756696097
 30
0.0
  0
VERTEX
  5
6B1
  8
1_5__-1
  6
CONTINUOUS
 62
     1
 10
1275.522165786135
 20
916.2392639509412
 30
0.0
  0
VERTEX
  5
6B2
  8
1_5__-1
  6
CONTINUOUS
 62
     1
 10
1275.557369115634
 20
916.2622662078479
 30
0.0
  0
VERTEX
  5
6B3
  8
1_5__-1
  6
CONTINUOUS
 62
     1
 10
1275.592356678449
 20
916.2857634668171
 30
0.0
  0
VERTEX
  5
6B4
  8
1_5__-1
  6
CONTINUOUS
 62
     1
 10
1275.62712847458
 20
916.3097557278488
 30
0.0
  0
VERTEX
  5
6B5
  8
1_5__-1
  6
CONTINUOUS
 62
     1
 10
1275.661684504026
 20
916.334242990943
 30
0.0
  0
VERTEX
  5
6B6
  8
1_5__-1
  6
CONTINUOUS
 62
     1
 10
1275.696024766788
 20
916.3592252560993
 30
0.0
  0
VERTEX
  5
6B7
  8
1_5__-1
  6
CONTINUOUS
 62
     1
 10
1275.730149262866
 20
916.3847025233176
 30
0.0
  0
VERTEX
  5
6B8
  8
1_5__-1
  6
CONTINUOUS
 62
     1
 10
1275.764057992259
 20
916.4106747925985
 30
0.0
  0
VERTEX
  5
6B9
  8
1_5__-1
  6
CONTINUOUS
 62
     1
 10
1275.797750954968
 20
916.4371420639422
 30
0.0
  0
VERTEX
  5
6BA
  8
1_5__-1
  6
CONTINUOUS
 62
     1
 10
1275.831228150993
 20
916.4641043373481
 30
0.0
  0
VERTEX
  5
6BB
  8
1_5__-1
  6
CONTINUOUS
 62
     1
 10
1275.864489580333
 20
916.491561612816
 30
0.0
  0
VERTEX
  5
6BC
  8
1_5__-1
  6
CONTINUOUS
 62
     1
 10
1275.897535242989
 20
916.5195138903468
 30
0.0
  0
VERTEX
  5
6BD
  8
1_5__-1
  6
CONTINUOUS
 62
     1
 10
1275.930365138961
 20
916.5479611699398
 30
0.0
  0
VERTEX
  5
6BE
  8
1_5__-1
  6
CONTINUOUS
 62
     1
 10
1275.962979268248
 20
916.5769034515947
 30
0.0
  0
VERTEX
  5
6BF
  8
1_5__-1
  6
CONTINUOUS
 62
     1
 10
1275.995377630851
 20
916.6063407353126
 30
0.0
  0
VERTEX
  5
6C0
  8
1_5__-1
  6
CONTINUOUS
 62
     1
 10
1276.027560226769
 20
916.6362730210931
 30
0.0
  0
VERTEX
  5
6C1
  8
1_5__-1
  6
CONTINUOUS
 62
     1
 10
1276.059527056003
 20
916.6667003089356
 30
0.0
  0
VERTEX
  5
6C2
  8
1_5__-1
  6
CONTINUOUS
 62
     1
 10
1276.091278118553
 20
916.6976225988406
 30
0.0
  0
VERTEX
  5
6C3
  8
1_5__-1
  6
CONTINUOUS
 62
     1
 10
1276.122813414419
 20
916.729039890808
 30
0.0
  0
VERTEX
  5
6C4
  8
1_5__-1
  6
CONTINUOUS
 62
     1
 10
1276.122813414419
 20
916.729039890808
 30
0.0
  0
SEQEND
  5
6C5
  8
1_5__-1
  6
CONTINUOUS
 62
     1
  0
POLYLINE
  5
6C6
  8
1_5__-1
  6
CONTINUOUS
 62
     1
 66
     1
 10
0.0
 20
0.0
 30
0.0
 70
   128
  0
VERTEX
  5
6C7
  8
1_5__-1
  6
CONTINUOUS
 62
     1
 10
1261.400381550082
 20
916.729039890808
 30
0.0
  0
VERTEX
  5
6C8
  8
1_5__-1
  6
CONTINUOUS
 62
     1
 10
1261.472021166784
 20
916.6933393544468
 30
0.0
  0
VERTEX
  5
6C9
  8
1_5__-1
  6
CONTINUOUS
 62
     1
 10
1261.543821286891
 20
916.6582000224248
 30
0.0
  0
VERTEX
  5
6CA
  8
1_5__-1
  6
CONTINUOUS
 62
     1
 10
1261.615781910404
 20
916.6236218947411
 30
0.0
  0
VERTEX
  5
6CB
  8
1_5__-1
  6
CONTINUOUS
 62
     1
 10
1261.687903037322
 20
916.589604971397
 30
0.0
  0
VERTEX
  5
6CC
  8
1_5__-1
  6
CONTINUOUS
 62
     1
 10
1261.760184667645
 20
916.5561492523916
 30
0.0
  0
VERTEX
  5
6CD
  8
1_5__-1
  6
CONTINUOUS
 62
     1
 10
1261.832626801373
 20
916.5232547377245
 30
0.0
  0
VERTEX
  5
6CE
  8
1_5__-1
  6
CONTINUOUS
 62
     1
 10
1261.905229438507
 20
916.4909214273971
 30
0.0
  0
VERTEX
  5
6CF
  8
1_5__-1
  6
CONTINUOUS
 62
     1
 10
1261.977992579045
 20
916.459149321408
 30
0.0
  0
VERTEX
  5
6D0
  8
1_5__-1
  6
CONTINUOUS
 62
     1
 10
1262.050916222989
 20
916.427938419758
 30
0.0
  0
VERTEX
  5
6D1
  8
1_5__-1
  6
CONTINUOUS
 62
     1
 10
1262.124000370338
 20
916.3972887224468
 30
0.0
  0
VERTEX
  5
6D2
  8
1_5__-1
  6
CONTINUOUS
 62
     1
 10
1262.197245021093
 20
916.3672002294747
 30
0.0
  0
VERTEX
  5
6D3
  8
1_5__-1
  6
CONTINUOUS
 62
     1
 10
1262.270650175252
 20
916.3376729408415
 30
0.0
  0
VERTEX
  5
6D4
  8
1_5__-1
  6
CONTINUOUS
 62
     1
 10
1262.344215832817
 20
916.3087068565469
 30
0.0
  0
VERTEX
  5
6D5
  8
1_5__-1
  6
CONTINUOUS
 62
     1
 10
1262.417941993786
 20
916.2803019765915
 30
0.0
  0
VERTEX
  5
6D6
  8
1_5__-1
  6
CONTINUOUS
 62
     1
 10
1262.491828658161
 20
916.2524583009749
 30
0.0
  0
VERTEX
  5
6D7
  8
1_5__-1
  6
CONTINUOUS
 62
     1
 10
1262.565875825942
 20
916.225175829697
 30
0.0
  0
VERTEX
  5
6D8
  8
1_5__-1
  6
CONTINUOUS
 62
     1
 10
1262.640083497127
 20
916.1984545627579
 30
0.0
  0
VERTEX
  5
6D9
  8
1_5__-1
  6
CONTINUOUS
 62
     1
 10
1262.714451671718
 20
916.1722945001579
 30
0.0
  0
VERTEX
  5
6DA
  8
1_5__-1
  6
CONTINUOUS
 62
     1
 10
1262.788980349714
 20
916.1466956418972
 30
0.0
  0
VERTEX
  5
6DB
  8
1_5__-1
  6
CONTINUOUS
 62
     1
 10
1262.863669531115
 20
916.1216579879751
 30
0.0
  0
VERTEX
  5
6DC
  8
1_5__-1
  6
CONTINUOUS
 62
     1
 10
1262.938519215921
 20
916.0971815383919
 30
0.0
  0
VERTEX
  5
6DD
  8
1_5__-1
  6
CONTINUOUS
 62
     1
 10
1263.013529404132
 20
916.0732662931473
 30
0.0
  0
VERTEX
  5
6DE
  8
1_5__-1
  6
CONTINUOUS
 62
     1
 10
1263.088700095749
 20
916.0499122522419
 30
0.0
  0
VERTEX
  5
6DF
  8
1_5__-1
  6
CONTINUOUS
 62
     1
 10
1263.164031290771
 20
916.0271194156753
 30
0.0
  0
VERTEX
  5
6E0
  8
1_5__-1
  6
CONTINUOUS
 62
     1
 10
1263.239522989198
 20
916.0048877834474
 30
0.0
  0
VERTEX
  5
6E1
  8
1_5__-1
  6
CONTINUOUS
 62
     1
 10
1263.31517519103
 20
915.9832173555587
 30
0.0
  0
VERTEX
  5
6E2
  8
1_5__-1
  6
CONTINUOUS
 62
     1
 10
1263.390987896268
 20
915.9621081320088
 30
0.0
  0
VERTEX
  5
6E3
  8
1_5__-1
  6
CONTINUOUS
 62
     1
 10
1263.46696110491
 20
915.941560112798
 30
0.0
  0
VERTEX
  5
6E4
  8
1_5__-1
  6
CONTINUOUS
 62
     1
 10
1263.543094816958
 20
915.921573297926
 30
0.0
  0
VERTEX
  5
6E5
  8
1_5__-1
  6
CONTINUOUS
 62
     1
 10
1263.619389032411
 20
915.9021476873927
 30
0.0
  0
VERTEX
  5
6E6
  8
1_5__-1
  6
CONTINUOUS
 62
     1
 10
1263.695843751269
 20
915.8832832811981
 30
0.0
  0
VERTEX
  5
6E7
  8
1_5__-1
  6
CONTINUOUS
 62
     1
 10
1263.772458973533
 20
915.8649800793428
 30
0.0
  0
VERTEX
  5
6E8
  8
1_5__-1
  6
CONTINUOUS
 62
     1
 10
1263.849234699201
 20
915.8472380818262
 30
0.0
  0
VERTEX
  5
6E9
  8
1_5__-1
  6
CONTINUOUS
 62
     1
 10
1263.926170928275
 20
915.8300572886487
 30
0.0
  0
VERTEX
  5
6EA
  8
1_5__-1
  6
CONTINUOUS
 62
     1
 10
1264.003267660754
 20
915.81343769981
 30
0.0
  0
VERTEX
  5
6EB
  8
1_5__-1
  6
CONTINUOUS
 62
     1
 10
1264.080524896639
 20
915.7973793153101
 30
0.0
  0
VERTEX
  5
6EC
  8
1_5__-1
  6
CONTINUOUS
 62
     1
 10
1264.157942635928
 20
915.7818821351489
 30
0.0
  0
VERTEX
  5
6ED
  8
1_5__-1
  6
CONTINUOUS
 62
     1
 10
1264.235520878623
 20
915.7669461593268
 30
0.0
  0
VERTEX
  5
6EE
  8
1_5__-1
  6
CONTINUOUS
 62
     1
 10
1264.313259624722
 20
915.7525713878435
 30
0.0
  0
VERTEX
  5
6EF
  8
1_5__-1
  6
CONTINUOUS
 62
     1
 10
1264.391158874227
 20
915.7387578206994
 30
0.0
  0
VERTEX
  5
6F0
  8
1_5__-1
  6
CONTINUOUS
 62
     1
 10
1264.469218627138
 20
915.7255054578941
 30
0.0
  0
VERTEX
  5
6F1
  8
1_5__-1
  6
CONTINUOUS
 62
     1
 10
1264.547438883453
 20
915.7128142994275
 30
0.0
  0
VERTEX
  5
6F2
  8
1_5__-1
  6
CONTINUOUS
 62
     1
 10
1264.625819643174
 20
915.7006843453
 30
0.0
  0
VERTEX
  5
6F3
  8
1_5__-1
  6
CONTINUOUS
 62
     1
 10
1264.704360906299
 20
915.6891155955113
 30
0.0
  0
VERTEX
  5
6F4
  8
1_5__-1
  6
CONTINUOUS
 62
     1
 10
1264.783062672831
 20
915.6781080500614
 30
0.0
  0
VERTEX
  5
6F5
  8
1_5__-1
  6
CONTINUOUS
 62
     1
 10
1264.861924942767
 20
915.6676617089502
 30
0.0
  0
VERTEX
  5
6F6
  8
1_5__-1
  6
CONTINUOUS
 62
     1
 10
1264.940947716108
 20
915.6577765721781
 30
0.0
  0
VERTEX
  5
6F7
  8
1_5__-1
  6
CONTINUOUS
 62
     1
 10
1265.020130992855
 20
915.6484526397453
 30
0.0
  0
VERTEX
  5
6F8
  8
1_5__-1
  6
CONTINUOUS
 62
     1
 10
1265.099474773006
 20
915.6396899116512
 30
0.0
  0
VERTEX
  5
6F9
  8
1_5__-1
  6
CONTINUOUS
 62
     1
 10
1265.178979056564
 20
915.6314883878958
 30
0.0
  0
VERTEX
  5
6FA
  8
1_5__-1
  6
CONTINUOUS
 62
     1
 10
1265.258643843526
 20
915.6238480684792
 30
0.0
  0
VERTEX
  5
6FB
  8
1_5__-1
  6
CONTINUOUS
 62
     1
 10
1265.338469133893
 20
915.6167689534018
 30
0.0
  0
VERTEX
  5
6FC
  8
1_5__-1
  6
CONTINUOUS
 62
     1
 10
1265.418454927666
 20
915.6102510426631
 30
0.0
  0
VERTEX
  5
6FD
  8
1_5__-1
  6
CONTINUOUS
 62
     1
 10
1265.498601224844
 20
915.6042943362631
 30
0.0
  0
VERTEX
  5
6FE
  8
1_5__-1
  6
CONTINUOUS
 62
     1
 10
1265.578908025427
 20
915.5988988342024
 30
0.0
  0
VERTEX
  5
6FF
  8
1_5__-1
  6
CONTINUOUS
 62
     1
 10
1265.659375329415
 20
915.5940645364803
 30
0.0
  0
VERTEX
  5
700
  8
1_5__-1
  6
CONTINUOUS
 62
     1
 10
1265.740003136808
 20
915.589791443097
 30
0.0
  0
VERTEX
  5
701
  8
1_5__-1
  6
CONTINUOUS
 62
     1
 10
1265.820791447607
 20
915.586079554053
 30
0.0
  0
VERTEX
  5
702
  8
1_5__-1
  6
CONTINUOUS
 62
     1
 10
1265.901740261811
 20
915.5829288693476
 30
0.0
  0
VERTEX
  5
703
  8
1_5__-1
  6
CONTINUOUS
 62
     1
 10
1265.98284957942
 20
915.5803393889814
 30
0.0
  0
VERTEX
  5
704
  8
1_5__-1
  6
CONTINUOUS
 62
     1
 10
1266.064119400434
 20
915.5783111129535
 30
0.0
  0
VERTEX
  5
705
  8
1_5__-1
  6
CONTINUOUS
 62
     1
 10
1266.145549724853
 20
915.5768440412653
 30
0.0
  0
VERTEX
  5
706
  8
1_5__-1
  6
CONTINUOUS
 62
     1
 10
1266.227140552678
 20
915.5759381739158
 30
0.0
  0
VERTEX
  5
707
  8
1_5__-1
  6
CONTINUOUS
 62
     1
 10
1266.308891883908
 20
915.5755935109046
 30
0.0
  0
VERTEX
  5
708
  8
1_5__-1
  6
CONTINUOUS
 62
     1
 10
1266.390642710721
 20
915.5758120541336
 30
0.0
  0
VERTEX
  5
709
  8
1_5__-1
  6
CONTINUOUS
 62
     1
 10
1266.472232025295
 20
915.5765958055049
 30
0.0
  0
VERTEX
  5
70A
  8
1_5__-1
  6
CONTINUOUS
 62
     1
 10
1266.55365982763
 20
915.577944765017
 30
0.0
  0
VERTEX
  5
70B
  8
1_5__-1
  6
CONTINUOUS
 62
     1
 10
1266.634926117726
 20
915.579858932671
 30
0.0
  0
VERTEX
  5
70C
  8
1_5__-1
  6
CONTINUOUS
 62
     1
 10
1266.716030895583
 20
915.5823383084658
 30
0.0
  0
VERTEX
  5
70D
  8
1_5__-1
  6
CONTINUOUS
 62
     1
 10
1266.796974161202
 20
915.5853828924028
 30
0.0
  0
VERTEX
  5
70E
  8
1_5__-1
  6
CONTINUOUS
 62
     1
 10
1266.877755914581
 20
915.5889926844807
 30
0.0
  0
VERTEX
  5
70F
  8
1_5__-1
  6
CONTINUOUS
 62
     1
 10
1266.958376155722
 20
915.5931676847008
 30
0.0
  0
VERTEX
  5
710
  8
1_5__-1
  6
CONTINUOUS
 62
     1
 10
1267.038834884624
 20
915.5979078930623
 30
0.0
  0
VERTEX
  5
711
  8
1_5__-1
  6
CONTINUOUS
 62
     1
 10
1267.119132101287
 20
915.6032133095646
 30
0.0
  0
VERTEX
  5
712
  8
1_5__-1
  6
CONTINUOUS
 62
     1
 10
1267.19926780571
 20
915.6090839342091
 30
0.0
  0
VERTEX
  5
713
  8
1_5__-1
  6
CONTINUOUS
 62
     1
 10
1267.279241997895
 20
915.6155197669946
 30
0.0
  0
VERTEX
  5
714
  8
1_5__-1
  6
CONTINUOUS
 62
     1
 10
1267.359054677841
 20
915.6225208079218
 30
0.0
  0
VERTEX
  5
715
  8
1_5__-1
  6
CONTINUOUS
 62
     1
 10
1267.438705845549
 20
915.6300870569903
 30
0.0
  0
VERTEX
  5
716
  8
1_5__-1
  6
CONTINUOUS
 62
     1
 10
1267.518195501017
 20
915.6382185142002
 30
0.0
  0
VERTEX
  5
717
  8
1_5__-1
  6
CONTINUOUS
 62
     1
 10
1267.597523644246
 20
915.6469151795518
 30
0.0
  0
VERTEX
  5
718
  8
1_5__-1
  6
CONTINUOUS
 62
     1
 10
1267.676690275237
 20
915.6561770530448
 30
0.0
  0
VERTEX
  5
719
  8
1_5__-1
  6
CONTINUOUS
 62
     1
 10
1267.755695393988
 20
915.666004134679
 30
0.0
  0
VERTEX
  5
71A
  8
1_5__-1
  6
CONTINUOUS
 62
     1
 10
1267.834539000501
 20
915.6763964244551
 30
0.0
  0
VERTEX
  5
71B
  8
1_5__-1
  6
CONTINUOUS
 62
     1
 10
1267.913221094775
 20
915.687353922373
 30
0.0
  0
VERTEX
  5
71C
  8
1_5__-1
  6
CONTINUOUS
 62
     1
 10
1267.99174167681
 20
915.6988766284321
 30
0.0
  0
VERTEX
  5
71D
  8
1_5__-1
  6
CONTINUOUS
 62
     1
 10
1268.070100746606
 20
915.7109645426322
 30
0.0
  0
VERTEX
  5
71E
  8
1_5__-1
  6
CONTINUOUS
 62
     1
 10
1268.148298304163
 20
915.7236176649744
 30
0.0
  0
VERTEX
  5
71F
  8
1_5__-1
  6
CONTINUOUS
 62
     1
 10
1268.226334349481
 20
915.7368359954576
 30
0.0
  0
VERTEX
  5
720
  8
1_5__-1
  6
CONTINUOUS
 62
     1
 10
1268.30420888256
 20
915.7506195340825
 30
0.0
  0
VERTEX
  5
721
  8
1_5__-1
  6
CONTINUOUS
 62
     1
 10
1268.381921903401
 20
915.7649682808487
 30
0.0
  0
VERTEX
  5
722
  8
1_5__-1
  6
CONTINUOUS
 62
     1
 10
1268.459473412002
 20
915.7798822357568
 30
0.0
  0
VERTEX
  5
723
  8
1_5__-1
  6
CONTINUOUS
 62
     1
 10
1268.536863408365
 20
915.7953613988061
 30
0.0
  0
VERTEX
  5
724
  8
1_5__-1
  6
CONTINUOUS
 62
     1
 10
1268.614091892488
 20
915.8114057699972
 30
0.0
  0
VERTEX
  5
725
  8
1_5__-1
  6
CONTINUOUS
 62
     1
 10
1268.691158864373
 20
915.8280153493292
 30
0.0
  0
VERTEX
  5
726
  8
1_5__-1
  6
CONTINUOUS
 62
     1
 10
1268.768064324019
 20
915.845190136803
 30
0.0
  0
VERTEX
  5
727
  8
1_5__-1
  6
CONTINUOUS
 62
     1
 10
1268.844808271426
 20
915.8629301324181
 30
0.0
  0
VERTEX
  5
728
  8
1_5__-1
  6
CONTINUOUS
 62
     1
 10
1268.921390706594
 20
915.881235336175
 30
0.0
  0
VERTEX
  5
729
  8
1_5__-1
  6
CONTINUOUS
 62
     1
 10
1268.997811629523
 20
915.9001057480732
 30
0.0
  0
VERTEX
  5
72A
  8
1_5__-1
  6
CONTINUOUS
 62
     1
 10
1269.074071040213
 20
915.9195413681132
 30
0.0
  0
VERTEX
  5
72B
  8
1_5__-1
  6
CONTINUOUS
 62
     1
 10
1269.150168938664
 20
915.939542196294
 30
0.0
  0
VERTEX
  5
72C
  8
1_5__-1
  6
CONTINUOUS
 62
     1
 10
1269.226105324877
 20
915.9601082326167
 30
0.0
  0
VERTEX
  5
72D
  8
1_5__-1
  6
CONTINUOUS
 62
     1
 10
1269.30188019885
 20
915.9812394770806
 30
0.0
  0
VERTEX
  5
72E
  8
1_5__-1
  6
CONTINUOUS
 62
     1
 10
1269.377493560585
 20
916.0029359296864
 30
0.0
  0
VERTEX
  5
72F
  8
1_5__-1
  6
CONTINUOUS
 62
     1
 10
1269.452945410081
 20
916.0251975904334
 30
0.0
  0
VERTEX
  5
730
  8
1_5__-1
  6
CONTINUOUS
 62
     1
 10
1269.528235747337
 20
916.0480244593223
 30
0.0
  0
VERTEX
  5
731
  8
1_5__-1
  6
CONTINUOUS
 62
     1
 10
1269.603364572355
 20
916.071416536352
 30
0.0
  0
VERTEX
  5
732
  8
1_5__-1
  6
CONTINUOUS
 62
     1
 10
1269.678331885134
 20
916.0953738215235
 30
0.0
  0
VERTEX
  5
733
  8
1_5__-1
  6
CONTINUOUS
 62
     1
 10
1269.753137685674
 20
916.1198963148368
 30
0.0
  0
VERTEX
  5
734
  8
1_5__-1
  6
CONTINUOUS
 62
     1
 10
1269.827781973976
 20
916.1449840162913
 30
0.0
  0
VERTEX
  5
735
  8
1_5__-1
  6
CONTINUOUS
 62
     1
 10
1269.902264750038
 20
916.1706369258868
 30
0.0
  0
VERTEX
  5
736
  8
1_5__-1
  6
CONTINUOUS
 62
     1
 10
1269.976586013861
 20
916.1968550436245
 30
0.0
  0
VERTEX
  5
737
  8
1_5__-1
  6
CONTINUOUS
 62
     1
 10
1270.050745765446
 20
916.2236383695035
 30
0.0
  0
VERTEX
  5
738
  8
1_5__-1
  6
CONTINUOUS
 62
     1
 10
1270.124744004791
 20
916.2509869035243
 30
0.0
  0
VERTEX
  5
739
  8
1_5__-1
  6
CONTINUOUS
 62
     1
 10
1270.198580731898
 20
916.278900645686
 30
0.0
  0
VERTEX
  5
73A
  8
1_5__-1
  6
CONTINUOUS
 62
     1
 10
1270.272255946766
 20
916.3073795959895
 30
0.0
  0
VERTEX
  5
73B
  8
1_5__-1
  6
CONTINUOUS
 62
     1
 10
1270.345769649394
 20
916.3364237544342
 30
0.0
  0
VERTEX
  5
73C
  8
1_5__-1
  6
CONTINUOUS
 62
     1
 10
1270.419121839784
 20
916.3660331210208
 30
0.0
  0
VERTEX
  5
73D
  8
1_5__-1
  6
CONTINUOUS
 62
     1
 10
1270.492312517935
 20
916.3962076957482
 30
0.0
  0
VERTEX
  5
73E
  8
1_5__-1
  6
CONTINUOUS
 62
     1
 10
1270.565341683848
 20
916.4269474786174
 30
0.0
  0
VERTEX
  5
73F
  8
1_5__-1
  6
CONTINUOUS
 62
     1
 10
1270.638209337521
 20
916.4582524696284
 30
0.0
  0
VERTEX
  5
740
  8
1_5__-1
  6
CONTINUOUS
 62
     1
 10
1270.710915478955
 20
916.4901226687807
 30
0.0
  0
VERTEX
  5
741
  8
1_5__-1
  6
CONTINUOUS
 62
     1
 10
1270.783460108151
 20
916.5225580760743
 30
0.0
  0
VERTEX
  5
742
  8
1_5__-1
  6
CONTINUOUS
 62
     1
 10
1270.855843225107
 20
916.5555586915098
 30
0.0
  0
VERTEX
  5
743
  8
1_5__-1
  6
CONTINUOUS
 62
     1
 10
1270.928064829825
 20
916.5891245150865
 30
0.0
  0
VERTEX
  5
744
  8
1_5__-1
  6
CONTINUOUS
 62
     1
 10
1271.000124922303
 20
916.6232555468046
 30
0.0
  0
VERTEX
  5
745
  8
1_5__-1
  6
CONTINUOUS
 62
     1
 10
1271.072023502543
 20
916.6579517866644
 30
0.0
  0
VERTEX
  5
746
  8
1_5__-1
  6
CONTINUOUS
 62
     1
 10
1271.143760570544
 20
916.6932132346656
 30
0.0
  0
VERTEX
  5
747
  8
1_5__-1
  6
CONTINUOUS
 62
     1
 10
1271.215336126306
 20
916.729039890808
 30
0.0
  0
VERTEX
  5
748
  8
1_5__-1
  6
CONTINUOUS
 62
     1
 10
1271.215336126306
 20
916.729039890808
 30
0.0
  0
SEQEND
  5
749
  8
1_5__-1
  6
CONTINUOUS
 62
     1
  0
POLYLINE
  5
74A
  8
1_5__-1
  6
CONTINUOUS
 62
     1
 66
     1
 10
0.0
 20
0.0
 30
0.0
 70
   128
  0
VERTEX
  5
74B
  8
1_5__-1
  6
CONTINUOUS
 62
     1
 10
1256.492904261971
 20
916.729039890808
 30
0.0
  0
VERTEX
  5
74C
  8
1_5__-1
  6
CONTINUOUS
 62
     1
 10
1256.524470196153
 20
916.6976527974853
 30
0.0
  0
VERTEX
  5
74D
  8
1_5__-1
  6
CONTINUOUS
 62
     1
 10
1256.556251414527
 20
916.6667597475384
 30
0.0
  0
VERTEX
  5
74E
  8
1_5__-1
  6
CONTINUOUS
 62
     1
 10
1256.588247917093
 20
916.6363607409662
 30
0.0
  0
VERTEX
  5
74F
  8
1_5__-1
  6
CONTINUOUS
 62
     1
 10
1256.620459703849
 20
916.6064557777695
 30
0.0
  0
VERTEX
  5
750
  8
1_5__-1
  6
CONTINUOUS
 62
     1
 10
1256.652886774796
 20
916.5770448579483
 30
0.0
  0
VERTEX
  5
751
  8
1_5__-1
  6
CONTINUOUS
 62
     1
 10
1256.685529129935
 20
916.5481279815017
 30
0.0
  0
VERTEX
  5
752
  8
1_5__-1
  6
CONTINUOUS
 62
     1
 10
1256.718386769265
 20
916.5197051484306
 30
0.0
  0
VERTEX
  5
753
  8
1_5__-1
  6
CONTINUOUS
 62
     1
 10
1256.751459692786
 20
916.491776358735
 30
0.0
  0
VERTEX
  5
754
  8
1_5__-1
  6
CONTINUOUS
 62
     1
 10
1256.784747900498
 20
916.464341612415
 30
0.0
  0
VERTEX
  5
755
  8
1_5__-1
  6
CONTINUOUS
 62
     1
 10
1256.818251392401
 20
916.4374009094695
 30
0.0
  0
VERTEX
  5
756
  8
1_5__-1
  6
CONTINUOUS
 62
     1
 10
1256.851970168496
 20
916.4109542498995
 30
0.0
  0
VERTEX
  5
757
  8
1_5__-1
  6
CONTINUOUS
 62
     1
 10
1256.885904228781
 20
916.3850016337051
 30
0.0
  0
VERTEX
  5
758
  8
1_5__-1
  6
CONTINUOUS
 62
     1
 10
1256.920053573258
 20
916.3595430608852
 30
0.0
  0
VERTEX
  5
759
  8
1_5__-1
  6
CONTINUOUS
 62
     1
 10
1256.954418201926
 20
916.3345785314409
 30
0.0
  0
VERTEX
  5
75A
  8
1_5__-1
  6
CONTINUOUS
 62
     1
 10
1256.988998114785
 20
916.3101080453721
 30
0.0
  0
VERTEX
  5
75B
  8
1_5__-1
  6
CONTINUOUS
 62
     1
 10
1257.023793311836
 20
916.2861316026783
 30
0.0
  0
VERTEX
  5
75C
  8
1_5__-1
  6
CONTINUOUS
 62
     1
 10
1257.058803793077
 20
916.2626492033596
 30
0.0
  0
VERTEX
  5
75D
  8
1_5__-1
  6
CONTINUOUS
 62
     1
 10
1257.094029558509
 20
916.2396608474164
 30
0.0
  0
VERTEX
  5
75E
  8
1_5__-1
  6
CONTINUOUS
 62
     1
 10
1257.129470608133
 20
916.2171665348483
 30
0.0
  0
VERTEX
  5
75F
  8
1_5__-1
  6
CONTINUOUS
 62
     1
 10
1257.165126941948
 20
916.1951662656556
 30
0.0
  0
VERTEX
  5
760
  8
1_5__-1
  6
CONTINUOUS
 62
     1
 10
1257.200998559954
 20
916.1736600398385
 30
0.0
  0
VERTEX
  5
761
  8
1_5__-1
  6
CONTINUOUS
 62
     1
 10
1257.237085462151
 20
916.152647857396
 30
0.0
  0
VERTEX
  5
762
  8
1_5__-1
  6
CONTINUOUS
 62
     1
 10
1257.27338764854
 20
916.132129718329
 30
0.0
  0
VERTEX
  5
763
  8
1_5__-1
  6
CONTINUOUS
 62
     1
 10
1257.309905119119
 20
916.112105622637
 30
0.0
  0
VERTEX
  5
764
  8
1_5__-1
  6
CONTINUOUS
 62
     1
 10
1257.34663787389
 20
916.0925755703206
 30
0.0
  0
VERTEX
  5
765
  8
1_5__-1
  6
CONTINUOUS
 62
     1
 10
1257.383585912852
 20
916.0735395613792
 30
0.0
  0
VERTEX
  5
766
  8
1_5__-1
  6
CONTINUOUS
 62
     1
 10
1257.420749236005
 20
916.0549975958133
 30
0.0
  0
VERTEX
  5
767
  8
1_5__-1
  6
CONTINUOUS
 62
     1
 10
1257.458127843349
 20
916.0369496736225
 30
0.0
  0
VERTEX
  5
768
  8
1_5__-1
  6
CONTINUOUS
 62
     1
 10
1257.495721734884
 20
916.0193957948072
 30
0.0
  0
VERTEX
  5
769
  8
1_5__-1
  6
CONTINUOUS
 62
     1
 10
1257.533530910611
 20
916.002335959367
 30
0.0
  0
VERTEX
  5
76A
  8
1_5__-1
  6
CONTINUOUS
 62
     1
 10
1257.571555370528
 20
915.9857701673018
 30
0.0
  0
VERTEX
  5
76B
  8
1_5__-1
  6
CONTINUOUS
 62
     1
 10
1257.609795114637
 20
915.9696984186121
 30
0.0
  0
VERTEX
  5
76C
  8
1_5__-1
  6
CONTINUOUS
 62
     1
 10
1257.648250142937
 20
915.9541207132975
 30
0.0
  0
VERTEX
  5
76D
  8
1_5__-1
  6
CONTINUOUS
 62
     1
 10
1257.686920455428
 20
915.9390370513579
 30
0.0
  0
VERTEX
  5
76E
  8
1_5__-1
  6
CONTINUOUS
 62
     1
 10
1257.72580605211
 20
915.9244474327938
 30
0.0
  0
VERTEX
  5
76F
  8
1_5__-1
  6
CONTINUOUS
 62
     1
 10
1257.764906932984
 20
915.9103518576053
 30
0.0
  0
VERTEX
  5
770
  8
1_5__-1
  6
CONTINUOUS
 62
     1
 10
1257.804223098048
 20
915.8967503257918
 30
0.0
  0
VERTEX
  5
771
  8
1_5__-1
  6
CONTINUOUS
 62
     1
 10
1257.843754547304
 20
915.8836428373534
 30
0.0
  0
VERTEX
  5
772
  8
1_5__-1
  6
CONTINUOUS
 62
     1
 10
1257.883501280751
 20
915.8710293922904
 30
0.0
  0
VERTEX
  5
773
  8
1_5__-1
  6
CONTINUOUS
 62
     1
 10
1257.923463298389
 20
915.8589099906026
 30
0.0
  0
VERTEX
  5
774
  8
1_5__-1
  6
CONTINUOUS
 62
     1
 10
1257.963640600218
 20
915.8472846322898
 30
0.0
  0
VERTEX
  5
775
  8
1_5__-1
  6
CONTINUOUS
 62
     1
 10
1258.004033186239
 20
915.8361533173525
 30
0.0
  0
VERTEX
  5
776
  8
1_5__-1
  6
CONTINUOUS
 62
     1
 10
1258.04464105645
 20
915.8255160457907
 30
0.0
  0
VERTEX
  5
777
  8
1_5__-1
  6
CONTINUOUS
 62
     1
 10
1258.085464210853
 20
915.8153728176039
 30
0.0
  0
VERTEX
  5
778
  8
1_5__-1
  6
CONTINUOUS
 62
     1
 10
1258.126502649447
 20
915.8057236327923
 30
0.0
  0
VERTEX
  5
779
  8
1_5__-1
  6
CONTINUOUS
 62
     1
 10
1258.167756372231
 20
915.7965684913561
 30
0.0
  0
VERTEX
  5
77A
  8
1_5__-1
  6
CONTINUOUS
 62
     1
 10
1258.209225379208
 20
915.787907393295
 30
0.0
  0
VERTEX
  5
77B
  8
1_5__-1
  6
CONTINUOUS
 62
     1
 10
1258.250909670375
 20
915.7797403386094
 30
0.0
  0
VERTEX
  5
77C
  8
1_5__-1
  6
CONTINUOUS
 62
     1
 10
1258.292809245733
 20
915.7720673272993
 30
0.0
  0
VERTEX
  5
77D
  8
1_5__-1
  6
CONTINUOUS
 62
     1
 10
1258.334924105283
 20
915.7648883593638
 30
0.0
  0
VERTEX
  5
77E
  8
1_5__-1
  6
CONTINUOUS
 62
     1
 10
1258.377254249024
 20
915.7582034348038
 30
0.0
  0
VERTEX
  5
77F
  8
1_5__-1
  6
CONTINUOUS
 62
     1
 10
1258.419799676956
 20
915.7520125536189
 30
0.0
  0
VERTEX
  5
780
  8
1_5__-1
  6
CONTINUOUS
 62
     1
 10
1258.462560389079
 20
915.7463157158095
 30
0.0
  0
VERTEX
  5
781
  8
1_5__-1
  6
CONTINUOUS
 62
     1
 10
1258.505536385393
 20
915.7411129213747
 30
0.0
  0
VERTEX
  5
782
  8
1_5__-1
  6
CONTINUOUS
 62
     1
 10
1258.548727665899
 20
915.7364041703154
 30
0.0
  0
VERTEX
  5
783
  8
1_5__-1
  6
CONTINUOUS
 62
     1
 10
1258.592134230595
 20
915.7321894626316
 30
0.0
  0
VERTEX
  5
784
  8
1_5__-1
  6
CONTINUOUS
 62
     1
 10
1258.635756079483
 20
915.7284687983233
 30
0.0
  0
VERTEX
  5
785
  8
1_5__-1
  6
CONTINUOUS
 62
     1
 10
1258.679593212562
 20
915.7252421773896
 30
0.0
  0
VERTEX
  5
786
  8
1_5__-1
  6
CONTINUOUS
 62
     1
 10
1258.723645629832
 20
915.7225095998319
 30
0.0
  0
VERTEX
  5
787
  8
1_5__-1
  6
CONTINUOUS
 62
     1
 10
1258.767913331293
 20
915.7202710656488
 30
0.0
  0
VERTEX
  5
788
  8
1_5__-1
  6
CONTINUOUS
 62
     1
 10
1258.812396316946
 20
915.7185265748417
 30
0.0
  0
VERTEX
  5
789
  8
1_5__-1
  6
CONTINUOUS
 62
     1
 10
1258.857094586789
 20
915.7172761274091
 30
0.0
  0
VERTEX
  5
78A
  8
1_5__-1
  6
CONTINUOUS
 62
     1
 10
1258.902008140824
 20
915.7165197233521
 30
0.0
  0
VERTEX
  5
78B
  8
1_5__-1
  6
CONTINUOUS
 62
     1
 10
1258.947136979049
 20
915.7162573626701
 30
0.0
  0
VERTEX
  5
78C
  8
1_5__-1
  6
CONTINUOUS
 62
     1
 10
1258.992265576029
 20
915.716489524707
 30
0.0
  0
VERTEX
  5
78D
  8
1_5__-1
  6
CONTINUOUS
 62
     1
 10
1259.037178406324
 20
915.7172166888063
 30
0.0
  0
VERTEX
  5
78E
  8
1_5__-1
  6
CONTINUOUS
 62
     1
 10
1259.081875469934
 20
915.7184388549681
 30
0.0
  0
VERTEX
  5
78F
  8
1_5__-1
  6
CONTINUOUS
 62
     1
 10
1259.12635676686
 20
915.720156023192
 30
0.0
  0
VERTEX
  5
790
  8
1_5__-1
  6
CONTINUOUS
 62
     1
 10
1259.170622297102
 20
915.7223681934788
 30
0.0
  0
VERTEX
  5
791
  8
1_5__-1
  6
CONTINUOUS
 62
     1
 10
1259.21467206066
 20
915.7250753658277
 30
0.0
  0
VERTEX
  5
792
  8
1_5__-1
  6
CONTINUOUS
 62
     1
 10
1259.258506057533
 20
915.7282775402391
 30
0.0
  0
VERTEX
  5
793
  8
1_5__-1
  6
CONTINUOUS
 62
     1
 10
1259.302124287722
 20
915.7319747167126
 30
0.0
  0
VERTEX
  5
794
  8
1_5__-1
  6
CONTINUOUS
 62
     1
 10
1259.345526751226
 20
915.7361668952485
 30
0.0
  0
VERTEX
  5
795
  8
1_5__-1
  6
CONTINUOUS
 62
     1
 10
1259.388713448046
 20
915.7408540758474
 30
0.0
  0
VERTEX
  5
796
  8
1_5__-1
  6
CONTINUOUS
 62
     1
 10
1259.431684378182
 20
915.7460362585084
 30
0.0
  0
VERTEX
  5
797
  8
1_5__-1
  6
CONTINUOUS
 62
     1
 10
1259.474439541634
 20
915.7517134432314
 30
0.0
  0
VERTEX
  5
798
  8
1_5__-1
  6
CONTINUOUS
 62
     1
 10
1259.516978938401
 20
915.757885630017
 30
0.0
  0
VERTEX
  5
799
  8
1_5__-1
  6
CONTINUOUS
 62
     1
 10
1259.559302568484
 20
915.764552818865
 30
0.0
  0
VERTEX
  5
79A
  8
1_5__-1
  6
CONTINUOUS
 62
     1
 10
1259.601410431882
 20
915.7717150097756
 30
0.0
  0
VERTEX
  5
79B
  8
1_5__-1
  6
CONTINUOUS
 62
     1
 10
1259.643302528596
 20
915.7793722027482
 30
0.0
  0
VERTEX
  5
79C
  8
1_5__-1
  6
CONTINUOUS
 62
     1
 10
1259.684978858626
 20
915.7875243977833
 30
0.0
  0
VERTEX
  5
79D
  8
1_5__-1
  6
CONTINUOUS
 62
     1
 10
1259.726439421971
 20
915.7961715948809
 30
0.0
  0
VERTEX
  5
79E
  8
1_5__-1
  6
CONTINUOUS
 62
     1
 10
1259.767684218632
 20
915.805313794041
 30
0.0
  0
VERTEX
  5
79F
  8
1_5__-1
  6
CONTINUOUS
 62
     1
 10
1259.808713248609
 20
915.8149509952632
 30
0.0
  0
VERTEX
  5
7A0
  8
1_5__-1
  6
CONTINUOUS
 62
     1
 10
1259.849526511901
 20
915.8250831985483
 30
0.0
  0
VERTEX
  5
7A1
  8
1_5__-1
  6
CONTINUOUS
 62
     1
 10
1259.890124008509
 20
915.8357104038951
 30
0.0
  0
VERTEX
  5
7A2
  8
1_5__-1
  6
CONTINUOUS
 62
     1
 10
1259.930505738433
 20
915.8468326113043
 30
0.0
  0
VERTEX
  5
7A3
  8
1_5__-1
  6
CONTINUOUS
 62
     1
 10
1259.970671701672
 20
915.8584498207761
 30
0.0
  0
VERTEX
  5
7A4
  8
1_5__-1
  6
CONTINUOUS
 62
     1
 10
1260.010621898227
 20
915.8705620323103
 30
0.0
  0
VERTEX
  5
7A5
  8
1_5__-1
  6
CONTINUOUS
 62
     1
 10
1260.050356328098
 20
915.8831692459075
 30
0.0
  0
VERTEX
  5
7A6
  8
1_5__-1
  6
CONTINUOUS
 62
     1
 10
1260.089874991284
 20
915.8962714615668
 30
0.0
  0
VERTEX
  5
7A7
  8
1_5__-1
  6
CONTINUOUS
 62
     1
 10
1260.129177887786
 20
915.9098686792877
 30
0.0
  0
VERTEX
  5
7A8
  8
1_5__-1
  6
CONTINUOUS
 62
     1
 10
1260.168265017604
 20
915.9239608990711
 30
0.0
  0
VERTEX
  5
7A9
  8
1_5__-1
  6
CONTINUOUS
 62
     1
 10
1260.207136380737
 20
915.9385481209174
 30
0.0
  0
VERTEX
  5
7AA
  8
1_5__-1
  6
CONTINUOUS
 62
     1
 10
1260.245791977186
 20
915.9536303448263
 30
0.0
  0
VERTEX
  5
7AB
  8
1_5__-1
  6
CONTINUOUS
 62
     1
 10
1260.28423180695
 20
915.9692075707972
 30
0.0
  0
VERTEX
  5
7AC
  8
1_5__-1
  6
CONTINUOUS
 62
     1
 10
1260.322455870031
 20
915.9852797988306
 30
0.0
  0
VERTEX
  5
7AD
  8
1_5__-1
  6
CONTINUOUS
 62
     1
 10
1260.360464166426
 20
916.0018470289265
 30
0.0
  0
VERTEX
  5
7AE
  8
1_5__-1
  6
CONTINUOUS
 62
     1
 10
1260.398256696138
 20
916.0189092610844
 30
0.0
  0
VERTEX
  5
7AF
  8
1_5__-1
  6
CONTINUOUS
 62
     1
 10
1260.435833459165
 20
916.0364664953049
 30
0.0
  0
VERTEX
  5
7B0
  8
1_5__-1
  6
CONTINUOUS
 62
     1
 10
1260.473194455508
 20
916.0545187315879
 30
0.0
  0
VERTEX
  5
7B1
  8
1_5__-1
  6
CONTINUOUS
 62
     1
 10
1260.510339685166
 20
916.0730659699329
 30
0.0
  0
VERTEX
  5
7B2
  8
1_5__-1
  6
CONTINUOUS
 62
     1
 10
1260.547269148141
 20
916.0921082103405
 30
0.0
  0
VERTEX
  5
7B3
  8
1_5__-1
  6
CONTINUOUS
 62
     1
 10
1260.58398284443
 20
916.1116454528105
 30
0.0
  0
VERTEX
  5
7B4
  8
1_5__-1
  6
CONTINUOUS
 62
     1
 10
1260.620480774036
 20
916.1316776973431
 30
0.0
  0
VERTEX
  5
7B5
  8
1_5__-1
  6
CONTINUOUS
 62
     1
 10
1260.656762936957
 20
916.1522049439377
 30
0.0
  0
VERTEX
  5
7B6
  8
1_5__-1
  6
CONTINUOUS
 62
     1
 10
1260.692829333194
 20
916.1732271925953
 30
0.0
  0
VERTEX
  5
7B7
  8
1_5__-1
  6
CONTINUOUS
 62
     1
 10
1260.728679962746
 20
916.1947444433149
 30
0.0
  0
VERTEX
  5
7B8
  8
1_5__-1
  6
CONTINUOUS
 62
     1
 10
1260.764314825614
 20
916.216756696097
 30
0.0
  0
VERTEX
  5
7B9
  8
1_5__-1
  6
CONTINUOUS
 62
     1
 10
1260.799733921798
 20
916.2392639509412
 30
0.0
  0
VERTEX
  5
7BA
  8
1_5__-1
  6
CONTINUOUS
 62
     1
 10
1260.834937251297
 20
916.2622662078479
 30
0.0
  0
VERTEX
  5
7BB
  8
1_5__-1
  6
CONTINUOUS
 62
     1
 10
1260.869924814112
 20
916.2857634668171
 30
0.0
  0
VERTEX
  5
7BC
  8
1_5__-1
  6
CONTINUOUS
 62
     1
 10
1260.904696610243
 20
916.3097557278488
 30
0.0
  0
VERTEX
  5
7BD
  8
1_5__-1
  6
CONTINUOUS
 62
     1
 10
1260.939252639689
 20
916.334242990943
 30
0.0
  0
VERTEX
  5
7BE
  8
1_5__-1
  6
CONTINUOUS
 62
     1
 10
1260.973592902451
 20
916.3592252560993
 30
0.0
  0
VERTEX
  5
7BF
  8
1_5__-1
  6
CONTINUOUS
 62
     1
 10
1261.007717398529
 20
916.3847025233176
 30
0.0
  0
VERTEX
  5
7C0
  8
1_5__-1
  6
CONTINUOUS
 62
     1
 10
1261.041626127922
 20
916.4106747925985
 30
0.0
  0
VERTEX
  5
7C1
  8
1_5__-1
  6
CONTINUOUS
 62
     1
 10
1261.075319090631
 20
916.4371420639422
 30
0.0
  0
VERTEX
  5
7C2
  8
1_5__-1
  6
CONTINUOUS
 62
     1
 10
1261.108796286656
 20
916.4641043373481
 30
0.0
  0
VERTEX
  5
7C3
  8
1_5__-1
  6
CONTINUOUS
 62
     1
 10
1261.142057715996
 20
916.491561612816
 30
0.0
  0
VERTEX
  5
7C4
  8
1_5__-1
  6
CONTINUOUS
 62
     1
 10
1261.175103378652
 20
916.5195138903468
 30
0.0
  0
VERTEX
  5
7C5
  8
1_5__-1
  6
CONTINUOUS
 62
     1
 10
1261.207933274624
 20
916.5479611699398
 30
0.0
  0
VERTEX
  5
7C6
  8
1_5__-1
  6
CONTINUOUS
 62
     1
 10
1261.240547403911
 20
916.5769034515947
 30
0.0
  0
VERTEX
  5
7C7
  8
1_5__-1
  6
CONTINUOUS
 62
     1
 10
1261.272945766514
 20
916.6063407353126
 30
0.0
  0
VERTEX
  5
7C8
  8
1_5__-1
  6
CONTINUOUS
 62
     1
 10
1261.305128362432
 20
916.6362730210931
 30
0.0
  0
VERTEX
  5
7C9
  8
1_5__-1
  6
CONTINUOUS
 62
     1
 10
1261.337095191666
 20
916.6667003089356
 30
0.0
  0
VERTEX
  5
7CA
  8
1_5__-1
  6
CONTINUOUS
 62
     1
 10
1261.368846254216
 20
916.6976225988406
 30
0.0
  0
VERTEX
  5
7CB
  8
1_5__-1
  6
CONTINUOUS
 62
     1
 10
1261.400381550082
 20
916.729039890808
 30
0.0
  0
VERTEX
  5
7CC
  8
1_5__-1
  6
CONTINUOUS
 62
     1
 10
1261.400381550082
 20
916.729039890808
 30
0.0
  0
SEQEND
  5
7CD
  8
1_5__-1
  6
CONTINUOUS
 62
     1
  0
LINE
  5
7CE
  8
1_5__-1
  6
CONTINUOUS
 62
     1
 10
1276.122815000001
 20
916.7290400000056
 30
0.0
 11
1276.122815000001
 21
921.7290400000056
 31
0.0
  0
LINE
  5
7CF
  8
1_5__-1
  6
CONTINUOUS
 62
     1
 10
1271.215335
 20
916.7290400000056
 30
0.0
 11
1271.215335
 21
921.7290400000056
 31
0.0
  0
LINE
  5
7D0
  8
1_5__-1
  6
CONTINUOUS
 62
     1
 10
1256.492905000001
 20
916.7290400000056
 30
0.0
 11
1256.492905000001
 21
921.7290400000056
 31
0.0
  0
LINE
  5
7D1
  8
1_5__-1
  6
CONTINUOUS
 62
     1
 10
1261.400380000001
 20
916.7290400000056
 30
0.0
 11
1261.400380000001
 21
921.7290400000056
 31
0.0
  0
LINE
  5
7D2
  8
1_5__-1
  6
CONTINUOUS
 62
     1
 10
1257.992905000001
 20
923.2290400000056
 30
0.0
 11
1256.492905000001
 21
921.7290400000056
 31
0.0
  0
LINE
  5
7D3
  8
1_5__-1
  6
CONTINUOUS
 62
     1
 10
1276.122815000001
 20
921.7290400000056
 30
0.0
 11
1274.622815000001
 21
923.2290400000056
 31
0.0
  0
LINE
  5
7D4
  8
1_5__-1
  6
CONTINUOUS
 62
     1
 10
1274.622815000001
 20
923.2290400000056
 30
0.0
 11
1257.992905000001
 21
923.2290400000056
 31
0.0
  0
LINE
  5
7D5
  8
1_5__-1
  6
CONTINUOUS
 62
     1
 10
1274.622815000001
 20
915.2290400000056
 30
0.0
 11
1276.122815000001
 21
916.7290400000056
 31
0.0
  0
LINE
  5
7D6
  8
1_5__-1
  6
CONTINUOUS
 62
     1
 10
1256.492905000001
 20
916.7290400000056
 30
0.0
 11
1257.992905000001
 21
915.2290400000056
 31
0.0
  0
LINE
  5
7D7
  8
1_5__-1
  6
CONTINUOUS
 62
     1
 10
1274.622815000001
 20
915.2290400000056
 30
0.0
 11
1257.992905000001
 21
915.2290400000056
 31
0.0
  0
CIRCLE
  5
7D8
  8
1_5__-1
  6
CONTINUOUS
 62
     1
 10
1043.531250000001
 20
978.3403500000131
 30
0.0
 40
15.0
  0
CIRCLE
  5
7D9
  8
1_5__-1
  6
CONTINUOUS
 62
     1
 10
1043.531250000001
 20
978.3403500000131
 30
0.0
 40
5.500000000000057
  0
LINE
  5
7DA
  8
1_5__-1
  6
CONTINUOUS
 62
     1
 10
1028.531250000001
 20
904.5783550000051
 30
0.0
 11
1028.531250000001
 21
903.5783550000051
 31
0.0
  0
LINE
  5
7DB
  8
1_5__-1
  6
CONTINUOUS
 62
     1
 10
1058.531250000001
 20
904.5783550000051
 30
0.0
 11
1058.531250000001
 21
903.5783550000051
 31
0.0
  0
TEXT
  5
7DC
  8
1_5__-1
 62
     1
 10
793.491335
 20
1051.033027788083
 30
0.0
 40
11.06258439429012
  1
スペーサー（×2）
  7
YUGOTHIC_MEDIUM
 11
793.491335
 21
1062.095612182373
 31
0.0
 73
     3
  0
LINE
  5
7DD
  8
1_5__-1
  6
CONTINUOUS
 62
     1
 10
1028.531250000001
 20
904.5783550000051
 30
0.0
 11
1058.531250000001
 21
904.5783550000051
 31
0.0
  0
TEXT
  5
7DE
  8
1_5__-1
 62
     1
 10
892.5435303626905
 20
1294.309355706352
 30
0.0
 40
9.292570891203704
  1
M10
  7
YUGOTHIC_MEDIUM
 11
892.5435303626905
 21
1298.955641151954
 31
0.0
 73
     2
  0
LINE
  5
7DF
  8
1_5__-1
  6
CONTINUOUS
 62
     5
 10
833.6071360918816
 20
1263.279212625591
 30
0.0
 11
849.079161990903
 21
1290.07754757872
 31
0.0
  0
POLYLINE
  5
7E0
  8
1_5__-1
  6
CONTINUOUS
 62
    17
 66
     1
 10
0.0
 20
0.0
 30
0.0
 70
   129
  0
VERTEX
  5
7E1
  8
1_5__-1
  6
CONTINUOUS
 62
    17
 10
837.2671667255488
 20
1266.939243259258
 30
0.0
  0
VERTEX
  5
7E2
  8
1_5__-1
  6
CONTINUOUS
 62
    17
 10
833.6071360918816
 20
1263.279212625591
 30
0.0
  0
VERTEX
  5
7E3
  8
1_5__-1
  6
CONTINUOUS
 62
    17
 10
834.9468002824331
 20
1268.27890744981
 30
0.0
  0
SEQEND
  5
7E4
  8
1_5__-1
  6
CONTINUOUS
 62
    17
  0
LINE
  5
7E5
  8
1_5__-1
  6
CONTINUOUS
 62
     5
 10
849.079161990903
 20
1290.07754757872
 30
0.0
 11
917.5992197337134
 21
1290.07754757872
 31
0.0
  0
DIMENSION
  5
7E6
  8
1_5__-1
  6
CONTINUOUS
 62
    17
  2
*D17
 10
765.9375750000007
 20
1272.679774999997
 30
0.0
 11
760.5775344909276
 21
1202.679774999997
 31
0.0
 70
    32
  3
TOOLBOX
 13
815.9375750000007
 23
1132.679774999997
 33
0.0
 14
815.9375750000007
 24
1272.679774999997
 34
0.0
 50
-90.0
  0
DIMENSION
  5
7E7
  8
1_5__-1
  6
CONTINUOUS
 62
    17
  2
*D18
 10
823.8402150000014
 20
1199.406289999999
 30
0.0
 11
891.0571517155254
 21
1199.406289999999
 31
0.0
 70
   160
  3
TOOLBOX
 13
831.625570000001
 23
1199.406289999999
 33
0.0
 14
823.8402150000014
 24
1199.406289999999
 34
0.0
  0
DIMENSION
  5
7E8
  8
1_5__-1
  6
CONTINUOUS
 62
    17
  2
*D19
 10
823.12557
 20
1089.905925000057
 30
0.0
 11
827.6255699999998
 21
1095.26596550913
 31
0.0
 70
    32
  3
TOOLBOX
 13
832.1255699999996
 23
1143.181660000002
 33
0.0
 14
823.12557
 24
1139.905925000057
 34
0.0
  0
DIMENSION
  5
7E9
  8
1_5__-1
  6
CONTINUOUS
 62
    17
  2
*D20
 10
1028.562500000001
 20
1287.890784999996
 30
0.0
 11
1035.3125
 21
1293.250825509069
 31
0.0
 70
    32
  3
TOOLBOX
 13
1042.0625
 23
1262.890784999996
 33
0.0
 14
1028.562500000001
 24
1262.890784999996
 34
0.0
  0
DIMENSION
  5
7EC
  8
1_5__-1
  6
CONTINUOUS
 62
    17
  2
*D21
 10
1092.0625
 20
1262.890784999996
 30
0.0
 11
1086.702459490927
 21
1225.640785000011
 31
0.0
 70
    32
  3
TOOLBOX
 13
1039.312500000001
 23
1188.390785000025
 33
0.0
 14
1042.0625
 24
1262.890784999996
 34
0.0
 50
-90.0
  0
DIMENSION
  5
7ED
  8
1_5__-1
  6
CONTINUOUS
 62
    17
  2
*D22
 10
785.1187050000011
 20
905.3488652227334
 30
0.0
 11
779.7586644909281
 21
897.5988652227479
 31
0.0
 70
    32
  3
TOOLBOX
 13
829.6187050000007
 23
889.8488652227625
 33
0.0
 14
835.1187050000011
 24
905.3488652227334
 34
0.0
 50
-90.0
  0
DIMENSION
  5
7F0
  8
1_5__-1
  6
CONTINUOUS
 62
    17
  2
*D23
 10
835.1187050000007
 20
1003.340350000013
 30
0.0
 11
842.1187050000007
 21
1008.700390509086
 31
0.0
 70
    32
  3
TOOLBOX
 13
849.1187050000007
 23
978.3403500000131
 33
0.0
 14
835.1187050000007
 24
978.3403500000131
 34
0.0
  0
DIMENSION
  5
7F3
  8
1_5__-1
  6
CONTINUOUS
 62
    17
  2
*D24
 10
824.1187050000002
 20
928.3403500000131
 30
0.0
 11
842.1187050000007
 21
933.7003905090861
 31
0.0
 70
    32
  3
TOOLBOX
 13
860.1187050000011
 23
978.3403500000131
 33
0.0
 14
824.1187050000002
 24
978.3403500000131
 34
0.0
  0
DIMENSION
  5
7F4
  8
1_5__-1
  6
CONTINUOUS
 62
    17
  2
*D25
 10
1003.531250000001
 20
904.5783550000051
 30
0.0
 11
998.1712094909278
 21
904.0783550000051
 31
0.0
 70
    32
  3
TOOLBOX
 13
1028.531250000001
 23
903.5783550000051
 33
0.0
 14
1028.531250000001
 24
904.5783550000051
 34
0.0
 50
-90.0
  0
DIMENSION
  5
7F7
  8
1_5__-1
  6
CONTINUOUS
 62
    17
  2
*D26
 10
1028.531250000001
 20
928.3403500000131
 30
0.0
 11
1043.531250000001
 21
933.7003905090861
 31
0.0
 70
    32
  3
TOOLBOX
 13
1058.531250000001
 23
978.3403500000131
 33
0.0
 14
1028.531250000001
 24
978.3403500000131
 34
0.0
  0
DIMENSION
  5
7F8
  8
1_5__-1
  6
CONTINUOUS
 62
    17
  2
*D27
 10
1038.031250000001
 20
1003.340350000013
 30
0.0
 11
1043.531250000001
 21
1008.700390509086
 31
0.0
 70
    32
  3
TOOLBOX
 13
1049.031250000001
 23
978.3403500000131
 33
0.0
 14
1038.031250000001
 24
978.3403500000131
 34
0.0
  0
DIMENSION
  5
7FB
  8
1_5__-1
  6
CONTINUOUS
 62
    17
  2
*D28
 10
1232.992905000001
 20
923.2290400000056
 30
0.0
 11
1227.632864490928
 21
919.4165400000056
 31
0.0
 70
    32
  3
TOOLBOX
 13
1257.617905000001
 23
915.6040400000056
 33
0.0
 14
1257.992905000001
 24
923.2290400000056
 34
0.0
 50
-90.0
  0
DIMENSION
  5
7FE
  8
1_5__-1
  6
CONTINUOUS
 62
    17
  2
*D29
 10
1300.366666666853
 20
986.6611100000146
 30
0.0
 11
1300.366666666853
 21
933.6072235333568
 31
0.0
 70
   160
  3
TOOLBOX
 13
1266.30786
 23
969.6611100000127
 33
0.0
 14
1266.30786
 24
986.6611100000146
 34
0.0
 50
-90.0
  0
TEXT
  5
7FF
  8
1_5__-1
 62
     1
 10
1325.244254270809
 20
1017.691253080776
 30
0.0
 40
9.292570891203704
  1
M10
  7
YUGOTHIC_MEDIUM
 11
1325.244254270809
 21
1022.337538526378
 31
0.0
 73
     2
  0
LINE
  5
800
  8
1_5__-1
  6
CONTINUOUS
 62
     5
 10
1266.30786
 20
986.6611100000146
 30
0.0
 11
1281.779885899021
 21
1013.459444953144
 31
0.0
  0
POLYLINE
  5
801
  8
1_5__-1
  6
CONTINUOUS
 62
    17
 66
     1
 10
0.0
 20
0.0
 30
0.0
 70
   129
  0
VERTEX
  5
802
  8
1_5__-1
  6
CONTINUOUS
 62
    17
 10
1269.967890633667
 20
990.3211406336818
 30
0.0
  0
VERTEX
  5
803
  8
1_5__-1
  6
CONTINUOUS
 62
    17
 10
1266.30786
 20
986.6611100000146
 30
0.0
  0
VERTEX
  5
804
  8
1_5__-1
  6
CONTINUOUS
 62
    17
 10
1267.647524190551
 20
991.6608048242333
 30
0.0
  0
SEQEND
  5
805
  8
1_5__-1
  6
CONTINUOUS
 62
    17
  0
LINE
  5
806
  8
1_5__-1
  6
CONTINUOUS
 62
     5
 10
1281.779885899021
 20
1013.459444953144
 30
0.0
 11
1350.299943641832
 21
1013.459444953144
 31
0.0
  0
VIEWPORT
  5
807
 67
     1
  8
0
 10
128.5
 20
97.5
 30
0.0
 40
314.226
 41
222.18
 68
     1
 69
     1
1001
ACAD
1000
MVIEW
1002
{
1070
    16
1010
0.0
1020
0.0
1030
0.0
1010
0.0
1020
0.0
1030
1.0
1040
0.0
1040
222.18
1040
128.5
1040
97.5
1040
50.0
1040
0.0
1040
0.0
1070
     0
1070
   100
1070
     0
1070
     3
1070
     0
1070
     0
1070
     0
1070
     0
1040
0.0
1040
0.0
1040
0.0
1040
10.0
1040
10.0
1040
10.0
1040
10.0
1070
     0
1002
{
1002
}
1002
}
  0
ENDSEC
  0
EOF
