  0
SECTION
  2
HEADER
  9
$ACADVER
  1
AC1009
  9
$DWGCODEPAGE
  3
dos932
  9
$INSBASE
 10
0.0
 20
0.0
 30
0.0
  9
$EXTMIN
 10
68101.32158111241
 20
3910.393333333332
 30
0.0
  9
$EXTMAX
 10
72221.90999999997
 20
6795.833333333335
 30
0.0
  9
$LIMMIN
 10
0.0
 20
0.0
  9
$LIMMAX
 10
12.0
 20
9.0
  9
$ORTHOMODE
 70
     0
  9
$REGENMODE
 70
     1
  9
$FILLMODE
 70
     1
  9
$QTEXTMODE
 70
     0
  9
$MIRRTEXT
 70
     1
  9
$DRAGMODE
 70
     2
  9
$LTSCALE
 40
10.0
  9
$OSMODE
 70
    37
  9
$ATTMODE
 70
     1
  9
$TEXTSIZE
 40
0.2
  9
$TRACEWID
 40
1.0
  9
$TEXTSTYLE
  7
STANDARD
  9
$CLAYER
  8
__
  9
$CELTYPE
  6
BYLAYER
  9
$CECOLOR
 62
   256
  9
$DIMSCALE
 40
1.0
  9
$DIMASZ
 40
5.007446289062499
  9
$DIMEXO
 40
30.0
  9
$DIMDLI
 40
101.6
  9
$DIMRND
 40
0.0
  9
$DIMDLE
 40
0.0
  9
$DIMEXE
 40
0.0
  9
$DIMTP
 40
0.0
  9
$DIMTM
 40
0.0
  9
$DIMTXT
 40
21.24016203703704
  9
$DIMCEN
 40
0.0
  9
$DIMTSZ
 40
0.0
  9
$DIMTOL
 70
     0
  9
$DIMLIM
 70
     0
  9
$DIMTIH
 70
     0
  9
$DIMTOH
 70
     0
  9
$DIMSE1
 70
     0
  9
$DIMSE2
 70
     0
  9
$DIMTAD
 70
     1
  9
$DIMZIN
 70
     8
  9
$DIMBLK
  1
DOT
  9
$DIMASO
 70
     1
  9
$DIMSHO
 70
     1
  9
$DIMPOST
  1
<>
  9
$DIMAPOST
  1
[]
  9
$DIMALT
 70
     0
  9
$DIMALTD
 70
     3
  9
$DIMALTF
 40
0.0393700787401575
  9
$DIMLFAC
 40
1.0
  9
$DIMTOFL
 70
     1
  9
$DIMTVP
 40
0.0
  9
$DIMTIX
 70
     1
  9
$DIMSOXD
 70
     0
  9
$DIMSAH
 70
     0
  9
$DIMBLK1
  1
DOT
  9
$DIMBLK2
  1
DOT
  9
$DIMSTYLE
  2
SPEAC
  9
$DIMCLRD
 70
     0
  9
$DIMCLRE
 70
     0
  9
$DIMCLRT
 70
     0
  9
$DIMTFAC
 40
1.0
  9
$DIMGAP
 40
1.999999992549419
  9
$LUNITS
 70
     2
  9
$LUPREC
 70
     1
  9
$SKETCHINC
 40
0.1
  9
$FILLETRAD
 40
0.5
  9
$AUNITS
 70
     0
  9
$AUPREC
 70
     2
  9
$MENU
  1
.
  9
$ELEVATION
 40
0.0
  9
$PELEVATION
 40
0.0
  9
$THICKNESS
 40
0.0
  9
$LIMCHECK
 70
     0
  9
$CHAMFERA
 40
0.0
  9
$CHAMFERB
 40
0.0
  9
$SKPOLY
 70
     0
  9
$TDCREATE
 40
2459422.802056747
  9
$TDUPDATE
 40
2459422.802080243
  9
$TDINDWG
 40
0.0000000116
  9
$TDUSRTIMER
 40
0.0000000116
  9
$USRTIMER
 70
     1
  9
$ANGBASE
 50
0.0
  9
$ANGDIR
 70
     0
  9
$PDMODE
 70
     1
  9
$PDSIZE
 40
-2.0
  9
$PLINEWID
 40
0.0
  9
$COORDS
 70
     1
  9
$SPLFRAME
 70
     0
  9
$SPLINETYPE
 70
     6
  9
$SPLINESEGS
 70
     8
  9
$ATTDIA
 70
     0
  9
$ATTREQ
 70
     1
  9
$HANDLING
 70
     1
  9
$HANDSEED
  5
4FB
  9
$SURFTAB1
 70
     6
  9
$SURFTAB2
 70
     6
  9
$SURFTYPE
 70
     6
  9
$SURFU
 70
     6
  9
$SURFV
 70
     6
  9
$UCSNAME
  2

  9
$UCSORG
 10
0.0
 20
0.0
 30
0.0
  9
$UCSXDIR
 10
1.0
 20
0.0
 30
0.0
  9
$UCSYDIR
 10
0.0
 20
1.0
 30
0.0
  9
$PUCSNAME
  2

  9
$PUCSORG
 10
0.0
 20
0.0
 30
0.0
  9
$PUCSXDIR
 10
1.0
 20
0.0
 30
0.0
  9
$PUCSYDIR
 10
0.0
 20
1.0
 30
0.0
  9
$USERI1
 70
     0
  9
$USERI2
 70
     0
  9
$USERI3
 70
     0
  9
$USERI4
 70
     0
  9
$USERI5
 70
     0
  9
$USERR1
 40
0.0
  9
$USERR2
 40
0.0
  9
$USERR3
 40
0.0
  9
$USERR4
 40
0.0
  9
$USERR5
 40
0.0
  9
$WORLDVIEW
 70
     1
  9
$SHADEDGE
 70
     3
  9
$SHADEDIF
 70
    70
  9
$TILEMODE
 70
     1
  9
$MAXACTVP
 70
    64
  9
$PLIMCHECK
 70
     0
  9
$PEXTMIN
 10
1.000000000000000E+20
 20
1.000000000000000E+20
 30
1.000000000000000E+20
  9
$PEXTMAX
 10
-1.000000000000000E+20
 20
-1.000000000000000E+20
 30
-1.000000000000000E+20
  9
$PLIMMIN
 10
-20.0
 20
-7.5
  9
$PLIMMAX
 10
277.0
 20
202.5
  9
$UNITMODE
 70
     0
  9
$VISRETAIN
 70
     1
  9
$PLINEGEN
 70
     0
  9
$PSLTSCALE
 70
     1
  0
ENDSEC
  0
SECTION
  2
TABLES
  0
TABLE
  2
VPORT
 70
     1
  0
VPORT
  2
*ACTIVE
 70
     0
 10
0.0
 20
0.0
 11
1.0
 21
1.0
 12
70161.61579055618
 22
5353.113333333334
 13
0.0
 23
0.0
 14
0.5
 24
0.5
 15
0.5
 25
0.5
 16
0.0
 26
0.0
 36
1.0
 17
0.0
 27
0.0
 37
0.0
 40
2885.440000000003
 41
1.428062416438242
 42
2000.0
 43
0.0
 44
0.0
 50
0.0
 51
0.0
 71
     0
 72
   100
 73
     1
 74
     3
 75
     0
 76
     0
 77
     0
 78
     0
  0
ENDTAB
  0
TABLE
  2
LTYPE
 70
    37
  0
LTYPE
  2
CONTINUOUS
 70
     0
  3
Solid line
 72
    65
 73
     0
 40
0.0
  0
LTYPE
  2
DASHED3
 70
     0
  3

 72
    65
 73
     2
 40
0.6
 49
0.4
 49
-0.2
  0
LTYPE
  2
CENTER-3
 70
     0
  3

 72
    65
 73
     4
 40
20.1775456919058
 49
8.772845953002523
 49
-4.386422976501262
 49
2.631853785900756
 49
-4.386422976501262
  0
LTYPE
  2
ISO-04______
 70
     0
  3

 72
    65
 73
     4
 40
7.747000000000001
 49
6.095999999999999
 49
-0.7620000000000007
 49
0.1270000000000001
 49
-0.7620000000000007
  0
LTYPE
  2
DASHED2
 70
     0
  3

 72
    65
 73
     2
 40
1.2
 49
0.7999999999999999
 49
-0.4
  0
LTYPE
  2
PHANTOM4
 70
     0
  3

 72
    65
 73
     6
 40
95.25
 49
47.625
 49
-9.524999999999993
 49
9.524999999999999
 49
-9.524999999999999
 49
9.524999999999999
 49
-9.524999999999999
  0
LTYPE
  2
CENTER4
 70
     0
  3

 72
    65
 73
     4
 40
85.72500000000001
 49
57.15000000000001
 49
-9.524999999999999
 49
9.524999999999999
 49
-9.524999999999999
  0
LTYPE
  2
PHANTOM3
 70
     0
  3

 72
    65
 73
     6
 40
47.625
 49
23.8125
 49
-4.762499999999997
 49
4.762499999999999
 49
-4.762499999999999
 49
4.762499999999999
 49
-4.762499999999999
  0
LTYPE
  2
CENTER3
 70
     0
  3

 72
    65
 73
     4
 40
42.8625
 49
28.575
 49
-4.762499999999999
 49
4.762499999999999
 49
-4.762499999999999
  0
LTYPE
  2
PHANTOM-3
 70
     0
  3

 72
    65
 73
     6
 40
0.4999999999999999
 49
0.25
 49
-0.05
 49
0.05
 49
-0.05
 49
0.05
 49
-0.05
  0
LTYPE
  2
PHANTOM-2
 70
     0
  3

 72
    65
 73
     6
 40
0.4999999999999999
 49
0.25
 49
-0.05
 49
0.05
 49
-0.05
 49
0.05
 49
-0.05
  0
LTYPE
  2
PHANTOM
 70
     0
  3

 72
    65
 73
     6
 40
0.4999999999999999
 49
0.25
 49
-0.05
 49
0.05
 49
-0.05
 49
0.05
 49
-0.05
  0
LTYPE
  2
CENTER2
 70
     0
  3

 72
    65
 73
     4
 40
42.8625
 49
28.575
 49
-4.762499999999999
 49
4.762499999999999
 49
-4.762499999999999
  0
LTYPE
  2
PHANTOM2
 70
     0
  3

 72
    65
 73
     6
 40
47.625
 49
23.8125
 49
-4.762499999999997
 49
4.762499999999999
 49
-4.762499999999999
 49
4.762499999999999
 49
-4.762499999999999
  0
LTYPE
  2
DASHED
 70
     0
  3

 72
    65
 73
     2
 40
3.81
 49
2.54
 49
-1.27
  0
LTYPE
  2
CENTER
 70
     0
  3

 72
    65
 73
     4
 40
10.16
 49
6.35
 49
-1.27
 49
1.27
 49
-1.27
  0
LTYPE
  2
______-14
 70
     0
  3

 72
    65
 73
     4
 40
10.16
 49
6.35
 49
-1.27
 49
1.27
 49
-1.27
  0
LTYPE
  2
______-21
 70
     0
  3

 72
    65
 73
     4
 40
3.999999999999999
 49
2.5
 49
-0.4999999999999998
 49
0.4999999999999998
 49
-0.4999999999999998
  0
LTYPE
  2
______-12
 70
     0
  3

 72
    65
 73
     4
 40
14.2875
 49
9.524999999999999
 49
-1.5875
 49
1.5875
 49
-1.5875
  0
LTYPE
  2
______-17
 70
     0
  3

 72
    65
 73
     2
 40
2.38125
 49
1.5875
 49
-0.79375
  0
LTYPE
  2
______-26
 70
     0
  3

 72
    65
 73
     4
 40
6.433333999999999
 49
4.02083375
 49
-0.8041667499999999
 49
0.8041667499999999
 49
-0.8041667499999999
  0
LTYPE
  2
______-13
 70
     0
  3

 72
    65
 73
     2
 40
1.27
 49
0.635
 49
-0.635
  0
LTYPE
  2
______-10
 70
     0
  3

 72
    65
 73
     6
 40
30.1625
 49
19.05
 49
-1.411147799999999
 49
3.527704400000002
 49
-1.411147799999999
 49
3.175
 49
-1.5875
  0
LTYPE
  2
______-9
 70
     0
  3

 72
    65
 73
     4
 40
25.4
 49
19.05
 49
-1.411147799999999
 49
3.527704400000002
 49
-1.411147799999999
  0
LTYPE
  2
______-8
 70
     0
  3

 72
    65
 73
     6
 40
6.35
 49
3.175
 49
-1.0580624
 49
0.3527044000000002
 49
-0.7057644000000001
 49
0.3527043999999995
 49
-0.7057644000000001
  0
LTYPE
  2
______-7
 70
     0
  3

 72
    65
 73
     6
 40
9.524999999999999
 49
3.175
 49
-1.0580624
 49
3.175000000000001
 49
-1.0584688
 49
0.3527044000000002
 49
-0.7057643999999994
  0
LTYPE
  2
______-6
 70
     0
  3

 72
    65
 73
     4
 40
5.2915312
 49
3.175
 49
-1.0580624
 49
0.3527044000000002
 49
-0.7057644000000001
  0
LTYPE
  2
______-5
 70
     0
  3

 72
    65
 73
     6
 40
4.238191256830619
 49
1.367158469945361
 49
-0.6835792349726802
 49
0.4101475409836083
 49
-0.6835792349726806
 49
0.4101475409836083
 49
-0.6835792349726806
  0
LTYPE
  2
______-4
 70
     0
  3

 72
    65
 73
     6
 40
0.46875
 49
0.1875
 49
-0.09375
 49
0.00254
 49
-0.09121
 49
0.00254
 49
-0.09121
  0
LTYPE
  2
______-3
 70
     0
  3

 72
    65
 73
     6
 40
1.6
 49
0.6
 49
-0.2
 49
0.2
 49
-0.2
 49
0.2
 49
-0.2
  0
LTYPE
  2
______-2
 70
     0
  3

 72
    65
 73
     4
 40
1.2
 49
0.8999999999999999
 49
-0.1
 49
0.1
 49
-0.1
  0
LTYPE
  2
______-1
 70
     0
  3

 72
    65
 73
     2
 40
2.1165312
 49
1.0580624
 49
-1.0584688
  0
LTYPE
  2
PHANTOM-4
 70
     0
  3

 72
    65
 73
     6
 40
2.0
 49
0.9999999999999999
 49
-0.2
 49
0.2
 49
-0.2
 49
0.2
 49
-0.2
  0
LTYPE
  2
DOT-7
 70
     0
  3

 72
    65
 73
     2
 40
0.2
 49
0.00254
 49
-0.19746
  0
LTYPE
  2
DASHED-2
 70
     0
  3

 72
    65
 73
     2
 40
2.4
 49
1.6
 49
-0.7999999999999999
  0
LTYPE
  2
______-11
 70
     0
  3

 72
    65
 73
     2
 40
2.1165312
 49
1.0580624
 49
-1.0584688
  0
LTYPE
  2
DASHDOT
 70
     0
  3

 72
    65
 73
     4
 40
7.5
 49
3.75
 49
-1.875
 49
0.0025399999999997
 49
-1.87246
  0
ENDTAB
  0
TABLE
  2
LAYER
 70
    99
  0
LAYER
  2
0
 70
     0
 62
     7
  6
CONTINUOUS
  0
LAYER
  2
__
 70
     0
 62
     7
  6
CONTINUOUS
  0
LAYER
  2
__-1
 70
     0
 62
     7
  6
CONTINUOUS
  0
LAYER
  2
0_05_____
 70
     0
 62
     7
  6
CONTINUOUS
  0
LAYER
  2
____-8
 70
     0
 62
     7
  6
______-1
  0
LAYER
  2
_-_
 70
     0
 62
   211
  6
CONTINUOUS
  0
LAYER
  2
__-10
 70
     0
 62
     7
  6
CONTINUOUS
  0
LAYER
  2
__-11
 70
     0
 62
     7
  6
CONTINUOUS
  0
LAYER
  2
DEFPOINTS
 70
     0
 62
     7
  6
CONTINUOUS
  0
ENDTAB
  0
TABLE
  2
STYLE
 70
     3
  0
STYLE
  2
STANDARD
 70
     0
 40
0.0
 41
1.0
 50
0.0
 71
     0
 42
0.2
  3
txt
  4
BIGFONT.SHX
  0
STYLE
  2
YUGOTHIC_MEDIUM
 70
     0
 40
0.0
 41
1.0
 50
0.0
 71
     0
 42
0.2
  3

  4
YuGothic Medium
  0
STYLE
  2
YUGOTHIC_MEDIUM-B
 70
     0
 40
0.0
 41
1.0
 50
0.0
 71
     0
 42
0.2
  3

  4
YuGothic Medium
  0
ENDTAB
  0
TABLE
  2
VIEW
 70
     0
  0
ENDTAB
  0
TABLE
  2
UCS
 70
     0
  0
ENDTAB
  0
TABLE
  2
APPID
 70
     3
  0
APPID
  2
ACAD
 70
     0
  0
APPID
  2
ACCMTRANSPARENCY
 70
     0
  0
APPID
  2
ACAECLAYERSTANDARD
 70
     0
  0
ENDTAB
  0
TABLE
  2
DIMSTYLE
 70
     2
  0
DIMSTYLE
  2
STANDARD
 70
     0
  3

  4

  5

  6

  7

 40
1.0
 41
0.18
 42
0.0625
 43
0.38
 44
0.18
 45
0.0
 46
0.0
 47
0.0
 48
0.0
140
0.18
141
0.09
142
0.0
143
25.4
144
1.0
145
0.0
146
1.0
147
0.09
 71
     0
 72
     0
 73
     1
 74
     1
 75
     0
 76
     0
 77
     0
 78
     0
170
     0
171
     2
172
     0
173
     0
174
     0
175
     0
176
     0
177
     0
178
     0
  0
DIMSTYLE
  2
SPEAC
 70
     0
  3
<>
  4
[]
  5
DOT
  6
DOT
  7
DOT
 40
1.0
 41
5.007446289062499
 42
30.0
 43
101.6
 44
0.0
 45
0.0
 46
0.0
 47
0.0
 48
0.0
140
21.24016203703704
141
0.0
142
0.0
143
0.0393700787401575
144
1.0
145
0.0
146
1.0
147
1.999999992549419
 71
     0
 72
     0
 73
     0
 74
     0
 75
     0
 76
     0
 77
     1
 78
     8
170
     0
171
     3
172
     1
173
     0
174
     1
175
     0
176
     0
177
     0
178
     0
  0
ENDTAB
  0
ENDSEC
  0
SECTION
  2
BLOCKS
  0
BLOCK
  8
0
  2
$MODEL_SPACE
 70
     0
 10
0.0
 20
0.0
 30
0.0
  3
$MODEL_SPACE
  1

  0
ENDBLK
  5
21
  8
0
  0
BLOCK
 67
     1
  8
0
  2
$PAPER_SPACE
 70
     0
 10
0.0
 20
0.0
 30
0.0
  3
$PAPER_SPACE
  1

  0
ENDBLK
  5
1D
 67
     1
  8
0
  0
BLOCK
  8
0
  2
____
 70
     0
 10
0.0
 20
0.0
 30
0.0
  3
____
  1

  0
ENDBLK
  5
71
  8
0
  0
BLOCK
  8
0
  2
____-10
 70
     0
 10
0.0
 20
0.0
 30
0.0
  3
____-10
  1

  0
LINE
  5
187
  8
__-11
  6
CONTINUOUS
 62
     7
 10
10286.11447639097
 20
152.364711353257
 30
0.0
 11
-10291.23333333334
 21
152.364711353257
 31
0.0
  0
TEXT
  5
188
  8
__-11
 62
     3
 10
7782.568190081045
 20
-73.8607713634704
 30
0.0
 40
92.92570891203705
  1
2021.08.05
  7
YUGOTHIC_MEDIUM
 11
7782.568190081045
 21
-27.39791690745187
 31
0.0
 73
     2
  0
TEXT
  5
189
  8
__-11
 62
     3
 10
9418.182723506296
 20
-68.83052003014774
 30
0.0
 40
92.92570891203705
  1
1:10(A3)
  7
YUGOTHIC_MEDIUM
 11
9418.182723506296
 21
-22.36766557412921
 31
0.0
 73
     2
  0
INSERT
  5
18A
  8
__-11
 62
    17
  2
____
 10
0.0
 20
0.0
 30
0.0
  0
TEXT
  5
18B
  8
__-11
 62
     3
 10
8943.584079810476
 20
-16.74895857221611
 30
0.0
 40
79.65060763888889
  1
SCALE:
  7
YUGOTHIC_MEDIUM
 11
8943.584079810476
 21
62.90164906667277
 31
0.0
 73
     3
  0
TEXT
  5
18C
  8
__-11
 62
     3
 10
-1596.184727690183
 20
-23.69362198009378
 30
0.0
 40
79.65060763888889
  1
NAME:
  7
YUGOTHIC_MEDIUM
 11
-1596.184727690183
 21
55.95698565879511
 31
0.0
 73
     3
  0
TEXT
  5
18D
  8
__-11
 62
     3
 10
7369.947110744426
 20
-18.76862198007632
 30
0.0
 40
79.65060763888889
  1
DATE:
  7
YUGOTHIC_MEDIUM
 11
7369.947110744426
 21
60.88198565881257
 31
0.0
 73
     3
  0
TEXT
  5
18E
  8
__-11
 62
     3
 10
5675.38006993715
 20
-15.84116374801135
 30
0.0
 40
79.65060763888889
  1
ID:
  7
YUGOTHIC_MEDIUM
 11
5675.38006993715
 21
63.80944389087753
 31
0.0
 73
     3
  0
TEXT
  5
18F
  8
__-11
 62
     3
 10
-1152.120833333291
 20
-80.73569373933559
 30
0.0
 40
106.2008101851852
  1
棚付きボックスミラー 
  7
YUGOTHIC_MEDIUM
 11
-1152.120833333291
 21
-27.63528864674299
 31
0.0
 73
     2
  0
TEXT
  5
190
  8
__-11
 62
     3
 10
5850.820143206045
 20
-73.8607713634704
 30
0.0
 40
92.92570891203705
  1
KB-AC018
  7
YUGOTHIC_MEDIUM
 11
5850.820143206045
 21
-27.39791690745187
 31
0.0
 73
     2
  0
ENDBLK
  5
74
  8
0
  0
BLOCK
  8
0
  2
*D3
 70
     1
 10
0.0
 20
0.0
 30
0.0
  3
*D3
  1

  0
LINE
  5
191
  8
__-1
 62
     0
 10
68715.54252519493
 20
5111.492354529104
 30
0.0
 11
68595.54252519493
 21
5111.492354529104
 31
0.0
  0
LINE
  5
192
  8
__-1
 62
     0
 10
68715.54252519493
 20
4531.492354529105
 30
0.0
 11
68595.54252519493
 21
4531.492354529105
 31
0.0
  0
LINE
  5
193
  8
__-1
 62
     0
 10
68595.54252519493
 20
5106.484908240041
 30
0.0
 11
68595.54252519493
 21
4536.499800818167
 31
0.0
  0
INSERT
  5
194
  8
__-1
 62
     0
  2
_DOT
 10
68595.54252519493
 20
5111.492354529104
 30
0.0
 41
5.007446289062499
 42
5.007446289062499
 43
5.007446289062499
 50
90.0
  0
INSERT
  5
195
  8
__-1
 62
     0
  2
_DOT
 10
68595.54252519493
 20
4531.492354529105
 30
0.0
 41
5.007446289062499
 42
5.007446289062499
 43
5.007446289062499
 50
270.0
  0
TEXT
  5
196
  8
__-1
  6
CONTINUOUS
 62
     0
 10
68593.5425252024
 20
4791.149265904758
 30
0.0
 40
21.24016203703704
  1
580
 50
90.0
  7
YUGOTHIC_MEDIUM
  0
POINT
  5
197
  8
DEFPOINTS
 62
     0
 10
68745.54252519493
 20
5111.492354529104
 30
0.0
  0
POINT
  5
198
  8
DEFPOINTS
 62
     0
 10
68745.54252519493
 20
4531.492354529105
 30
0.0
  0
POINT
  5
199
  8
DEFPOINTS
 62
     0
 10
68595.54252519493
 20
4531.492354529105
 30
0.0
  0
ENDBLK
  5
77
  8
0
  0
BLOCK
  8
0
  2
*D4
 70
     1
 10
0.0
 20
0.0
 30
0.0
  3
*D4
  1

  0
LINE
  5
19A
  8
__-1
 62
     0
 10
68715.54252519493
 20
6061.053234651074
 30
0.0
 11
68621.37585853944
 21
6061.053234651074
 31
0.0
  0
LINE
  5
19B
  8
__-1
 62
     0
 10
68715.54252519493
 20
6041.053234651074
 30
0.0
 11
68621.37585853944
 21
6041.053234651074
 31
0.0
  0
LINE
  5
19C
  8
__-1
 62
     0
 10
68621.37585853944
 20
6041.053234651074
 30
0.0
 11
68621.37585853944
 21
5997.656954602659
 31
0.0
  0
LINE
  5
19D
  8
__-1
 62
     0
 10
68621.37585853944
 20
6056.045788362011
 30
0.0
 11
68621.37585853944
 21
6046.060680940136
 31
0.0
  0
INSERT
  5
19E
  8
__-1
 62
     0
  2
_DOT
 10
68621.37585853944
 20
6061.053234651074
 30
0.0
 41
5.007446289062499
 42
5.007446289062499
 43
5.007446289062499
 50
90.0
  0
INSERT
  5
19F
  8
__-1
 62
     0
  2
_DOT
 10
68621.37585853944
 20
6041.053234651074
 30
0.0
 41
5.007446289062499
 42
5.007446289062499
 43
5.007446289062499
 50
270.0
  0
TEXT
  5
1A0
  8
__-1
  6
CONTINUOUS
 62
     0
 10
68619.37585854689
 20
5996.622645732772
 30
0.0
 40
21.24016203703704
  1
20
 50
90.0
  7
YUGOTHIC_MEDIUM
  0
POINT
  5
1A1
  8
DEFPOINTS
 62
     0
 10
68745.54252519493
 20
6061.053234651074
 30
0.0
  0
POINT
  5
1A2
  8
DEFPOINTS
 62
     0
 10
68745.54252519493
 20
6041.053234651074
 30
0.0
  0
POINT
  5
1A3
  8
DEFPOINTS
 62
     0
 10
68645.54252519493
 20
6041.053234651074
 30
0.0
  0
ENDBLK
  5
7A
  8
0
  0
BLOCK
  8
0
  2
*D5
 70
     1
 10
0.0
 20
0.0
 30
0.0
  3
*D5
  1

  0
LINE
  5
1A4
  8
__-1
 62
     0
 10
68715.54252519493
 20
6061.053234651074
 30
0.0
 11
68645.54252519493
 21
6061.053234651074
 31
0.0
  0
LINE
  5
1A5
  8
__-1
 62
     0
 10
68715.54252519493
 20
6064.053234651074
 30
0.0
 11
68645.54252519493
 21
6064.053234651074
 31
0.0
  0
LINE
  5
1A6
  8
__-1
 62
     0
 10
68645.54252519493
 20
6061.053234651074
 30
0.0
 11
68645.54252519493
 21
6064.053234651074
 31
0.0
  0
LINE
  5
1A7
  8
__-1
 62
     0
 10
68645.54252519493
 20
6056.045788362011
 30
0.0
 11
68645.54252519493
 21
6051.038342072949
 31
0.0
  0
LINE
  5
1A8
  8
__-1
 62
     0
 10
68645.54252519493
 20
6069.060680940136
 30
0.0
 11
68645.54252519493
 21
6074.068127229199
 31
0.0
  0
INSERT
  5
1A9
  8
__-1
 62
     0
  2
_DOT
 10
68645.54252519493
 20
6061.053234651074
 30
0.0
 41
5.007446289062499
 42
5.007446289062499
 43
5.007446289062499
 50
90.0
  0
INSERT
  5
1AA
  8
__-1
 62
     0
  2
_DOT
 10
68645.54252519493
 20
6064.053234651074
 30
0.0
 41
5.007446289062499
 42
5.007446289062499
 43
5.007446289062499
 50
270.0
  0
TEXT
  5
1AB
  8
__-1
  6
CONTINUOUS
 62
     0
 10
68643.5425252024
 20
6052.438871776292
 30
0.0
 40
21.24016203703704
  1
3
 50
90.0
  7
YUGOTHIC_MEDIUM
  0
POINT
  5
1AC
  8
DEFPOINTS
 62
     0
 10
68745.54252519493
 20
6061.053234651074
 30
0.0
  0
POINT
  5
389
  8
DEFPOINTS
 62
     0
 10
68745.54252519493
 20
6064.053234651074
 30
0.0
  0
POINT
  5
38A
  8
DEFPOINTS
 62
     0
 10
68645.54252519493
 20
6064.053234651074
 30
0.0
  0
ENDBLK
  5
7D
  8
0
  0
BLOCK
  8
0
  2
*D6
 70
     1
 10
0.0
 20
0.0
 30
0.0
  3
*D6
  1

  0
LINE
  5
1AD
  8
__-1
 62
     0
 10
68715.54252519493
 20
6214.053234651074
 30
0.0
 11
68645.54252519493
 21
6214.053234651074
 31
0.0
  0
LINE
  5
1AE
  8
__-1
 62
     0
 10
68715.54252519493
 20
6064.053234651074
 30
0.0
 11
68645.54252519493
 21
6064.053234651074
 31
0.0
  0
LINE
  5
1AF
  8
__-1
 62
     0
 10
68645.54252519493
 20
6209.045788362011
 30
0.0
 11
68645.54252519493
 21
6069.060680940136
 31
0.0
  0
INSERT
  5
1B0
  8
__-1
 62
     0
  2
_DOT
 10
68645.54252519493
 20
6214.053234651074
 30
0.0
 41
5.007446289062499
 42
5.007446289062499
 43
5.007446289062499
 50
90.0
  0
INSERT
  5
1B1
  8
__-1
 62
     0
  2
_DOT
 10
68645.54252519493
 20
6064.053234651074
 30
0.0
 41
5.007446289062499
 42
5.007446289062499
 43
5.007446289062499
 50
270.0
  0
TEXT
  5
1B2
  8
__-1
  6
CONTINUOUS
 62
     0
 10
68643.5425252024
 20
6107.192991595512
 30
0.0
 40
21.24016203703704
  1
150
 50
90.0
  7
YUGOTHIC_MEDIUM
  0
POINT
  5
1B3
  8
DEFPOINTS
 62
     0
 10
68745.54252519493
 20
6214.053234651074
 30
0.0
  0
POINT
  5
1B4
  8
DEFPOINTS
 62
     0
 10
68745.54252519493
 20
6064.053234651074
 30
0.0
  0
POINT
  5
1B5
  8
DEFPOINTS
 62
     0
 10
68645.54252519493
 20
6064.053234651074
 30
0.0
  0
ENDBLK
  5
80
  8
0
  0
BLOCK
  8
0
  2
*D7
 70
     1
 10
0.0
 20
0.0
 30
0.0
  3
*D7
  1

  0
LINE
  5
1B6
  8
__-1
 62
     0
 10
68715.54252519493
 20
6214.053234651074
 30
0.0
 11
68545.54252519493
 21
6214.053234651074
 31
0.0
  0
LINE
  5
1B7
  8
__-1
 62
     0
 10
68715.54252519493
 20
6041.053234651074
 30
0.0
 11
68545.54252519493
 21
6041.053234651074
 31
0.0
  0
LINE
  5
1B8
  8
__-1
 62
     0
 10
68545.54252519493
 20
6209.045788362011
 30
0.0
 11
68545.54252519493
 21
6046.060680940136
 31
0.0
  0
INSERT
  5
1B9
  8
__-1
 62
     0
  2
_DOT
 10
68545.54252519493
 20
6214.053234651074
 30
0.0
 41
5.007446289062499
 42
5.007446289062499
 43
5.007446289062499
 50
90.0
  0
INSERT
  5
1BA
  8
__-1
 62
     0
  2
_DOT
 10
68545.54252519493
 20
6041.053234651074
 30
0.0
 41
5.007446289062499
 42
5.007446289062499
 43
5.007446289062499
 50
270.0
  0
TEXT
  5
1BB
  8
__-1
  6
CONTINUOUS
 62
     0
 10
68543.5425252024
 20
6095.692991595512
 30
0.0
 40
21.24016203703704
  1
173
 50
90.0
  7
YUGOTHIC_MEDIUM
  0
POINT
  5
1BC
  8
DEFPOINTS
 62
     0
 10
68745.54252519493
 20
6214.053234651074
 30
0.0
  0
POINT
  5
1BD
  8
DEFPOINTS
 62
     0
 10
68745.54252519493
 20
6041.053234651074
 30
0.0
  0
POINT
  5
1BE
  8
DEFPOINTS
 62
     0
 10
68545.54252519493
 20
6041.053234651074
 30
0.0
  0
ENDBLK
  5
83
  8
0
  0
BLOCK
  8
0
  2
____-1
 70
     0
 10
0.0
 20
0.0
 30
0.0
  3
____-1
  1

  0
POLYLINE
  5
1BF
  8
__
  6
CONTINUOUS
 62
     1
 66
     1
 10
0.0
 20
0.0
 30
0.0
 70
   129
  0
VERTEX
  5
1C0
  8
__
  6
CONTINUOUS
 62
     1
 10
69690.16115240536
 20
5062.992354529105
 30
0.0
  0
VERTEX
  5
1C1
  8
__
  6
CONTINUOUS
 62
     1
 10
69697.73690998112
 20
5062.992354529105
 30
0.0
  0
VERTEX
  5
1C2
  8
__
  6
CONTINUOUS
 62
     1
 10
69697.73690998112
 20
5002.992354529105
 30
0.0
  0
VERTEX
  5
1C3
  8
__
  6
CONTINUOUS
 62
     1
 10
69690.16115240536
 20
5002.992354529105
 30
0.0
  0
SEQEND
  5
1C4
  8
__
  6
CONTINUOUS
 62
     1
  0
POLYLINE
  5
1C5
  8
__
  6
CONTINUOUS
 62
     1
 66
     1
 10
0.0
 20
0.0
 30
0.0
 70
   129
  0
VERTEX
  5
1C6
  8
__
  6
CONTINUOUS
 62
     1
 10
69690.16115240536
 20
5042.992354529105
 30
0.0
  0
VERTEX
  5
1C7
  8
__
  6
CONTINUOUS
 62
     1
 10
69710.16115240536
 20
5042.992354529105
 30
0.0
  0
VERTEX
  5
1C8
  8
__
  6
CONTINUOUS
 62
     1
 10
69710.16115240536
 20
5022.992354529105
 30
0.0
  0
VERTEX
  5
1C9
  8
__
  6
CONTINUOUS
 62
     1
 10
69690.16115240536
 20
5022.992354529105
 30
0.0
  0
SEQEND
  5
1CA
  8
__
  6
CONTINUOUS
 62
     1
  0
POLYLINE
  5
1CB
  8
__
  6
CONTINUOUS
 62
     1
 66
     1
 10
0.0
 20
0.0
 30
0.0
 70
   129
  0
VERTEX
  5
1CC
  8
__
  6
CONTINUOUS
 62
     1
 10
69692.58539482961
 20
5037.992354529105
 30
0.0
  0
VERTEX
  5
1CD
  8
__
  6
CONTINUOUS
 62
     1
 10
69707.73690998113
 20
5037.992354529105
 30
0.0
  0
VERTEX
  5
1CE
  8
__
  6
CONTINUOUS
 62
     1
 10
69707.73690998113
 20
5027.992354529105
 30
0.0
  0
VERTEX
  5
1CF
  8
__
  6
CONTINUOUS
 62
     1
 10
69692.58539482961
 20
5027.992354529105
 30
0.0
  0
SEQEND
  5
1D0
  8
__
  6
CONTINUOUS
 62
     1
  0
ENDBLK
  5
86
  8
0
  0
BLOCK
  8
0
  2
____-2
 70
     0
 10
0.0
 20
0.0
 30
0.0
  3
____-2
  1

  0
POLYLINE
  5
1D1
  8
__
  6
CONTINUOUS
 62
     1
 66
     1
 10
0.0
 20
0.0
 30
0.0
 70
   129
  0
VERTEX
  5
1D2
  8
__
  6
CONTINUOUS
 62
     1
 10
69690.16115240536
 20
4652.492354529105
 30
0.0
  0
VERTEX
  5
1D3
  8
__
  6
CONTINUOUS
 62
     1
 10
69697.73690998112
 20
4652.492354529105
 30
0.0
  0
VERTEX
  5
1D4
  8
__
  6
CONTINUOUS
 62
     1
 10
69697.73690998112
 20
4592.492354529105
 30
0.0
  0
VERTEX
  5
1D5
  8
__
  6
CONTINUOUS
 62
     1
 10
69690.16115240536
 20
4592.492354529105
 30
0.0
  0
SEQEND
  5
1D6
  8
__
  6
CONTINUOUS
 62
     1
  0
POLYLINE
  5
1D7
  8
__
  6
CONTINUOUS
 62
     1
 66
     1
 10
0.0
 20
0.0
 30
0.0
 70
   129
  0
VERTEX
  5
1D8
  8
__
  6
CONTINUOUS
 62
     1
 10
69690.16115240536
 20
4632.492354529105
 30
0.0
  0
VERTEX
  5
1D9
  8
__
  6
CONTINUOUS
 62
     1
 10
69710.16115240536
 20
4632.492354529105
 30
0.0
  0
VERTEX
  5
1DA
  8
__
  6
CONTINUOUS
 62
     1
 10
69710.16115240536
 20
4612.492354529105
 30
0.0
  0
VERTEX
  5
1DB
  8
__
  6
CONTINUOUS
 62
     1
 10
69690.16115240536
 20
4612.492354529105
 30
0.0
  0
SEQEND
  5
1DC
  8
__
  6
CONTINUOUS
 62
     1
  0
POLYLINE
  5
1DD
  8
__
  6
CONTINUOUS
 62
     1
 66
     1
 10
0.0
 20
0.0
 30
0.0
 70
   129
  0
VERTEX
  5
1DE
  8
__
  6
CONTINUOUS
 62
     1
 10
69692.58539482961
 20
4627.492354529105
 30
0.0
  0
VERTEX
  5
1DF
  8
__
  6
CONTINUOUS
 62
     1
 10
69707.73690998113
 20
4627.492354529105
 30
0.0
  0
VERTEX
  5
1E0
  8
__
  6
CONTINUOUS
 62
     1
 10
69707.73690998113
 20
4617.492354529105
 30
0.0
  0
VERTEX
  5
1E1
  8
__
  6
CONTINUOUS
 62
     1
 10
69692.58539482961
 20
4617.492354529105
 30
0.0
  0
SEQEND
  5
1E2
  8
__
  6
CONTINUOUS
 62
     1
  0
ENDBLK
  5
89
  8
0
  0
BLOCK
  8
0
  2
____-3
 70
     0
 10
0.0
 20
0.0
 30
0.0
  3
____-3
  1

  0
POLYLINE
  5
1E3
  8
__
  6
______-13
 62
     4
 66
     1
 10
0.0
 20
0.0
 30
0.0
 70
   129
  0
VERTEX
  5
1E4
  8
__
  6
______-13
 62
     4
 10
69831.16115240536
 20
4575.992354529105
 30
0.0
  0
VERTEX
  5
1E5
  8
__
  6
______-13
 62
     4
 10
69894.57281594322
 20
4575.992354529105
 30
0.0
  0
VERTEX
  5
1E6
  8
__
  6
______-13
 62
     4
 10
69894.57281594322
 20
4549.492354529105
 30
0.0
  0
VERTEX
  5
1E7
  8
__
  6
______-13
 62
     4
 10
69831.16115240536
 20
4549.492354529105
 30
0.0
  0
SEQEND
  5
1E8
  8
__
  6
______-13
 62
     4
  0
POLYLINE
  5
1E9
  8
__
  6
______-13
 62
     4
 66
     1
 10
0.0
 20
0.0
 30
0.0
 70
   129
  0
VERTEX
  5
1EA
  8
__
  6
______-13
 62
     4
 10
69831.16115240536
 20
4709.992354529105
 30
0.0
  0
VERTEX
  5
1EB
  8
__
  6
______-13
 62
     4
 10
69894.57281594322
 20
4709.992354529105
 30
0.0
  0
VERTEX
  5
1EC
  8
__
  6
______-13
 62
     4
 10
69894.57281594322
 20
4575.992354529105
 30
0.0
  0
VERTEX
  5
1ED
  8
__
  6
______-13
 62
     4
 10
69831.16115240536
 20
4575.992354529105
 30
0.0
  0
SEQEND
  5
1EE
  8
__
  6
______-13
 62
     4
  0
ENDBLK
  5
8C
  8
0
  0
BLOCK
  8
0
  2
*D11
 70
     1
 10
0.0
 20
0.0
 30
0.0
  3
*D11
  1

  0
LINE
  5
1EF
  8
__-1
 62
     0
 10
70881.60715181571
 20
4501.492354529105
 30
0.0
 11
70881.60715181571
 21
4455.659021184596
 31
0.0
  0
LINE
  5
1F0
  8
__-1
 62
     0
 10
70863.60715181571
 20
4501.492354529105
 30
0.0
 11
70863.60715181571
 21
4455.659021184596
 31
0.0
  0
LINE
  5
1F1
  8
__-1
 62
     0
 10
70863.60715181571
 20
4455.659021184596
 30
0.0
 11
70823.24518062973
 21
4455.659021184596
 31
0.0
  0
LINE
  5
1F2
  8
__-1
 62
     0
 10
70876.59970552665
 20
4455.659021184596
 30
0.0
 11
70868.61459810477
 21
4455.659021184596
 31
0.0
  0
INSERT
  5
1F3
  8
__-1
 62
     0
  2
_DOT
 10
70881.60715181571
 20
4455.659021184596
 30
0.0
 41
5.007446289062499
 42
5.007446289062499
 43
5.007446289062499
  0
INSERT
  5
1F4
  8
__-1
 62
     0
  2
_DOT
 10
70863.60715181571
 20
4455.659021184596
 30
0.0
 41
5.007446289062499
 42
5.007446289062499
 43
5.007446289062499
 50
180.0
  0
TEXT
  5
1F5
  8
__-1
  6
CONTINUOUS
 62
     0
 10
70819.17656289741
 20
4457.659021177144
 30
0.0
 40
21.24016203703704
  1
18
  7
YUGOTHIC_MEDIUM
  0
POINT
  5
1F6
  8
DEFPOINTS
 62
     0
 10
70881.60715181571
 20
4531.492354529105
 30
0.0
  0
POINT
  5
1F7
  8
DEFPOINTS
 62
     0
 10
70863.60715181571
 20
4531.492354529105
 30
0.0
  0
POINT
  5
1F8
  8
DEFPOINTS
 62
     0
 10
70863.60715181571
 20
4431.492354529105
 30
0.0
  0
ENDBLK
  5
8F
  8
0
  0
BLOCK
  8
0
  2
*D12
 70
     1
 10
0.0
 20
0.0
 30
0.0
  3
*D12
  1

  0
LINE
  5
1F9
  8
__-1
 62
     0
 10
70881.60715181571
 20
4501.492354529105
 30
0.0
 11
70881.60715181571
 21
4431.492354529105
 31
0.0
  0
LINE
  5
1FA
  8
__-1
 62
     0
 10
70884.60715181571
 20
4501.492354529105
 30
0.0
 11
70884.60715181571
 21
4431.492354529105
 31
0.0
  0
LINE
  5
1FB
  8
__-1
 62
     0
 10
70881.60715181571
 20
4431.492354529105
 30
0.0
 11
70884.60715181571
 21
4431.492354529105
 31
0.0
  0
LINE
  5
1FC
  8
__-1
 62
     0
 10
70876.59970552665
 20
4431.492354529105
 30
0.0
 11
70871.59225923759
 21
4431.492354529105
 31
0.0
  0
LINE
  5
1FD
  8
__-1
 62
     0
 10
70889.61459810477
 20
4431.492354529105
 30
0.0
 11
70894.62204439384
 21
4431.492354529105
 31
0.0
  0
INSERT
  5
1FE
  8
__-1
 62
     0
  2
_DOT
 10
70881.60715181571
 20
4431.492354529105
 30
0.0
 41
5.007446289062499
 42
5.007446289062499
 43
5.007446289062499
  0
INSERT
  5
1FF
  8
__-1
 62
     0
  2
_DOT
 10
70884.60715181571
 20
4431.492354529105
 30
0.0
 41
5.007446289062499
 42
5.007446289062499
 43
5.007446289062499
 50
180.0
  0
TEXT
  5
200
  8
__-1
  6
CONTINUOUS
 62
     0
 10
70872.99278894093
 20
4433.492354521653
 30
0.0
 40
21.24016203703704
  1
3
  7
YUGOTHIC_MEDIUM
  0
POINT
  5
201
  8
DEFPOINTS
 62
     0
 10
70881.60715181571
 20
4531.492354529105
 30
0.0
  0
POINT
  5
435
  8
DEFPOINTS
 62
     0
 10
70884.60715181571
 20
4531.492354529105
 30
0.0
  0
POINT
  5
436
  8
DEFPOINTS
 62
     0
 10
70884.60715181571
 20
4431.492354529105
 30
0.0
  0
ENDBLK
  5
92
  8
0
  0
BLOCK
  8
0
  2
*D13
 70
     1
 10
0.0
 20
0.0
 30
0.0
  3
*D13
  1

  0
LINE
  5
202
  8
__-1
 62
     0
 10
71036.60715181571
 20
4501.492354529105
 30
0.0
 11
71036.60715181571
 21
4431.492354529105
 31
0.0
  0
LINE
  5
203
  8
__-1
 62
     0
 10
70884.60715181571
 20
4501.492354529105
 30
0.0
 11
70884.60715181571
 21
4431.492354529105
 31
0.0
  0
LINE
  5
204
  8
__-1
 62
     0
 10
71031.59970552665
 20
4431.492354529105
 30
0.0
 11
70889.61459810477
 21
4431.492354529105
 31
0.0
  0
INSERT
  5
205
  8
__-1
 62
     0
  2
_DOT
 10
71036.60715181571
 20
4431.492354529105
 30
0.0
 41
5.007446289062499
 42
5.007446289062499
 43
5.007446289062499
  0
INSERT
  5
206
  8
__-1
 62
     0
  2
_DOT
 10
70884.60715181571
 20
4431.492354529105
 30
0.0
 41
5.007446289062499
 42
5.007446289062499
 43
5.007446289062499
 50
180.0
  0
TEXT
  5
207
  8
__-1
  6
CONTINUOUS
 62
     0
 10
70928.74690876015
 20
4433.492354521653
 30
0.0
 40
21.24016203703704
  1
152
  7
YUGOTHIC_MEDIUM
  0
POINT
  5
208
  8
DEFPOINTS
 62
     0
 10
71036.60715181571
 20
4531.492354529105
 30
0.0
  0
POINT
  5
209
  8
DEFPOINTS
 62
     0
 10
70884.60715181571
 20
4531.492354529105
 30
0.0
  0
POINT
  5
20A
  8
DEFPOINTS
 62
     0
 10
70884.60715181571
 20
4431.492354529105
 30
0.0
  0
ENDBLK
  5
95
  8
0
  0
BLOCK
  8
0
  2
*D14
 70
     1
 10
0.0
 20
0.0
 30
0.0
  3
*D14
  1

  0
LINE
  5
20B
  8
__-1
 62
     0
 10
71036.60715181571
 20
4501.492354529105
 30
0.0
 11
71036.60715181571
 21
4331.492354529105
 31
0.0
  0
LINE
  5
20C
  8
__-1
 62
     0
 10
70863.60715181571
 20
4501.492354529105
 30
0.0
 11
70863.60715181571
 21
4331.492354529105
 31
0.0
  0
LINE
  5
20D
  8
__-1
 62
     0
 10
71031.59970552665
 20
4331.492354529105
 30
0.0
 11
70868.61459810477
 21
4331.492354529105
 31
0.0
  0
INSERT
  5
20E
  8
__-1
 62
     0
  2
_DOT
 10
71036.60715181571
 20
4331.492354529105
 30
0.0
 41
5.007446289062499
 42
5.007446289062499
 43
5.007446289062499
  0
INSERT
  5
20F
  8
__-1
 62
     0
  2
_DOT
 10
70863.60715181571
 20
4331.492354529105
 30
0.0
 41
5.007446289062499
 42
5.007446289062499
 43
5.007446289062499
 50
180.0
  0
TEXT
  5
210
  8
__-1
  6
CONTINUOUS
 62
     0
 10
70918.24690876015
 20
4333.492354521653
 30
0.0
 40
21.24016203703704
  1
173
  7
YUGOTHIC_MEDIUM
  0
POINT
  5
211
  8
DEFPOINTS
 62
     0
 10
71036.60715181571
 20
4531.492354529105
 30
0.0
  0
POINT
  5
212
  8
DEFPOINTS
 62
     0
 10
70863.60715181571
 20
4531.492354529105
 30
0.0
  0
POINT
  5
213
  8
DEFPOINTS
 62
     0
 10
70863.60715181571
 20
4331.492354529105
 30
0.0
  0
ENDBLK
  5
98
  8
0
  0
BLOCK
  8
0
  2
*D15
 70
     1
 10
0.0
 20
0.0
 30
0.0
  3
*D15
  1

  0
LINE
  5
214
  8
__-1
 62
     0
 10
70834.15132004679
 20
5111.492354529104
 30
0.0
 11
70714.15132004679
 21
5111.492354529104
 31
0.0
  0
LINE
  5
215
  8
__-1
 62
     0
 10
70834.15132004679
 20
4531.492354529105
 30
0.0
 11
70714.15132004679
 21
4531.492354529105
 31
0.0
  0
LINE
  5
216
  8
__-1
 62
     0
 10
70714.15132004679
 20
5106.484908240041
 30
0.0
 11
70714.15132004679
 21
4536.499800818167
 31
0.0
  0
INSERT
  5
217
  8
__-1
 62
     0
  2
_DOT
 10
70714.15132004679
 20
5111.492354529104
 30
0.0
 41
5.007446289062499
 42
5.007446289062499
 43
5.007446289062499
 50
90.0
  0
INSERT
  5
218
  8
__-1
 62
     0
  2
_DOT
 10
70714.15132004679
 20
4531.492354529105
 30
0.0
 41
5.007446289062499
 42
5.007446289062499
 43
5.007446289062499
 50
270.0
  0
TEXT
  5
219
  8
__-1
  6
CONTINUOUS
 62
     0
 10
70712.15132005424
 20
4791.149265904765
 30
0.0
 40
21.24016203703704
  1
580
 50
90.0
  7
YUGOTHIC_MEDIUM
  0
POINT
  5
21A
  8
DEFPOINTS
 62
     0
 10
70864.15132004679
 20
5111.492354529104
 30
0.0
  0
POINT
  5
21B
  8
DEFPOINTS
 62
     0
 10
70864.15132004679
 20
4531.492354529105
 30
0.0
  0
POINT
  5
21C
  8
DEFPOINTS
 62
     0
 10
70714.15132004679
 20
4531.492354529105
 30
0.0
  0
ENDBLK
  5
9B
  8
0
  0
BLOCK
  8
0
  2
____-4
 70
     0
 10
0.0
 20
0.0
 30
0.0
  3
____-4
  1

  0
POLYLINE
  5
21D
  8
_-_
  6
CONTINUOUS
 62
     1
 66
     1
 10
0.0
 20
0.0
 30
0.0
 70
   128
  0
VERTEX
  5
21E
  8
_-_
  6
CONTINUOUS
 62
     1
 10
70906.60715181571
 20
5033.992354529101
 30
0.0
  0
VERTEX
  5
21F
  8
_-_
  6
CONTINUOUS
 62
     1
 10
70906.60715181571
 20
5013.992354529101
 30
0.0
  0
VERTEX
  5
220
  8
_-_
  6
CONTINUOUS
 62
     1
 10
70881.60715181571
 20
5013.992354529101
 30
0.0
  0
VERTEX
  5
221
  8
_-_
  6
CONTINUOUS
 62
     1
 10
70881.60715181571
 20
5073.992354529105
 30
0.0
  0
VERTEX
  5
222
  8
_-_
  6
CONTINUOUS
 62
     1
 10
70906.60715181571
 20
5073.992354529105
 30
0.0
  0
VERTEX
  5
223
  8
_-_
  6
CONTINUOUS
 62
     1
 10
70906.60715181571
 20
5053.992354529105
 30
0.0
  0
SEQEND
  5
224
  8
_-_
  6
CONTINUOUS
 62
     1
  0
POLYLINE
  5
225
  8
_-_
  6
CONTINUOUS
 62
     1
 66
     1
 10
0.0
 20
0.0
 30
0.0
 70
   129
  0
VERTEX
  5
226
  8
_-_
  6
CONTINUOUS
 62
     1
 10
70881.60715181571
 20
5053.992354529105
 30
0.0
  0
VERTEX
  5
227
  8
_-_
  6
CONTINUOUS
 62
     1
 10
70947.60715181571
 20
5053.992354529105
 30
0.0
  0
VERTEX
  5
228
  8
_-_
  6
CONTINUOUS
 62
     1
 10
70947.60715181571
 20
5033.992354529101
 30
0.0
  0
VERTEX
  5
229
  8
_-_
  6
CONTINUOUS
 62
     1
 10
70881.60715181571
 20
5033.992354529101
 30
0.0
  0
SEQEND
  5
22A
  8
_-_
  6
CONTINUOUS
 62
     1
  0
POLYLINE
  5
22B
  8
_-_
  6
CONTINUOUS
 62
     1
 66
     1
 10
0.0
 20
0.0
 30
0.0
 70
   129
  0
VERTEX
  5
22C
  8
_-_
  6
CONTINUOUS
 62
     1
 10
70889.60715181571
 20
5048.992354529105
 30
0.0
  0
VERTEX
  5
22D
  8
_-_
  6
CONTINUOUS
 62
     1
 10
70939.60715181571
 20
5048.992354529105
 30
0.0
  0
VERTEX
  5
22E
  8
_-_
  6
CONTINUOUS
 62
     1
 10
70939.60715181571
 20
5038.992354529101
 30
0.0
  0
VERTEX
  5
22F
  8
_-_
  6
CONTINUOUS
 62
     1
 10
70889.60715181571
 20
5038.992354529101
 30
0.0
  0
SEQEND
  5
230
  8
_-_
  6
CONTINUOUS
 62
     1
  0
ENDBLK
  5
9E
  8
0
  0
BLOCK
  8
0
  2
____-5
 70
     0
 10
0.0
 20
0.0
 30
0.0
  3
____-5
  1

  0
POLYLINE
  5
231
  8
_-_
  6
CONTINUOUS
 62
     1
 66
     1
 10
0.0
 20
0.0
 30
0.0
 70
   128
  0
VERTEX
  5
232
  8
_-_
  6
CONTINUOUS
 62
     1
 10
70906.60715181571
 20
4596.992354529105
 30
0.0
  0
VERTEX
  5
233
  8
_-_
  6
CONTINUOUS
 62
     1
 10
70906.60715181571
 20
4576.992354529105
 30
0.0
  0
VERTEX
  5
234
  8
_-_
  6
CONTINUOUS
 62
     1
 10
70881.60715181571
 20
4576.992354529105
 30
0.0
  0
VERTEX
  5
235
  8
_-_
  6
CONTINUOUS
 62
     1
 10
70881.60715181571
 20
4636.992354529109
 30
0.0
  0
VERTEX
  5
236
  8
_-_
  6
CONTINUOUS
 62
     1
 10
70906.60715181571
 20
4636.992354529109
 30
0.0
  0
VERTEX
  5
237
  8
_-_
  6
CONTINUOUS
 62
     1
 10
70906.60715181571
 20
4616.992354529109
 30
0.0
  0
SEQEND
  5
238
  8
_-_
  6
CONTINUOUS
 62
     1
  0
POLYLINE
  5
239
  8
_-_
  6
CONTINUOUS
 62
     1
 66
     1
 10
0.0
 20
0.0
 30
0.0
 70
   129
  0
VERTEX
  5
23A
  8
_-_
  6
CONTINUOUS
 62
     1
 10
70881.60715181571
 20
4616.992354529109
 30
0.0
  0
VERTEX
  5
23B
  8
_-_
  6
CONTINUOUS
 62
     1
 10
70947.60715181571
 20
4616.992354529109
 30
0.0
  0
VERTEX
  5
23C
  8
_-_
  6
CONTINUOUS
 62
     1
 10
70947.60715181571
 20
4596.992354529105
 30
0.0
  0
VERTEX
  5
23D
  8
_-_
  6
CONTINUOUS
 62
     1
 10
70881.60715181571
 20
4596.992354529105
 30
0.0
  0
SEQEND
  5
23E
  8
_-_
  6
CONTINUOUS
 62
     1
  0
POLYLINE
  5
23F
  8
_-_
  6
CONTINUOUS
 62
     1
 66
     1
 10
0.0
 20
0.0
 30
0.0
 70
   129
  0
VERTEX
  5
240
  8
_-_
  6
CONTINUOUS
 62
     1
 10
70889.60715181571
 20
4611.992354529109
 30
0.0
  0
VERTEX
  5
241
  8
_-_
  6
CONTINUOUS
 62
     1
 10
70939.60715181571
 20
4611.992354529109
 30
0.0
  0
VERTEX
  5
242
  8
_-_
  6
CONTINUOUS
 62
     1
 10
70939.60715181571
 20
4601.992354529105
 30
0.0
  0
VERTEX
  5
243
  8
_-_
  6
CONTINUOUS
 62
     1
 10
70889.60715181571
 20
4601.992354529105
 30
0.0
  0
SEQEND
  5
244
  8
_-_
  6
CONTINUOUS
 62
     1
  0
ENDBLK
  5
A1
  8
0
  0
BLOCK
  8
0
  2
*D18
 70
     1
 10
0.0
 20
0.0
 30
0.0
  3
*D18
  1

  0
LINE
  5
245
  8
__-1
 62
     0
 10
71460.0856462213
 20
4501.492354529105
 30
0.0
 11
71460.0856462213
 21
4455.659021184596
 31
0.0
  0
LINE
  5
246
  8
__-1
 62
     0
 10
71442.0856462213
 20
4501.492354529105
 30
0.0
 11
71442.0856462213
 21
4455.659021184596
 31
0.0
  0
LINE
  5
247
  8
__-1
 62
     0
 10
71442.0856462213
 20
4455.659021184596
 30
0.0
 11
71401.72367503532
 21
4455.659021184596
 31
0.0
  0
LINE
  5
248
  8
__-1
 62
     0
 10
71455.07819993224
 20
4455.659021184596
 30
0.0
 11
71447.09309251036
 21
4455.659021184596
 31
0.0
  0
INSERT
  5
249
  8
__-1
 62
     0
  2
_DOT
 10
71460.0856462213
 20
4455.659021184596
 30
0.0
 41
5.007446289062499
 42
5.007446289062499
 43
5.007446289062499
  0
INSERT
  5
24A
  8
__-1
 62
     0
  2
_DOT
 10
71442.0856462213
 20
4455.659021184596
 30
0.0
 41
5.007446289062499
 42
5.007446289062499
 43
5.007446289062499
 50
180.0
  0
TEXT
  5
24B
  8
__-1
  6
CONTINUOUS
 62
     0
 10
71397.655057303
 20
4457.659021177144
 30
0.0
 40
21.24016203703704
  1
18
  7
YUGOTHIC_MEDIUM
  0
POINT
  5
24C
  8
DEFPOINTS
 62
     0
 10
71460.0856462213
 20
4531.492354529105
 30
0.0
  0
POINT
  5
24D
  8
DEFPOINTS
 62
     0
 10
71442.0856462213
 20
4531.492354529105
 30
0.0
  0
POINT
  5
24E
  8
DEFPOINTS
 62
     0
 10
71442.0856462213
 20
4431.492354529105
 30
0.0
  0
ENDBLK
  5
A4
  8
0
  0
BLOCK
  8
0
  2
*D19
 70
     1
 10
0.0
 20
0.0
 30
0.0
  3
*D19
  1

  0
LINE
  5
24F
  8
__-1
 62
     0
 10
71460.0856462213
 20
4501.492354529105
 30
0.0
 11
71460.0856462213
 21
4431.492354529105
 31
0.0
  0
LINE
  5
250
  8
__-1
 62
     0
 10
71463.0856462213
 20
4501.492354529105
 30
0.0
 11
71463.0856462213
 21
4431.492354529105
 31
0.0
  0
LINE
  5
251
  8
__-1
 62
     0
 10
71460.0856462213
 20
4431.492354529105
 30
0.0
 11
71463.0856462213
 21
4431.492354529105
 31
0.0
  0
LINE
  5
252
  8
__-1
 62
     0
 10
71455.07819993224
 20
4431.492354529105
 30
0.0
 11
71450.07075364317
 21
4431.492354529105
 31
0.0
  0
LINE
  5
253
  8
__-1
 62
     0
 10
71468.09309251036
 20
4431.492354529105
 30
0.0
 11
71473.10053879942
 21
4431.492354529105
 31
0.0
  0
INSERT
  5
254
  8
__-1
 62
     0
  2
_DOT
 10
71460.0856462213
 20
4431.492354529105
 30
0.0
 41
5.007446289062499
 42
5.007446289062499
 43
5.007446289062499
  0
INSERT
  5
255
  8
__-1
 62
     0
  2
_DOT
 10
71463.0856462213
 20
4431.492354529105
 30
0.0
 41
5.007446289062499
 42
5.007446289062499
 43
5.007446289062499
 50
180.0
  0
TEXT
  5
256
  8
__-1
  6
CONTINUOUS
 62
     0
 10
71451.47128334652
 20
4433.492354521653
 30
0.0
 40
21.24016203703704
  1
3
  7
YUGOTHIC_MEDIUM
  0
POINT
  5
257
  8
DEFPOINTS
 62
     0
 10
71460.0856462213
 20
4531.492354529105
 30
0.0
  0
POINT
  5
457
  8
DEFPOINTS
 62
     0
 10
71463.0856462213
 20
4531.492354529105
 30
0.0
  0
POINT
  5
458
  8
DEFPOINTS
 62
     0
 10
71463.0856462213
 20
4431.492354529105
 30
0.0
  0
ENDBLK
  5
A7
  8
0
  0
BLOCK
  8
0
  2
*D20
 70
     1
 10
0.0
 20
0.0
 30
0.0
  3
*D20
  1

  0
LINE
  5
258
  8
__-1
 62
     0
 10
71615.0856462213
 20
4501.492354529105
 30
0.0
 11
71615.0856462213
 21
4431.492354529105
 31
0.0
  0
LINE
  5
259
  8
__-1
 62
     0
 10
71463.0856462213
 20
4501.492354529105
 30
0.0
 11
71463.0856462213
 21
4431.492354529105
 31
0.0
  0
LINE
  5
25A
  8
__-1
 62
     0
 10
71610.07819993224
 20
4431.492354529105
 30
0.0
 11
71468.09309251036
 21
4431.492354529105
 31
0.0
  0
INSERT
  5
25B
  8
__-1
 62
     0
  2
_DOT
 10
71615.0856462213
 20
4431.492354529105
 30
0.0
 41
5.007446289062499
 42
5.007446289062499
 43
5.007446289062499
  0
INSERT
  5
25C
  8
__-1
 62
     0
  2
_DOT
 10
71463.0856462213
 20
4431.492354529105
 30
0.0
 41
5.007446289062499
 42
5.007446289062499
 43
5.007446289062499
 50
180.0
  0
TEXT
  5
25D
  8
__-1
  6
CONTINUOUS
 62
     0
 10
71507.22540316574
 20
4433.492354521653
 30
0.0
 40
21.24016203703704
  1
152
  7
YUGOTHIC_MEDIUM
  0
POINT
  5
25E
  8
DEFPOINTS
 62
     0
 10
71615.0856462213
 20
4531.492354529105
 30
0.0
  0
POINT
  5
25F
  8
DEFPOINTS
 62
     0
 10
71463.0856462213
 20
4531.492354529105
 30
0.0
  0
POINT
  5
260
  8
DEFPOINTS
 62
     0
 10
71463.0856462213
 20
4431.492354529105
 30
0.0
  0
ENDBLK
  5
AA
  8
0
  0
BLOCK
  8
0
  2
*D21
 70
     1
 10
0.0
 20
0.0
 30
0.0
  3
*D21
  1

  0
LINE
  5
261
  8
__-1
 62
     0
 10
71615.0856462213
 20
4501.492354529105
 30
0.0
 11
71615.0856462213
 21
4331.492354529105
 31
0.0
  0
LINE
  5
262
  8
__-1
 62
     0
 10
71442.0856462213
 20
4501.492354529105
 30
0.0
 11
71442.0856462213
 21
4331.492354529105
 31
0.0
  0
LINE
  5
263
  8
__-1
 62
     0
 10
71610.07819993224
 20
4331.492354529105
 30
0.0
 11
71447.09309251036
 21
4331.492354529105
 31
0.0
  0
INSERT
  5
264
  8
__-1
 62
     0
  2
_DOT
 10
71615.0856462213
 20
4331.492354529105
 30
0.0
 41
5.007446289062499
 42
5.007446289062499
 43
5.007446289062499
  0
INSERT
  5
265
  8
__-1
 62
     0
  2
_DOT
 10
71442.0856462213
 20
4331.492354529105
 30
0.0
 41
5.007446289062499
 42
5.007446289062499
 43
5.007446289062499
 50
180.0
  0
TEXT
  5
266
  8
__-1
  6
CONTINUOUS
 62
     0
 10
71496.72540316574
 20
4333.492354521653
 30
0.0
 40
21.24016203703704
  1
173
  7
YUGOTHIC_MEDIUM
  0
POINT
  5
267
  8
DEFPOINTS
 62
     0
 10
71615.0856462213
 20
4531.492354529105
 30
0.0
  0
POINT
  5
268
  8
DEFPOINTS
 62
     0
 10
71442.0856462213
 20
4531.492354529105
 30
0.0
  0
POINT
  5
269
  8
DEFPOINTS
 62
     0
 10
71442.0856462213
 20
4331.492354529105
 30
0.0
  0
ENDBLK
  5
AD
  8
0
  0
BLOCK
  8
0
  2
*D22
 70
     1
 10
0.0
 20
0.0
 30
0.0
  3
*D22
  1

  0
LINE
  5
26A
  8
__-1
 62
     0
 10
71412.62981445238
 20
5111.492354529104
 30
0.0
 11
71292.62981445238
 21
5111.492354529104
 31
0.0
  0
LINE
  5
26B
  8
__-1
 62
     0
 10
71412.62981445238
 20
4531.492354529105
 30
0.0
 11
71292.62981445238
 21
4531.492354529105
 31
0.0
  0
LINE
  5
26C
  8
__-1
 62
     0
 10
71292.62981445238
 20
5106.484908240041
 30
0.0
 11
71292.62981445238
 21
4536.499800818167
 31
0.0
  0
INSERT
  5
26D
  8
__-1
 62
     0
  2
_DOT
 10
71292.62981445238
 20
5111.492354529104
 30
0.0
 41
5.007446289062499
 42
5.007446289062499
 43
5.007446289062499
 50
90.0
  0
INSERT
  5
26E
  8
__-1
 62
     0
  2
_DOT
 10
71292.62981445238
 20
4531.492354529105
 30
0.0
 41
5.007446289062499
 42
5.007446289062499
 43
5.007446289062499
 50
270.0
  0
TEXT
  5
26F
  8
__-1
  6
CONTINUOUS
 62
     0
 10
71290.62981445984
 20
4791.149265904765
 30
0.0
 40
21.24016203703704
  1
580
 50
90.0
  7
YUGOTHIC_MEDIUM
  0
POINT
  5
270
  8
DEFPOINTS
 62
     0
 10
71442.62981445238
 20
5111.492354529104
 30
0.0
  0
POINT
  5
271
  8
DEFPOINTS
 62
     0
 10
71442.62981445238
 20
4531.492354529105
 30
0.0
  0
POINT
  5
272
  8
DEFPOINTS
 62
     0
 10
71292.62981445238
 20
4531.492354529105
 30
0.0
  0
ENDBLK
  5
B0
  8
0
  0
BLOCK
  8
0
  2
____-6
 70
     0
 10
0.0
 20
0.0
 30
0.0
  3
____-6
  1

  0
POLYLINE
  5
273
  8
__
  6
CONTINUOUS
 62
     7
 66
     1
 10
0.0
 20
0.0
 30
0.0
 70
   129
  0
VERTEX
  5
274
  8
__
  6
CONTINUOUS
 62
     7
 10
68745.54252519493
 20
5111.492354529104
 30
0.0
  0
VERTEX
  5
275
  8
__
  6
CONTINUOUS
 62
     7
 10
69165.54252519493
 20
5111.492354529104
 30
0.0
  0
VERTEX
  5
276
  8
__
  6
CONTINUOUS
 62
     7
 10
69165.54252519493
 20
4531.492354529105
 30
0.0
  0
VERTEX
  5
277
  8
__
  6
CONTINUOUS
 62
     7
 10
68745.54252519493
 20
4531.492354529105
 30
0.0
  0
SEQEND
  5
278
  8
__
  6
CONTINUOUS
 62
     7
  0
LINE
  5
279
  8
__
  6
______-21
 62
     7
 10
68745.54252519493
 20
4821.492354529105
 30
0.0
 11
69165.54252519493
 21
5111.492354529104
 31
0.0
  0
LINE
  5
27A
  8
__
  6
______-21
 62
     7
 10
68745.54252519493
 20
4821.492354529105
 30
0.0
 11
69165.54252519493
 21
4531.492354529105
 31
0.0
  0
ENDBLK
  5
B3
  8
0
  0
BLOCK
  8
0
  2
*D24
 70
     1
 10
0.0
 20
0.0
 30
0.0
  3
*D24
  1

  0
LINE
  5
27B
  8
__-1
 62
     0
 10
71487.0856462213
 20
4933.492354529105
 30
0.0
 11
71487.0856462213
 21
4961.992354529105
 31
0.0
  0
LINE
  5
27C
  8
__-1
 62
     0
 10
71600.0856462213
 20
4933.492354529105
 30
0.0
 11
71600.0856462213
 21
4961.992354529105
 31
0.0
  0
LINE
  5
27D
  8
__-1
 62
     0
 10
71492.09309251036
 20
4961.992354529105
 30
0.0
 11
71595.07819993224
 21
4961.992354529105
 31
0.0
  0
INSERT
  5
27E
  8
__-1
 62
     0
  2
_DOT
 10
71487.0856462213
 20
4961.992354529105
 30
0.0
 41
5.007446289062499
 42
5.007446289062499
 43
5.007446289062499
 50
180.0
  0
INSERT
  5
27F
  8
__-1
 62
     0
  2
_DOT
 10
71600.0856462213
 20
4961.992354529105
 30
0.0
 41
5.007446289062499
 42
5.007446289062499
 43
5.007446289062499
  0
TEXT
  5
280
  8
__-1
  6
CONTINUOUS
 62
     0
 10
71511.72540316574
 20
4963.992354521653
 30
0.0
 40
21.24016203703704
  1
113
  7
YUGOTHIC_MEDIUM
  0
POINT
  5
281
  8
DEFPOINTS
 62
     0
 10
71487.0856462213
 20
4903.492354529105
 30
0.0
  0
POINT
  5
282
  8
DEFPOINTS
 62
     0
 10
71600.0856462213
 20
4903.492354529105
 30
0.0
  0
POINT
  5
283
  8
DEFPOINTS
 62
     0
 10
71600.0856462213
 20
4961.992354529105
 30
0.0
  0
ENDBLK
  5
B6
  8
0
  0
BLOCK
  8
0
  2
*D25
 70
     1
 10
0.0
 20
0.0
 30
0.0
  3
*D25
  1

  0
LINE
  5
284
  8
__-1
 62
     0
 10
71487.0856462213
 20
4933.492354529105
 30
0.0
 11
71487.0856462213
 21
4961.992354529105
 31
0.0
  0
LINE
  5
285
  8
__-1
 62
     0
 10
71463.0856462213
 20
4989.992354529105
 30
0.0
 11
71463.0856462213
 21
4961.992354529105
 31
0.0
  0
LINE
  5
286
  8
__-1
 62
     0
 10
71487.0856462213
 20
4961.992354529105
 30
0.0
 11
71463.0856462213
 21
4961.992354529105
 31
0.0
  0
LINE
  5
287
  8
__-1
 62
     0
 10
71492.09309251036
 20
4961.992354529105
 30
0.0
 11
71497.10053879942
 21
4961.992354529105
 31
0.0
  0
LINE
  5
288
  8
__-1
 62
     0
 10
71458.07819993224
 20
4961.992354529105
 30
0.0
 11
71453.07075364317
 21
4961.992354529105
 31
0.0
  0
INSERT
  5
289
  8
__-1
 62
     0
  2
_DOT
 10
71487.0856462213
 20
4961.992354529105
 30
0.0
 41
5.007446289062499
 42
5.007446289062499
 43
5.007446289062499
 50
180.0
  0
INSERT
  5
28A
  8
__-1
 62
     0
  2
_DOT
 10
71463.0856462213
 20
4961.992354529105
 30
0.0
 41
5.007446289062499
 42
5.007446289062499
 43
5.007446289062499
  0
TEXT
  5
28B
  8
__-1
  6
CONTINUOUS
 62
     0
 10
71454.35120232799
 20
4963.992354521653
 30
0.0
 40
21.24016203703704
  1
24
  7
YUGOTHIC_MEDIUM
  0
POINT
  5
28C
  8
DEFPOINTS
 62
     0
 10
71487.0856462213
 20
4903.492354529105
 30
0.0
  0
POINT
  5
47C
  8
DEFPOINTS
 62
     0
 10
71463.0856462213
 20
4959.992354529105
 30
0.0
  0
POINT
  5
47D
  8
DEFPOINTS
 62
     0
 10
71463.0856462213
 20
4961.992354529105
 30
0.0
  0
ENDBLK
  5
B9
  8
0
  0
BLOCK
  8
0
  2
*D26
 70
     1
 10
0.0
 20
0.0
 30
0.0
  3
*D26
  1

  0
LINE
  5
28D
  8
__
 62
     0
 10
69325.54252519493
 20
4501.492354529105
 30
0.0
 11
69325.54252519493
 21
4331.492354529105
 31
0.0
  0
LINE
  5
28E
  8
__
 62
     0
 10
68745.54252519493
 20
4501.492354529105
 30
0.0
 11
68745.54252519493
 21
4331.492354529105
 31
0.0
  0
LINE
  5
28F
  8
__
 62
     0
 10
69320.53507890587
 20
4331.492354529105
 30
0.0
 11
68750.549971484
 21
4331.492354529105
 31
0.0
  0
INSERT
  5
290
  8
__
 62
     0
  2
_DOT
 10
69325.54252519493
 20
4331.492354529105
 30
0.0
 41
5.007446289062499
 42
5.007446289062499
 43
5.007446289062499
  0
INSERT
  5
291
  8
__
 62
     0
  2
_DOT
 10
68745.54252519493
 20
4331.492354529105
 30
0.0
 41
5.007446289062499
 42
5.007446289062499
 43
5.007446289062499
 50
180.0
  0
TEXT
  5
292
  8
__
  6
CONTINUOUS
 62
     0
 10
69005.19943657059
 20
4333.492354521653
 30
0.0
 40
21.24016203703704
  1
580
  7
YUGOTHIC_MEDIUM
  0
POINT
  5
293
  8
DEFPOINTS
 62
     0
 10
69325.54252519493
 20
4531.492354529105
 30
0.0
  0
POINT
  5
294
  8
DEFPOINTS
 62
     0
 10
68745.54252519493
 20
4531.492354529105
 30
0.0
  0
POINT
  5
295
  8
DEFPOINTS
 62
     0
 10
68745.54252519493
 20
4331.492354529105
 30
0.0
  0
ENDBLK
  5
BC
  8
0
  0
BLOCK
  8
0
  2
*D27
 70
     1
 10
0.0
 20
0.0
 30
0.0
  3
*D27
  1

  0
LINE
  5
296
  8
__-1
 62
     0
 10
70252.16115240536
 20
4501.492354529105
 30
0.0
 11
70252.16115240536
 21
4331.492354529105
 31
0.0
  0
LINE
  5
297
  8
__-1
 62
     0
 10
69672.16115240536
 20
4501.492354529105
 30
0.0
 11
69672.16115240536
 21
4331.492354529105
 31
0.0
  0
LINE
  5
298
  8
__-1
 62
     0
 10
70247.1537061163
 20
4331.492354529105
 30
0.0
 11
69677.16859869442
 21
4331.492354529105
 31
0.0
  0
INSERT
  5
299
  8
__-1
 62
     0
  2
_DOT
 10
70252.16115240536
 20
4331.492354529105
 30
0.0
 41
5.007446289062499
 42
5.007446289062499
 43
5.007446289062499
  0
INSERT
  5
29A
  8
__-1
 62
     0
  2
_DOT
 10
69672.16115240536
 20
4331.492354529105
 30
0.0
 41
5.007446289062499
 42
5.007446289062499
 43
5.007446289062499
 50
180.0
  0
TEXT
  5
29B
  8
__-1
  6
CONTINUOUS
 62
     0
 10
69931.81806378101
 20
4333.492354521653
 30
0.0
 40
21.24016203703704
  1
580
  7
YUGOTHIC_MEDIUM
  0
POINT
  5
29C
  8
DEFPOINTS
 62
     0
 10
70252.16115240536
 20
4531.492354529105
 30
0.0
  0
POINT
  5
29D
  8
DEFPOINTS
 62
     0
 10
69672.16115240536
 20
4531.492354529105
 30
0.0
  0
POINT
  5
29E
  8
DEFPOINTS
 62
     0
 10
69672.16115240536
 20
4331.492354529105
 30
0.0
  0
ENDBLK
  5
BF
  8
0
  0
BLOCK
  8
0
  2
*D28
 70
     1
 10
0.0
 20
0.0
 30
0.0
  3
*D28
  1

  0
LINE
  5
29F
  8
__
 62
     0
 10
69165.54252519493
 20
4501.492354529105
 30
0.0
 11
69165.54252519493
 21
4431.492354529105
 31
0.0
  0
LINE
  5
2A0
  8
__
 62
     0
 10
68745.54252519493
 20
4501.492354529105
 30
0.0
 11
68745.54252519493
 21
4431.492354529105
 31
0.0
  0
LINE
  5
2A1
  8
__
 62
     0
 10
69160.53507890587
 20
4431.492354529105
 30
0.0
 11
68750.549971484
 21
4431.492354529105
 31
0.0
  0
INSERT
  5
2A2
  8
__
 62
     0
  2
_DOT
 10
69165.54252519493
 20
4431.492354529105
 30
0.0
 41
5.007446289062499
 42
5.007446289062499
 43
5.007446289062499
  0
INSERT
  5
2A3
  8
__
 62
     0
  2
_DOT
 10
68745.54252519493
 20
4431.492354529105
 30
0.0
 41
5.007446289062499
 42
5.007446289062499
 43
5.007446289062499
 50
180.0
  0
TEXT
  5
2A4
  8
__
  6
CONTINUOUS
 62
     0
 10
68925.19943657059
 20
4433.492354521653
 30
0.0
 40
21.24016203703704
  1
420
  7
YUGOTHIC_MEDIUM
  0
POINT
  5
2A5
  8
DEFPOINTS
 62
     0
 10
69165.54252519493
 20
4531.492354529105
 30
0.0
  0
POINT
  5
2A6
  8
DEFPOINTS
 62
     0
 10
68745.54252519493
 20
4531.492354529105
 30
0.0
  0
POINT
  5
2A7
  8
DEFPOINTS
 62
     0
 10
68745.54252519493
 20
4431.492354529105
 30
0.0
  0
ENDBLK
  5
C2
  8
0
  0
BLOCK
  8
0
  2
*D29
 70
     1
 10
0.0
 20
0.0
 30
0.0
  3
*D29
  1

  0
LINE
  5
2A8
  8
__
 62
     0
 10
69165.54252519493
 20
4501.492354529105
 30
0.0
 11
69165.54252519493
 21
4431.492354529105
 31
0.0
  0
LINE
  5
2A9
  8
__
 62
     0
 10
69325.54252519493
 20
4501.492354529105
 30
0.0
 11
69325.54252519493
 21
4431.492354529105
 31
0.0
  0
LINE
  5
2AA
  8
__
 62
     0
 10
69170.549971484
 20
4431.492354529105
 30
0.0
 11
69320.53507890587
 21
4431.492354529105
 31
0.0
  0
INSERT
  5
2AB
  8
__
 62
     0
  2
_DOT
 10
69165.54252519493
 20
4431.492354529105
 30
0.0
 41
5.007446289062499
 42
5.007446289062499
 43
5.007446289062499
 50
180.0
  0
INSERT
  5
2AC
  8
__
 62
     0
  2
_DOT
 10
69325.54252519493
 20
4431.492354529105
 30
0.0
 41
5.007446289062499
 42
5.007446289062499
 43
5.007446289062499
  0
TEXT
  5
2AD
  8
__
  6
CONTINUOUS
 62
     0
 10
69213.68228213937
 20
4433.492354521653
 30
0.0
 40
21.24016203703704
  1
160
  7
YUGOTHIC_MEDIUM
  0
POINT
  5
2AE
  8
DEFPOINTS
 62
     0
 10
69165.54252519493
 20
4531.492354529105
 30
0.0
  0
POINT
  5
2AF
  8
DEFPOINTS
 62
     0
 10
69325.54252519493
 20
4531.492354529105
 30
0.0
  0
POINT
  5
2B0
  8
DEFPOINTS
 62
     0
 10
69325.54252519493
 20
4431.492354529105
 30
0.0
  0
ENDBLK
  5
C5
  8
0
  0
BLOCK
  8
0
  2
*D30
 70
     1
 10
0.0
 20
0.0
 30
0.0
  3
*D30
  1

  0
LINE
  5
2B1
  8
__-1
 62
     0
 10
70234.16115240536
 20
4501.492354529105
 30
0.0
 11
70234.16115240536
 21
4431.492354529105
 31
0.0
  0
LINE
  5
2B2
  8
__-1
 62
     0
 10
70072.16115240536
 20
4501.492354529105
 30
0.0
 11
70072.16115240536
 21
4431.492354529105
 31
0.0
  0
LINE
  5
2B3
  8
__-1
 62
     0
 10
70229.1537061163
 20
4431.492354529105
 30
0.0
 11
70077.16859869442
 21
4431.492354529105
 31
0.0
  0
INSERT
  5
2B4
  8
__-1
 62
     0
  2
_DOT
 10
70234.16115240536
 20
4431.492354529105
 30
0.0
 41
5.007446289062499
 42
5.007446289062499
 43
5.007446289062499
  0
INSERT
  5
2B5
  8
__-1
 62
     0
  2
_DOT
 10
70072.16115240536
 20
4431.492354529105
 30
0.0
 41
5.007446289062499
 42
5.007446289062499
 43
5.007446289062499
 50
180.0
  0
TEXT
  5
2B6
  8
__-1
  6
CONTINUOUS
 62
     0
 10
70121.3009093498
 20
4433.492354521653
 30
0.0
 40
21.24016203703704
  1
162
  7
YUGOTHIC_MEDIUM
  0
POINT
  5
2B7
  8
DEFPOINTS
 62
     0
 10
70234.16115240536
 20
4531.492354529105
 30
0.0
  0
POINT
  5
2B8
  8
DEFPOINTS
 62
     0
 10
70072.16115240536
 20
4531.492354529105
 30
0.0
  0
POINT
  5
2B9
  8
DEFPOINTS
 62
     0
 10
70072.16115240536
 20
4431.492354529105
 30
0.0
  0
ENDBLK
  5
C8
  8
0
  0
BLOCK
  8
0
  2
*D31
 70
     1
 10
0.0
 20
0.0
 30
0.0
  3
*D31
  1

  0
LINE
  5
2BA
  8
__-1
 62
     0
 10
70057.16115240536
 20
4501.492354529105
 30
0.0
 11
70057.16115240536
 21
4431.492354529105
 31
0.0
  0
LINE
  5
2BB
  8
__-1
 62
     0
 10
70072.16115240536
 20
4501.492354529105
 30
0.0
 11
70072.16115240536
 21
4431.492354529105
 31
0.0
  0
LINE
  5
2BC
  8
__-1
 62
     0
 10
70057.16115240536
 20
4431.492354529105
 30
0.0
 11
70072.16115240536
 21
4431.492354529105
 31
0.0
  0
LINE
  5
2BD
  8
__-1
 62
     0
 10
70052.1537061163
 20
4431.492354529105
 30
0.0
 11
70047.14625982723
 21
4431.492354529105
 31
0.0
  0
LINE
  5
2BE
  8
__-1
 62
     0
 10
70077.16859869442
 20
4431.492354529105
 30
0.0
 11
70082.17604498348
 21
4431.492354529105
 31
0.0
  0
INSERT
  5
2BF
  8
__-1
 62
     0
  2
_DOT
 10
70057.16115240536
 20
4431.492354529105
 30
0.0
 41
5.007446289062499
 42
5.007446289062499
 43
5.007446289062499
  0
INSERT
  5
2C0
  8
__-1
 62
     0
  2
_DOT
 10
70072.16115240536
 20
4431.492354529105
 30
0.0
 41
5.007446289062499
 42
5.007446289062499
 43
5.007446289062499
 50
180.0
  0
TEXT
  5
2C1
  8
__-1
  6
CONTINUOUS
 62
     0
 10
70042.91527222458
 20
4433.492354521653
 30
0.0
 40
21.24016203703704
  1
15
  7
YUGOTHIC_MEDIUM
  0
POINT
  5
2C2
  8
DEFPOINTS
 62
     0
 10
70057.16115240536
 20
4531.492354529105
 30
0.0
  0
POINT
  5
485
  8
DEFPOINTS
 62
     0
 10
70072.16115240536
 20
4531.492354529105
 30
0.0
  0
POINT
  5
486
  8
DEFPOINTS
 62
     0
 10
70072.16115240536
 20
4431.492354529105
 30
0.0
  0
ENDBLK
  5
CB
  8
0
  0
BLOCK
  8
0
  2
*D32
 70
     1
 10
0.0
 20
0.0
 30
0.0
  3
*D32
  1

  0
LINE
  5
2C3
  8
__-1
 62
     0
 10
70057.16115240536
 20
4501.492354529105
 30
0.0
 11
70057.16115240536
 21
4431.492354529105
 31
0.0
  0
LINE
  5
2C4
  8
__-1
 62
     0
 10
69690.16115240536
 20
4501.492354529105
 30
0.0
 11
69690.16115240536
 21
4431.492354529105
 31
0.0
  0
LINE
  5
2C5
  8
__-1
 62
     0
 10
70052.1537061163
 20
4431.492354529105
 30
0.0
 11
69695.16859869442
 21
4431.492354529105
 31
0.0
  0
INSERT
  5
2C6
  8
__-1
 62
     0
  2
_DOT
 10
70057.16115240536
 20
4431.492354529105
 30
0.0
 41
5.007446289062499
 42
5.007446289062499
 43
5.007446289062499
  0
INSERT
  5
2C7
  8
__-1
 62
     0
  2
_DOT
 10
69690.16115240536
 20
4431.492354529105
 30
0.0
 41
5.007446289062499
 42
5.007446289062499
 43
5.007446289062499
 50
180.0
  0
TEXT
  5
2C8
  8
__-1
  6
CONTINUOUS
 62
     0
 10
69843.31806378101
 20
4433.492354521653
 30
0.0
 40
21.24016203703704
  1
367
  7
YUGOTHIC_MEDIUM
  0
POINT
  5
2C9
  8
DEFPOINTS
 62
     0
 10
70057.16115240536
 20
4531.492354529105
 30
0.0
  0
POINT
  5
2CA
  8
DEFPOINTS
 62
     0
 10
69690.16115240536
 20
4531.492354529105
 30
0.0
  0
POINT
  5
2CB
  8
DEFPOINTS
 62
     0
 10
69690.16115240536
 20
4431.492354529105
 30
0.0
  0
ENDBLK
  5
CE
  8
0
  0
BLOCK
  8
0
  2
*D33
 70
     1
 10
0.0
 20
0.0
 30
0.0
  3
*D33
  1

  0
LINE
  5
2CC
  8
__-1
 62
     0
 10
69672.16115240536
 20
4501.492354529105
 30
0.0
 11
69672.16115240536
 21
4431.492354529105
 31
0.0
  0
LINE
  5
2CD
  8
__-1
 62
     0
 10
69690.16115240536
 20
4501.492354529105
 30
0.0
 11
69690.16115240536
 21
4431.492354529105
 31
0.0
  0
LINE
  5
2CE
  8
__-1
 62
     0
 10
69672.16115240536
 20
4431.492354529105
 30
0.0
 11
69690.16115240536
 21
4431.492354529105
 31
0.0
  0
LINE
  5
2CF
  8
__-1
 62
     0
 10
69667.1537061163
 20
4431.492354529105
 30
0.0
 11
69662.14625982723
 21
4431.492354529105
 31
0.0
  0
LINE
  5
2D0
  8
__-1
 62
     0
 10
69695.16859869442
 20
4431.492354529105
 30
0.0
 11
69700.17604498348
 21
4431.492354529105
 31
0.0
  0
INSERT
  5
2D1
  8
__-1
 62
     0
  2
_DOT
 10
69672.16115240536
 20
4431.492354529105
 30
0.0
 41
5.007446289062499
 42
5.007446289062499
 43
5.007446289062499
  0
INSERT
  5
2D2
  8
__-1
 62
     0
  2
_DOT
 10
69690.16115240536
 20
4431.492354529105
 30
0.0
 41
5.007446289062499
 42
5.007446289062499
 43
5.007446289062499
 50
180.0
  0
TEXT
  5
2D3
  8
__-1
  6
CONTINUOUS
 62
     0
 10
69659.41527222458
 20
4433.492354521653
 30
0.0
 40
21.24016203703704
  1
18
  7
YUGOTHIC_MEDIUM
  0
POINT
  5
2D4
  8
DEFPOINTS
 62
     0
 10
69672.16115240536
 20
4531.492354529105
 30
0.0
  0
POINT
  5
489
  8
DEFPOINTS
 62
     0
 10
69690.16115240536
 20
4531.492354529105
 30
0.0
  0
POINT
  5
48A
  8
DEFPOINTS
 62
     0
 10
69690.16115240536
 20
4431.492354529105
 30
0.0
  0
ENDBLK
  5
D1
  8
0
  0
BLOCK
  8
0
  2
*D34
 70
     1
 10
0.0
 20
0.0
 30
0.0
  3
*D34
  1

  0
LINE
  5
2D5
  8
__-1
 62
     0
 10
70234.16115240536
 20
4501.492354529105
 30
0.0
 11
70234.16115240536
 21
4431.492354529105
 31
0.0
  0
LINE
  5
2D6
  8
__-1
 62
     0
 10
70252.16115240536
 20
4501.492354529105
 30
0.0
 11
70252.16115240536
 21
4431.492354529105
 31
0.0
  0
LINE
  5
2D7
  8
__-1
 62
     0
 10
70234.16115240536
 20
4431.492354529105
 30
0.0
 11
70252.16115240536
 21
4431.492354529105
 31
0.0
  0
LINE
  5
2D8
  8
__-1
 62
     0
 10
70229.1537061163
 20
4431.492354529105
 30
0.0
 11
70224.14625982723
 21
4431.492354529105
 31
0.0
  0
LINE
  5
2D9
  8
__-1
 62
     0
 10
70257.16859869442
 20
4431.492354529105
 30
0.0
 11
70262.17604498348
 21
4431.492354529105
 31
0.0
  0
INSERT
  5
2DA
  8
__-1
 62
     0
  2
_DOT
 10
70234.16115240536
 20
4431.492354529105
 30
0.0
 41
5.007446289062499
 42
5.007446289062499
 43
5.007446289062499
  0
INSERT
  5
2DB
  8
__-1
 62
     0
  2
_DOT
 10
70252.16115240536
 20
4431.492354529105
 30
0.0
 41
5.007446289062499
 42
5.007446289062499
 43
5.007446289062499
 50
180.0
  0
TEXT
  5
2DC
  8
__-1
  6
CONTINUOUS
 62
     0
 10
70221.41527222458
 20
4433.492354521653
 30
0.0
 40
21.24016203703704
  1
18
  7
YUGOTHIC_MEDIUM
  0
POINT
  5
2DD
  8
DEFPOINTS
 62
     0
 10
70234.16115240536
 20
4531.492354529105
 30
0.0
  0
POINT
  5
48C
  8
DEFPOINTS
 62
     0
 10
70252.16115240536
 20
4531.492354529105
 30
0.0
  0
POINT
  5
48D
  8
DEFPOINTS
 62
     0
 10
70252.16115240536
 20
4431.492354529105
 30
0.0
  0
ENDBLK
  5
D4
  8
0
  0
BLOCK
  8
0
  2
*D35
 70
     1
 10
0.0
 20
0.0
 30
0.0
  3
*D35
  1

  0
LINE
  5
2DE
  8
__-1
 62
     0
 10
70282.16115240536
 20
5093.492354529104
 30
0.0
 11
70402.16115240536
 21
5093.492354529104
 31
0.0
  0
LINE
  5
2DF
  8
__-1
 62
     0
 10
70282.16115240536
 20
5111.492354529104
 30
0.0
 11
70402.16115240536
 21
5111.492354529104
 31
0.0
  0
LINE
  5
2E0
  8
__-1
 62
     0
 10
70402.16115240536
 20
5093.492354529104
 30
0.0
 11
70402.16115240536
 21
5111.492354529104
 31
0.0
  0
LINE
  5
2E1
  8
__-1
 62
     0
 10
70402.16115240536
 20
5088.484908240041
 30
0.0
 11
70402.16115240536
 21
5083.477461950979
 31
0.0
  0
LINE
  5
2E2
  8
__-1
 62
     0
 10
70402.16115240536
 20
5116.499800818166
 30
0.0
 11
70402.16115240536
 21
5121.507247107229
 31
0.0
  0
INSERT
  5
2E3
  8
__-1
 62
     0
  2
_DOT
 10
70402.16115240536
 20
5093.492354529104
 30
0.0
 41
5.007446289062499
 42
5.007446289062499
 43
5.007446289062499
 50
90.0
  0
INSERT
  5
2E4
  8
__-1
 62
     0
  2
_DOT
 10
70402.16115240536
 20
5111.492354529104
 30
0.0
 41
5.007446289062499
 42
5.007446289062499
 43
5.007446289062499
 50
270.0
  0
TEXT
  5
2E5
  8
__-1
  6
CONTINUOUS
 62
     0
 10
70400.16115241281
 20
5080.746474348321
 30
0.0
 40
21.24016203703704
  1
18
 50
90.0
  7
YUGOTHIC_MEDIUM
  0
POINT
  5
2E6
  8
DEFPOINTS
 62
     0
 10
70252.16115240536
 20
5093.492354529104
 30
0.0
  0
POINT
  5
4C1
  8
DEFPOINTS
 62
     0
 10
70252.16115240536
 20
5111.492354529104
 30
0.0
  0
POINT
  5
4C2
  8
DEFPOINTS
 62
     0
 10
70402.16115240536
 20
5111.492354529104
 30
0.0
  0
ENDBLK
  5
D8
  8
0
  0
BLOCK
  8
0
  2
*D36
 70
     1
 10
0.0
 20
0.0
 30
0.0
  3
*D36
  1

  0
LINE
  5
2E7
  8
__-1
 62
     0
 10
70282.16115240536
 20
5093.492354529104
 30
0.0
 11
70402.16115240536
 21
5093.492354529104
 31
0.0
  0
LINE
  5
2E8
  8
__-1
 62
     0
 10
70282.16115240536
 20
4903.492354529105
 30
0.0
 11
70402.16115240536
 21
4903.492354529105
 31
0.0
  0
LINE
  5
2E9
  8
__-1
 62
     0
 10
70402.16115240536
 20
5088.484908240041
 30
0.0
 11
70402.16115240536
 21
4908.499800818167
 31
0.0
  0
INSERT
  5
2EA
  8
__-1
 62
     0
  2
_DOT
 10
70402.16115240536
 20
5093.492354529104
 30
0.0
 41
5.007446289062499
 42
5.007446289062499
 43
5.007446289062499
 50
90.0
  0
INSERT
  5
2EB
  8
__-1
 62
     0
  2
_DOT
 10
70402.16115240536
 20
4903.492354529105
 30
0.0
 41
5.007446289062499
 42
5.007446289062499
 43
5.007446289062499
 50
270.0
  0
TEXT
  5
2EC
  8
__-1
  6
CONTINUOUS
 62
     0
 10
70400.16115241281
 20
4966.63211147354
 30
0.0
 40
21.24016203703704
  1
190
 50
90.0
  7
YUGOTHIC_MEDIUM
  0
POINT
  5
2ED
  8
DEFPOINTS
 62
     0
 10
70252.16115240536
 20
5093.492354529104
 30
0.0
  0
POINT
  5
2EE
  8
DEFPOINTS
 62
     0
 10
70252.16115240536
 20
4903.492354529105
 30
0.0
  0
POINT
  5
2EF
  8
DEFPOINTS
 62
     0
 10
70402.16115240536
 20
4903.492354529105
 30
0.0
  0
ENDBLK
  5
DB
  8
0
  0
BLOCK
  8
0
  2
*D37
 70
     1
 10
0.0
 20
0.0
 30
0.0
  3
*D37
  1

  0
LINE
  5
2F0
  8
__-1
 62
     0
 10
70282.16115240536
 20
4888.492354529105
 30
0.0
 11
70402.16115240536
 21
4888.492354529105
 31
0.0
  0
LINE
  5
2F1
  8
__-1
 62
     0
 10
70282.16115240536
 20
4903.492354529105
 30
0.0
 11
70402.16115240536
 21
4903.492354529105
 31
0.0
  0
LINE
  5
2F2
  8
__-1
 62
     0
 10
70402.16115240536
 20
4888.492354529105
 30
0.0
 11
70402.16115240536
 21
4903.492354529105
 31
0.0
  0
LINE
  5
2F3
  8
__-1
 62
     0
 10
70402.16115240536
 20
4883.484908240042
 30
0.0
 11
70402.16115240536
 21
4878.47746195098
 31
0.0
  0
LINE
  5
2F4
  8
__-1
 62
     0
 10
70402.16115240536
 20
4908.499800818167
 30
0.0
 11
70402.16115240536
 21
4913.50724710723
 31
0.0
  0
INSERT
  5
2F5
  8
__-1
 62
     0
  2
_DOT
 10
70402.16115240536
 20
4888.492354529105
 30
0.0
 41
5.007446289062499
 42
5.007446289062499
 43
5.007446289062499
 50
90.0
  0
INSERT
  5
2F6
  8
__-1
 62
     0
  2
_DOT
 10
70402.16115240536
 20
4903.492354529105
 30
0.0
 41
5.007446289062499
 42
5.007446289062499
 43
5.007446289062499
 50
270.0
  0
TEXT
  5
2F7
  8
__-1
  6
CONTINUOUS
 62
     0
 10
70400.16115241281
 20
4874.246474348321
 30
0.0
 40
21.24016203703704
  1
15
 50
90.0
  7
YUGOTHIC_MEDIUM
  0
POINT
  5
2F8
  8
DEFPOINTS
 62
     0
 10
70252.16115240536
 20
4888.492354529105
 30
0.0
  0
POINT
  5
4C5
  8
DEFPOINTS
 62
     0
 10
70252.16115240536
 20
4903.492354529105
 30
0.0
  0
POINT
  5
4C6
  8
DEFPOINTS
 62
     0
 10
70402.16115240536
 20
4903.492354529105
 30
0.0
  0
ENDBLK
  5
DE
  8
0
  0
BLOCK
  8
0
  2
*D38
 70
     1
 10
0.0
 20
0.0
 30
0.0
  3
*D38
  1

  0
LINE
  5
2F9
  8
__-1
 62
     0
 10
70282.16115240536
 20
4888.492354529105
 30
0.0
 11
70402.16115240536
 21
4888.492354529105
 31
0.0
  0
LINE
  5
2FA
  8
__-1
 62
     0
 10
70282.16115240536
 20
4754.492354529105
 30
0.0
 11
70402.16115240536
 21
4754.492354529105
 31
0.0
  0
LINE
  5
2FB
  8
__-1
 62
     0
 10
70402.16115240536
 20
4883.484908240042
 30
0.0
 11
70402.16115240536
 21
4759.499800818167
 31
0.0
  0
INSERT
  5
2FC
  8
__-1
 62
     0
  2
_DOT
 10
70402.16115240536
 20
4888.492354529105
 30
0.0
 41
5.007446289062499
 42
5.007446289062499
 43
5.007446289062499
 50
90.0
  0
INSERT
  5
2FD
  8
__-1
 62
     0
  2
_DOT
 10
70402.16115240536
 20
4754.492354529105
 30
0.0
 41
5.007446289062499
 42
5.007446289062499
 43
5.007446289062499
 50
270.0
  0
TEXT
  5
2FE
  8
__-1
  6
CONTINUOUS
 62
     0
 10
70400.16115241281
 20
4789.126393329818
 30
0.0
 40
21.24016203703704
  1
134
 50
90.0
  7
YUGOTHIC_MEDIUM
  0
POINT
  5
2FF
  8
DEFPOINTS
 62
     0
 10
70252.16115240536
 20
4888.492354529105
 30
0.0
  0
POINT
  5
300
  8
DEFPOINTS
 62
     0
 10
70252.16115240536
 20
4754.492354529105
 30
0.0
  0
POINT
  5
301
  8
DEFPOINTS
 62
     0
 10
70402.16115240536
 20
4754.492354529105
 30
0.0
  0
ENDBLK
  5
E1
  8
0
  0
BLOCK
  8
0
  2
*D39
 70
     1
 10
0.0
 20
0.0
 30
0.0
  3
*D39
  1

  0
LINE
  5
302
  8
__-1
 62
     0
 10
70282.16115240536
 20
4739.492354529105
 30
0.0
 11
70402.16115240536
 21
4739.492354529105
 31
0.0
  0
LINE
  5
303
  8
__-1
 62
     0
 10
70282.16115240536
 20
4754.492354529105
 30
0.0
 11
70402.16115240536
 21
4754.492354529105
 31
0.0
  0
LINE
  5
304
  8
__-1
 62
     0
 10
70402.16115240536
 20
4739.492354529105
 30
0.0
 11
70402.16115240536
 21
4754.492354529105
 31
0.0
  0
LINE
  5
305
  8
__-1
 62
     0
 10
70402.16115240536
 20
4734.484908240042
 30
0.0
 11
70402.16115240536
 21
4729.47746195098
 31
0.0
  0
LINE
  5
306
  8
__-1
 62
     0
 10
70402.16115240536
 20
4759.499800818167
 30
0.0
 11
70402.16115240536
 21
4764.50724710723
 31
0.0
  0
INSERT
  5
307
  8
__-1
 62
     0
  2
_DOT
 10
70402.16115240536
 20
4739.492354529105
 30
0.0
 41
5.007446289062499
 42
5.007446289062499
 43
5.007446289062499
 50
90.0
  0
INSERT
  5
308
  8
__-1
 62
     0
  2
_DOT
 10
70402.16115240536
 20
4754.492354529105
 30
0.0
 41
5.007446289062499
 42
5.007446289062499
 43
5.007446289062499
 50
270.0
  0
TEXT
  5
309
  8
__-1
  6
CONTINUOUS
 62
     0
 10
70400.16115241281
 20
4725.246474348329
 30
0.0
 40
21.24016203703704
  1
15
 50
90.0
  7
YUGOTHIC_MEDIUM
  0
POINT
  5
30A
  8
DEFPOINTS
 62
     0
 10
70252.16115240536
 20
4739.492354529105
 30
0.0
  0
POINT
  5
4C9
  8
DEFPOINTS
 62
     0
 10
70252.16115240536
 20
4754.492354529105
 30
0.0
  0
POINT
  5
4CA
  8
DEFPOINTS
 62
     0
 10
70402.16115240536
 20
4754.492354529105
 30
0.0
  0
ENDBLK
  5
E4
  8
0
  0
BLOCK
  8
0
  2
*D40
 70
     1
 10
0.0
 20
0.0
 30
0.0
  3
*D40
  1

  0
LINE
  5
30B
  8
__-1
 62
     0
 10
70282.16115240536
 20
4739.492354529105
 30
0.0
 11
70402.16115240536
 21
4739.492354529105
 31
0.0
  0
LINE
  5
30C
  8
__-1
 62
     0
 10
70282.16115240536
 20
4549.492354529105
 30
0.0
 11
70402.16115240536
 21
4549.492354529105
 31
0.0
  0
LINE
  5
30D
  8
__-1
 62
     0
 10
70402.16115240536
 20
4734.484908240042
 30
0.0
 11
70402.16115240536
 21
4554.499800818167
 31
0.0
  0
INSERT
  5
30E
  8
__-1
 62
     0
  2
_DOT
 10
70402.16115240536
 20
4739.492354529105
 30
0.0
 41
5.007446289062499
 42
5.007446289062499
 43
5.007446289062499
 50
90.0
  0
INSERT
  5
30F
  8
__-1
 62
     0
  2
_DOT
 10
70402.16115240536
 20
4549.492354529105
 30
0.0
 41
5.007446289062499
 42
5.007446289062499
 43
5.007446289062499
 50
270.0
  0
TEXT
  5
310
  8
__-1
  6
CONTINUOUS
 62
     0
 10
70400.16115241281
 20
4612.632111473547
 30
0.0
 40
21.24016203703704
  1
190
 50
90.0
  7
YUGOTHIC_MEDIUM
  0
POINT
  5
311
  8
DEFPOINTS
 62
     0
 10
70252.16115240536
 20
4739.492354529105
 30
0.0
  0
POINT
  5
312
  8
DEFPOINTS
 62
     0
 10
70252.16115240536
 20
4549.492354529105
 30
0.0
  0
POINT
  5
313
  8
DEFPOINTS
 62
     0
 10
70402.16115240536
 20
4549.492354529105
 30
0.0
  0
ENDBLK
  5
E7
  8
0
  0
BLOCK
  8
0
  2
*D41
 70
     1
 10
0.0
 20
0.0
 30
0.0
  3
*D41
  1

  0
LINE
  5
314
  8
__-1
 62
     0
 10
70282.16115240536
 20
4531.492354529105
 30
0.0
 11
70402.16115240536
 21
4531.492354529105
 31
0.0
  0
LINE
  5
315
  8
__-1
 62
     0
 10
70282.16115240536
 20
4549.492354529105
 30
0.0
 11
70402.16115240536
 21
4549.492354529105
 31
0.0
  0
LINE
  5
316
  8
__-1
 62
     0
 10
70402.16115240536
 20
4531.492354529105
 30
0.0
 11
70402.16115240536
 21
4549.492354529105
 31
0.0
  0
LINE
  5
317
  8
__-1
 62
     0
 10
70402.16115240536
 20
4526.484908240042
 30
0.0
 11
70402.16115240536
 21
4521.47746195098
 31
0.0
  0
LINE
  5
318
  8
__-1
 62
     0
 10
70402.16115240536
 20
4554.499800818167
 30
0.0
 11
70402.16115240536
 21
4559.50724710723
 31
0.0
  0
INSERT
  5
319
  8
__-1
 62
     0
  2
_DOT
 10
70402.16115240536
 20
4531.492354529105
 30
0.0
 41
5.007446289062499
 42
5.007446289062499
 43
5.007446289062499
 50
90.0
  0
INSERT
  5
31A
  8
__-1
 62
     0
  2
_DOT
 10
70402.16115240536
 20
4549.492354529105
 30
0.0
 41
5.007446289062499
 42
5.007446289062499
 43
5.007446289062499
 50
270.0
  0
TEXT
  5
31B
  8
__-1
  6
CONTINUOUS
 62
     0
 10
70400.16115241281
 20
4518.746474348329
 30
0.0
 40
21.24016203703704
  1
18
 50
90.0
  7
YUGOTHIC_MEDIUM
  0
POINT
  5
31C
  8
DEFPOINTS
 62
     0
 10
70252.16115240536
 20
4531.492354529105
 30
0.0
  0
POINT
  5
4CD
  8
DEFPOINTS
 62
     0
 10
70252.16115240536
 20
4549.492354529105
 30
0.0
  0
POINT
  5
4CE
  8
DEFPOINTS
 62
     0
 10
70402.16115240536
 20
4549.492354529105
 30
0.0
  0
ENDBLK
  5
EA
  8
0
  0
BLOCK
  8
0
  2
*X42
 70
     1
 10
0.0
 20
0.0
 30
0.0
  3
*X42
  1

  0
LINE
  5
31D
  8
__
  6
CONTINUOUS
 62
    17
 10
70206.7375799288
 20
5011.492354529104
 30
0.0
 11
70252.16115240536
 21
5056.91592700567
 31
0.0
  0
LINE
  5
31E
  8
__
  6
CONTINUOUS
 62
    17
 10
69672.16115240536
 20
5042.601351954918
 30
0.0
 11
69741.05215497954
 21
5111.492354529104
 31
0.0
  0
LINE
  5
31F
  8
__
  6
CONTINUOUS
 62
    17
 10
69711.7628330982
 20
5011.492354529104
 30
0.0
 11
69811.7628330982
 21
5111.492354529104
 31
0.0
  0
LINE
  5
320
  8
__
  6
CONTINUOUS
 62
    17
 10
69782.47351121686
 20
5011.492354529104
 30
0.0
 11
69882.47351121686
 21
5111.492354529104
 31
0.0
  0
LINE
  5
321
  8
__
  6
CONTINUOUS
 62
    17
 10
69853.18418933552
 20
5011.492354529104
 30
0.0
 11
69953.18418933552
 21
5111.492354529104
 31
0.0
  0
LINE
  5
322
  8
__
  6
CONTINUOUS
 62
    17
 10
69923.89486745418
 20
5011.492354529104
 30
0.0
 11
70023.89486745416
 21
5111.492354529104
 31
0.0
  0
LINE
  5
323
  8
__
  6
CONTINUOUS
 62
    17
 10
69994.60554557282
 20
5011.492354529104
 30
0.0
 11
70094.60554557282
 21
5111.492354529104
 31
0.0
  0
LINE
  5
324
  8
__
  6
CONTINUOUS
 62
    17
 10
70065.31622369148
 20
5011.492354529104
 30
0.0
 11
70165.31622369148
 21
5111.492354529104
 31
0.0
  0
LINE
  5
325
  8
__
  6
CONTINUOUS
 62
    17
 10
70136.02690181014
 20
5011.492354529104
 30
0.0
 11
70236.02690181014
 21
5111.492354529104
 31
0.0
  0
ENDBLK
  5
ED
  8
0
  0
BLOCK
  8
0
  2
*X43
 70
     1
 10
0.0
 20
0.0
 30
0.0
  3
*X43
  1

  0
LINE
  5
326
  8
__
  6
CONTINUOUS
 62
    17
 10
70221.71232675939
 20
4531.492354529105
 30
0.0
 11
70252.16115240536
 21
4561.941180175081
 31
0.0
  0
LINE
  5
327
  8
__
  6
CONTINUOUS
 62
    17
 10
69672.16115240536
 20
4618.337283242996
 30
0.0
 11
69685.31622369146
 21
4631.492354529105
 31
0.0
  0
LINE
  5
328
  8
__
  6
CONTINUOUS
 62
    17
 10
69672.16115240536
 20
4547.62660512434
 30
0.0
 11
69756.02690181012
 21
4631.492354529105
 31
0.0
  0
LINE
  5
329
  8
__
  6
CONTINUOUS
 62
    17
 10
69726.73757992878
 20
4531.492354529105
 30
0.0
 11
69826.73757992878
 21
4631.492354529105
 31
0.0
  0
LINE
  5
32A
  8
__
  6
CONTINUOUS
 62
    17
 10
69797.44825804744
 20
4531.492354529105
 30
0.0
 11
69897.44825804744
 21
4631.492354529105
 31
0.0
  0
LINE
  5
32B
  8
__
  6
CONTINUOUS
 62
    17
 10
69868.15893616609
 20
4531.492354529105
 30
0.0
 11
69968.1589361661
 21
4631.492354529105
 31
0.0
  0
LINE
  5
32C
  8
__
  6
CONTINUOUS
 62
    17
 10
69938.86961428475
 20
4531.492354529105
 30
0.0
 11
70038.86961428475
 21
4631.492354529105
 31
0.0
  0
LINE
  5
32D
  8
__
  6
CONTINUOUS
 62
    17
 10
70009.5802924034
 20
4531.492354529105
 30
0.0
 11
70109.5802924034
 21
4631.492354529105
 31
0.0
  0
LINE
  5
32E
  8
__
  6
CONTINUOUS
 62
    17
 10
70080.29097052207
 20
4531.492354529105
 30
0.0
 11
70180.29097052207
 21
4631.492354529105
 31
0.0
  0
LINE
  5
32F
  8
__
  6
CONTINUOUS
 62
    17
 10
70151.00164864073
 20
4531.492354529105
 30
0.0
 11
70251.00164864073
 21
4631.492354529105
 31
0.0
  0
ENDBLK
  5
F0
  8
0
  0
BLOCK
  8
0
  2
____-7
 70
     0
 10
0.0
 20
0.0
 30
0.0
  3
____-7
  1

  0
LINE
  5
330
  8
__
  6
CONTINUOUS
 62
    17
 10
68980.11831395031
 20
4846.068143284468
 30
0.0
 11
68930.96673643959
 21
4796.91656577374
 31
0.0
  0
LINE
  5
331
  8
__
  6
CONTINUOUS
 62
    17
 10
68955.23744516702
 20
4850.081705804505
 30
0.0
 11
68926.95317391955
 21
4821.797434557043
 31
0.0
  0
LINE
  5
332
  8
__
  6
CONTINUOUS
 62
    17
 10
68984.13187647035
 20
4821.187274501176
 30
0.0
 11
68955.8476052229
 21
4792.903003253709
 31
0.0
  0
ENDBLK
  5
F3
  8
0
  0
BLOCK
  8
0
  2
*X45
 70
     1
 10
0.0
 20
0.0
 30
0.0
  3
*X45
  1

  0
LINE
  5
333
  8
__
  6
CONTINUOUS
 62
    17
 10
70530.20890689454
 20
5617.806393969474
 30
0.0
 11
70565.71459729559
 21
5653.312084370526
 31
0.0
  0
LINE
  5
334
  8
__
  6
CONTINUOUS
 62
    17
 10
70403.58518470249
 20
5632.604028014738
 30
0.0
 11
70432.64877730014
 21
5661.667620612386
 31
0.0
  0
LINE
  5
335
  8
__
  6
CONTINUOUS
 62
    17
 10
70459.49822877588
 20
5617.806393969474
 30
0.0
 11
70503.35945541879
 21
5661.667620612386
 31
0.0
  0
ENDBLK
  5
F6
  8
0
  0
BLOCK
  8
0
  2
_DOT
 70
     0
 10
0.0
 20
0.0
 30
0.0
  3
_DOT
  1

  0
POLYLINE
  5
185
  8
0
  6
BYBLOCK
 62
     0
 66
     1
 10
0.0
 20
0.0
 30
0.0
 70
     1
 40
0.5
 41
0.5
  0
VERTEX
  5
4F8
  8
0
  6
BYBLOCK
 62
     0
 10
-0.25
 20
0.0
 30
0.0
 42
1.0
  0
VERTEX
  5
4F9
  8
0
  6
BYBLOCK
 62
     0
 10
0.25
 20
0.0
 30
0.0
 42
1.0
  0
SEQEND
  5
4FA
  8
0
  6
BYBLOCK
 62
     0
  0
LINE
  5
186
  8
0
  6
BYBLOCK
 62
     0
 10
-0.5
 20
0.0
 30
0.0
 11
-1.0
 21
0.0
 31
0.0
  0
ENDBLK
  5
184
  8
0
  0
ENDSEC
  0
SECTION
  2
ENTITIES
  0
INSERT
  5
336
  8
__
 62
     1
  2
____-10
 10
70159.56824777908
 20
3959.176135316686
 30
0.0
 41
0.2
 42
0.2
 43
0.2
  0
POLYLINE
  5
337
  8
0
  6
CONTINUOUS
 62
    17
 66
     1
 10
0.0
 20
0.0
 30
0.0
 70
   129
  0
VERTEX
  5
338
  8
0
  6
CONTINUOUS
 62
    17
 10
68105.41666666664
 20
6795.833333333335
 30
0.0
  0
VERTEX
  5
339
  8
0
  6
CONTINUOUS
 62
    17
 10
72221.90999999997
 20
6795.833333333335
 30
0.0
  0
VERTEX
  5
33A
  8
0
  6
CONTINUOUS
 62
    17
 10
72221.90999999997
 20
3910.393333333332
 30
0.0
  0
VERTEX
  5
33B
  8
0
  6
CONTINUOUS
 62
    17
 10
68105.41666666664
 20
3910.393333333332
 30
0.0
  0
SEQEND
  5
33C
  8
0
  6
CONTINUOUS
 62
    17
  0
POLYLINE
  5
33D
  8
__
  6
CONTINUOUS
 62
     7
 66
     1
 10
0.0
 20
0.0
 30
0.0
 70
   129
  0
VERTEX
  5
33E
  8
__
  6
CONTINUOUS
 62
     7
 10
68745.54252519493
 20
5111.492354529104
 30
0.0
  0
VERTEX
  5
33F
  8
__
  6
CONTINUOUS
 62
     7
 10
69325.54252519493
 20
5111.492354529104
 30
0.0
  0
VERTEX
  5
340
  8
__
  6
CONTINUOUS
 62
     7
 10
69325.54252519493
 20
4531.492354529105
 30
0.0
  0
VERTEX
  5
341
  8
__
  6
CONTINUOUS
 62
     7
 10
68745.54252519493
 20
4531.492354529105
 30
0.0
  0
SEQEND
  5
342
  8
__
  6
CONTINUOUS
 62
     7
  0
LINE
  5
343
  8
__
  6
CONTINUOUS
 62
     7
 10
69165.54252519493
 20
4531.492354529105
 30
0.0
 11
69165.54252519493
 21
5111.492354529104
 31
0.0
  0
POLYLINE
  5
344
  8
__
  6
CONTINUOUS
 62
     7
 66
     1
 10
0.0
 20
0.0
 30
0.0
 70
   129
  0
VERTEX
  5
345
  8
__
  6
CONTINUOUS
 62
     7
 10
69165.54252519493
 20
5111.492354529104
 30
0.0
  0
VERTEX
  5
346
  8
__
  6
CONTINUOUS
 62
     7
 10
69325.54252519493
 20
5111.492354529104
 30
0.0
  0
VERTEX
  5
347
  8
__
  6
CONTINUOUS
 62
     7
 10
69325.54252519493
 20
4531.492354529105
 30
0.0
  0
VERTEX
  5
348
  8
__
  6
CONTINUOUS
 62
     7
 10
69165.54252519493
 20
4531.492354529105
 30
0.0
  0
SEQEND
  5
349
  8
__
  6
CONTINUOUS
 62
     7
  0
POLYLINE
  5
34A
  8
0_05_____
 62
     7
 66
     1
 10
0.0
 20
0.0
 30
0.0
 70
   129
  0
VERTEX
  5
34B
  8
0_05_____
 62
     7
 10
69307.54252519493
 20
5111.492354529104
 30
0.0
  0
VERTEX
  5
34C
  8
0_05_____
 62
     7
 10
69325.54252519493
 20
5111.492354529104
 30
0.0
  0
VERTEX
  5
34D
  8
0_05_____
 62
     7
 10
69325.54252519493
 20
4531.492354529105
 30
0.0
  0
VERTEX
  5
34E
  8
0_05_____
 62
     7
 10
69307.54252519493
 20
4531.492354529105
 30
0.0
  0
SEQEND
  5
34F
  8
0_05_____
 62
     7
  0
POLYLINE
  5
350
  8
0_05_____
 62
     7
 66
     1
 10
0.0
 20
0.0
 30
0.0
 70
   129
  0
VERTEX
  5
351
  8
0_05_____
 62
     7
 10
69165.54252519493
 20
5093.492354529104
 30
0.0
  0
VERTEX
  5
352
  8
0_05_____
 62
     7
 10
69165.54252519493
 20
5111.492354529104
 30
0.0
  0
VERTEX
  5
353
  8
0_05_____
 62
     7
 10
69307.54252519493
 20
5111.492354529104
 30
0.0
  0
VERTEX
  5
354
  8
0_05_____
 62
     7
 10
69307.54252519493
 20
5093.492354529104
 30
0.0
  0
SEQEND
  5
355
  8
0_05_____
 62
     7
  0
POLYLINE
  5
356
  8
0_05_____
 62
     7
 66
     1
 10
0.0
 20
0.0
 30
0.0
 70
   129
  0
VERTEX
  5
357
  8
0_05_____
 62
     7
 10
69165.54252519493
 20
4531.492354529105
 30
0.0
  0
VERTEX
  5
358
  8
0_05_____
 62
     7
 10
69165.54252519493
 20
4549.492354529105
 30
0.0
  0
VERTEX
  5
359
  8
0_05_____
 62
     7
 10
69307.54252519493
 20
4549.492354529105
 30
0.0
  0
VERTEX
  5
35A
  8
0_05_____
 62
     7
 10
69307.54252519493
 20
4531.492354529105
 30
0.0
  0
SEQEND
  5
35B
  8
0_05_____
 62
     7
  0
POLYLINE
  5
35C
  8
0_05_____
 62
     7
 66
     1
 10
0.0
 20
0.0
 30
0.0
 70
   129
  0
VERTEX
  5
35D
  8
0_05_____
 62
     7
 10
69165.54252519493
 20
4888.492354529105
 30
0.0
  0
VERTEX
  5
35E
  8
0_05_____
 62
     7
 10
69165.54252519493
 20
4903.492354529105
 30
0.0
  0
VERTEX
  5
35F
  8
0_05_____
 62
     7
 10
69307.54252519493
 20
4903.492354529105
 30
0.0
  0
VERTEX
  5
360
  8
0_05_____
 62
     7
 10
69307.54252519493
 20
4888.492354529105
 30
0.0
  0
SEQEND
  5
361
  8
0_05_____
 62
     7
  0
POLYLINE
  5
362
  8
0_05_____
 62
     7
 66
     1
 10
0.0
 20
0.0
 30
0.0
 70
   129
  0
VERTEX
  5
363
  8
0_05_____
 62
     7
 10
69165.54252519493
 20
4739.492354529105
 30
0.0
  0
VERTEX
  5
364
  8
0_05_____
 62
     7
 10
69165.54252519493
 20
4754.492354529105
 30
0.0
  0
VERTEX
  5
365
  8
0_05_____
 62
     7
 10
69307.54252519493
 20
4754.492354529105
 30
0.0
  0
VERTEX
  5
366
  8
0_05_____
 62
     7
 10
69307.54252519493
 20
4739.492354529105
 30
0.0
  0
SEQEND
  5
367
  8
0_05_____
 62
     7
  0
DIMENSION
  5
368
  8
__-1
 62
    17
  2
*D3
 10
68595.54252519493
 20
4531.492354529105
 30
0.0
 11
68582.92244418387
 21
4821.492354529104
 31
0.0
 70
    32
  3
SPEAC
 13
68745.54252519493
 23
5111.492354529104
 33
0.0
 14
68745.54252519493
 24
4531.492354529105
 34
0.0
 50
-90.0
  0
POLYLINE
  5
369
  8
__
  6
CONTINUOUS
 62
     7
 66
     1
 10
0.0
 20
0.0
 30
0.0
 70
   129
  0
VERTEX
  5
36A
  8
__
  6
CONTINUOUS
 62
     7
 10
68745.54252519493
 20
6214.053234651074
 30
0.0
  0
VERTEX
  5
36B
  8
__
  6
CONTINUOUS
 62
     7
 10
69295.54252519493
 20
6214.053234651074
 30
0.0
  0
VERTEX
  5
36C
  8
__
  6
CONTINUOUS
 62
     7
 10
69295.54252519493
 20
6064.053234651074
 30
0.0
  0
VERTEX
  5
36D
  8
__
  6
CONTINUOUS
 62
     7
 10
68745.54252519493
 20
6064.053234651074
 30
0.0
  0
SEQEND
  5
36E
  8
__
  6
CONTINUOUS
 62
     7
  0
POLYLINE
  5
36F
  8
__
  6
CONTINUOUS
 62
     7
 66
     1
 10
0.0
 20
0.0
 30
0.0
 70
   129
  0
VERTEX
  5
370
  8
__
  6
CONTINUOUS
 62
     7
 10
69277.54252519493
 20
6214.053234651074
 30
0.0
  0
VERTEX
  5
371
  8
__
  6
CONTINUOUS
 62
     7
 10
69295.54252519493
 20
6214.053234651074
 30
0.0
  0
VERTEX
  5
372
  8
__
  6
CONTINUOUS
 62
     7
 10
69295.54252519493
 20
6064.053234651074
 30
0.0
  0
VERTEX
  5
373
  8
__
  6
CONTINUOUS
 62
     7
 10
69277.54252519493
 20
6064.053234651074
 30
0.0
  0
SEQEND
  5
374
  8
__
  6
CONTINUOUS
 62
     7
  0
POLYLINE
  5
375
  8
__
  6
CONTINUOUS
 62
     7
 66
     1
 10
0.0
 20
0.0
 30
0.0
 70
   129
  0
VERTEX
  5
376
  8
__
  6
CONTINUOUS
 62
     7
 10
68745.54252519493
 20
6061.053234651074
 30
0.0
  0
VERTEX
  5
377
  8
__
  6
CONTINUOUS
 62
     7
 10
69165.54252519493
 20
6061.053234651074
 30
0.0
  0
VERTEX
  5
378
  8
__
  6
CONTINUOUS
 62
     7
 10
69165.54252519493
 20
6041.053234651074
 30
0.0
  0
VERTEX
  5
379
  8
__
  6
CONTINUOUS
 62
     7
 10
68745.54252519493
 20
6041.053234651074
 30
0.0
  0
SEQEND
  5
37A
  8
__
  6
CONTINUOUS
 62
     7
  0
DIMENSION
  5
37B
  8
__-1
 62
    17
  2
*D4
 10
68621.37585853944
 20
6041.053234651074
 30
0.0
 11
68621.37585853944
 21
6016.851371482335
 31
0.0
 70
   160
  3
SPEAC
 13
68745.54252519493
 23
6061.053234651074
 33
0.0
 14
68745.54252519493
 24
6041.053234651074
 34
0.0
 50
-90.0
  0
POLYLINE
  5
37C
  8
__
  6
CONTINUOUS
 62
     7
 66
     1
 10
0.0
 20
0.0
 30
0.0
 70
   129
  0
VERTEX
  5
37D
  8
__
  6
CONTINUOUS
 62
     7
 10
68745.54252519493
 20
6214.053234651074
 30
0.0
  0
VERTEX
  5
37E
  8
__
  6
CONTINUOUS
 62
     7
 10
68763.54252519493
 20
6214.053234651074
 30
0.0
  0
VERTEX
  5
37F
  8
__
  6
CONTINUOUS
 62
     7
 10
68763.54252519493
 20
6064.053234651074
 30
0.0
  0
VERTEX
  5
380
  8
__
  6
CONTINUOUS
 62
     7
 10
68745.54252519493
 20
6064.053234651074
 30
0.0
  0
SEQEND
  5
381
  8
__
  6
CONTINUOUS
 62
     7
  0
POLYLINE
  5
382
  8
__
  6
CONTINUOUS
 62
     7
 66
     1
 10
0.0
 20
0.0
 30
0.0
 70
   129
  0
VERTEX
  5
383
  8
__
  6
CONTINUOUS
 62
     7
 10
68763.54252519493
 20
6196.053234651074
 30
0.0
  0
VERTEX
  5
384
  8
__
  6
CONTINUOUS
 62
     7
 10
68763.54252519493
 20
6214.053234651074
 30
0.0
  0
VERTEX
  5
385
  8
__
  6
CONTINUOUS
 62
     7
 10
69277.54252519493
 20
6214.053234651074
 30
0.0
  0
VERTEX
  5
386
  8
__
  6
CONTINUOUS
 62
     7
 10
69277.54252519493
 20
6196.053234651074
 30
0.0
  0
SEQEND
  5
387
  8
__
  6
CONTINUOUS
 62
     7
  0
DIMENSION
  5
388
  8
__-1
 62
    17
  2
*D5
 10
68645.54252519493
 20
6064.053234651074
 30
0.0
 11
68632.92244418387
 21
6062.553234651074
 31
0.0
 70
    32
  3
SPEAC
 13
68745.54252519493
 23
6061.053234651074
 33
0.0
 14
68745.54252519493
 24
6064.053234651074
 34
0.0
 50
-90.0
  0
DIMENSION
  5
38B
  8
__-1
 62
    17
  2
*D6
 10
68645.54252519493
 20
6064.053234651074
 30
0.0
 11
68632.92244418387
 21
6139.053234651074
 31
0.0
 70
    32
  3
SPEAC
 13
68745.54252519493
 23
6214.053234651074
 33
0.0
 14
68745.54252519493
 24
6064.053234651074
 34
0.0
 50
-90.0
  0
DIMENSION
  5
38C
  8
__-1
 62
    17
  2
*D7
 10
68545.54252519493
 20
6041.053234651074
 30
0.0
 11
68532.92244418387
 21
6127.553234651074
 31
0.0
 70
    32
  3
SPEAC
 13
68745.54252519493
 23
6214.053234651074
 33
0.0
 14
68745.54252519493
 24
6041.053234651074
 34
0.0
 50
-90.0
  0
POLYLINE
  5
38D
  8
__
  6
CONTINUOUS
 62
     7
 66
     1
 10
0.0
 20
0.0
 30
0.0
 70
   129
  0
VERTEX
  5
38E
  8
__
  6
CONTINUOUS
 62
     7
 10
69672.16115240536
 20
5111.492354529104
 30
0.0
  0
VERTEX
  5
38F
  8
__
  6
CONTINUOUS
 62
     7
 10
70252.16115240536
 20
5111.492354529104
 30
0.0
  0
VERTEX
  5
390
  8
__
  6
CONTINUOUS
 62
     7
 10
70252.16115240536
 20
4531.492354529105
 30
0.0
  0
VERTEX
  5
391
  8
__
  6
CONTINUOUS
 62
     7
 10
69672.16115240536
 20
4531.492354529105
 30
0.0
  0
SEQEND
  5
392
  8
__
  6
CONTINUOUS
 62
     7
  0
LINE
  5
393
  8
__
  6
CONTINUOUS
 62
     7
 10
70092.16115240536
 20
4531.492354529105
 30
0.0
 11
70092.16115240536
 21
5111.492354529104
 31
0.0
  0
POLYLINE
  5
394
  8
__
  6
CONTINUOUS
 62
     7
 66
     1
 10
0.0
 20
0.0
 30
0.0
 70
   129
  0
VERTEX
  5
395
  8
__
  6
CONTINUOUS
 62
     7
 10
69690.16115240536
 20
5111.492354529104
 30
0.0
  0
VERTEX
  5
396
  8
__
  6
CONTINUOUS
 62
     7
 10
70252.16115240536
 20
5111.492354529104
 30
0.0
  0
VERTEX
  5
397
  8
__
  6
CONTINUOUS
 62
     7
 10
70252.16115240536
 20
4531.492354529105
 30
0.0
  0
VERTEX
  5
398
  8
__
  6
CONTINUOUS
 62
     7
 10
69690.16115240536
 20
4531.492354529105
 30
0.0
  0
SEQEND
  5
399
  8
__
  6
CONTINUOUS
 62
     7
  0
POLYLINE
  5
39A
  8
__
  6
CONTINUOUS
 62
     7
 66
     1
 10
0.0
 20
0.0
 30
0.0
 70
   129
  0
VERTEX
  5
39B
  8
__
  6
CONTINUOUS
 62
     7
 10
70234.16115240536
 20
5111.492354529104
 30
0.0
  0
VERTEX
  5
39C
  8
__
  6
CONTINUOUS
 62
     7
 10
70252.16115240536
 20
5111.492354529104
 30
0.0
  0
VERTEX
  5
39D
  8
__
  6
CONTINUOUS
 62
     7
 10
70252.16115240536
 20
4531.492354529105
 30
0.0
  0
VERTEX
  5
39E
  8
__
  6
CONTINUOUS
 62
     7
 10
70234.16115240536
 20
4531.492354529105
 30
0.0
  0
SEQEND
  5
39F
  8
__
  6
CONTINUOUS
 62
     7
  0
POLYLINE
  5
3A0
  8
__
  6
CONTINUOUS
 62
     7
 66
     1
 10
0.0
 20
0.0
 30
0.0
 70
   129
  0
VERTEX
  5
3A1
  8
__
  6
CONTINUOUS
 62
     7
 10
69690.16115240536
 20
5093.492354529104
 30
0.0
  0
VERTEX
  5
3A2
  8
__
  6
CONTINUOUS
 62
     7
 10
69690.16115240536
 20
5111.492354529104
 30
0.0
  0
VERTEX
  5
3A3
  8
__
  6
CONTINUOUS
 62
     7
 10
70234.16115240536
 20
5111.492354529104
 30
0.0
  0
VERTEX
  5
3A4
  8
__
  6
CONTINUOUS
 62
     7
 10
70234.16115240536
 20
5093.492354529104
 30
0.0
  0
SEQEND
  5
3A5
  8
__
  6
CONTINUOUS
 62
     7
  0
POLYLINE
  5
3A6
  8
__
  6
CONTINUOUS
 62
     7
 66
     1
 10
0.0
 20
0.0
 30
0.0
 70
   129
  0
VERTEX
  5
3A7
  8
__
  6
CONTINUOUS
 62
     7
 10
69690.16115240536
 20
4531.492354529105
 30
0.0
  0
VERTEX
  5
3A8
  8
__
  6
CONTINUOUS
 62
     7
 10
69690.16115240536
 20
4549.492354529105
 30
0.0
  0
VERTEX
  5
3A9
  8
__
  6
CONTINUOUS
 62
     7
 10
70234.16115240536
 20
4549.492354529105
 30
0.0
  0
VERTEX
  5
3AA
  8
__
  6
CONTINUOUS
 62
     7
 10
70234.16115240536
 20
4531.492354529105
 30
0.0
  0
SEQEND
  5
3AB
  8
__
  6
CONTINUOUS
 62
     7
  0
POLYLINE
  5
3AC
  8
__
  6
CONTINUOUS
 62
     7
 66
     1
 10
0.0
 20
0.0
 30
0.0
 70
   129
  0
VERTEX
  5
3AD
  8
__
  6
CONTINUOUS
 62
     7
 10
70072.16115240536
 20
4739.492354529105
 30
0.0
  0
VERTEX
  5
3AE
  8
__
  6
CONTINUOUS
 62
     7
 10
70072.16115240536
 20
4754.492354529105
 30
0.0
  0
VERTEX
  5
3AF
  8
__
  6
CONTINUOUS
 62
     7
 10
70234.16115240536
 20
4754.492354529105
 30
0.0
  0
VERTEX
  5
3B0
  8
__
  6
CONTINUOUS
 62
     7
 10
70234.16115240536
 20
4739.492354529105
 30
0.0
  0
SEQEND
  5
3B1
  8
__
  6
CONTINUOUS
 62
     7
  0
POLYLINE
  5
3B2
  8
__
  6
CONTINUOUS
 62
     7
 66
     1
 10
0.0
 20
0.0
 30
0.0
 70
   129
  0
VERTEX
  5
3B3
  8
__
  6
CONTINUOUS
 62
     7
 10
69672.16115240536
 20
5111.492354529104
 30
0.0
  0
VERTEX
  5
3B4
  8
__
  6
CONTINUOUS
 62
     7
 10
69690.16115240536
 20
5111.492354529104
 30
0.0
  0
VERTEX
  5
3B5
  8
__
  6
CONTINUOUS
 62
     7
 10
69690.16115240536
 20
4531.492354529105
 30
0.0
  0
VERTEX
  5
3B6
  8
__
  6
CONTINUOUS
 62
     7
 10
69672.16115240536
 20
4531.492354529105
 30
0.0
  0
SEQEND
  5
3B7
  8
__
  6
CONTINUOUS
 62
     7
  0
POLYLINE
  5
3B8
  8
__
  6
CONTINUOUS
 62
     7
 66
     1
 10
0.0
 20
0.0
 30
0.0
 70
   129
  0
VERTEX
  5
3B9
  8
__
  6
CONTINUOUS
 62
     7
 10
70057.16115240536
 20
5093.492354529104
 30
0.0
  0
VERTEX
  5
3BA
  8
__
  6
CONTINUOUS
 62
     7
 10
70072.16115240536
 20
5093.492354529104
 30
0.0
  0
VERTEX
  5
3BB
  8
__
  6
CONTINUOUS
 62
     7
 10
70072.16115240536
 20
4549.492354529105
 30
0.0
  0
VERTEX
  5
3BC
  8
__
  6
CONTINUOUS
 62
     7
 10
70057.16115240536
 20
4549.492354529105
 30
0.0
  0
SEQEND
  5
3BD
  8
__
  6
CONTINUOUS
 62
     7
  0
INSERT
  5
3BE
  8
__
 62
     1
  2
____-1
 10
0.0
 20
0.0
 30
0.0
  0
INSERT
  5
3BF
  8
__
 62
     1
  2
____-2
 10
0.0
 20
0.0
 30
0.0
  0
POLYLINE
  5
3C0
  8
__
  6
CONTINUOUS
 62
     7
 66
     1
 10
0.0
 20
0.0
 30
0.0
 70
   129
  0
VERTEX
  5
3C1
  8
__
  6
CONTINUOUS
 62
     7
 10
69690.16115240536
 20
4821.492354529105
 30
0.0
  0
VERTEX
  5
3C2
  8
__
  6
CONTINUOUS
 62
     7
 10
69690.16115240536
 20
4836.492354529105
 30
0.0
  0
VERTEX
  5
3C3
  8
__
  6
CONTINUOUS
 62
     7
 10
70057.16115240536
 20
4836.492354529105
 30
0.0
  0
VERTEX
  5
3C4
  8
__
  6
CONTINUOUS
 62
     7
 10
70057.16115240536
 20
4821.492354529105
 30
0.0
  0
SEQEND
  5
3C5
  8
__
  6
CONTINUOUS
 62
     7
  0
POLYLINE
  5
3C6
  8
__
  6
______-13
 62
     4
 66
     1
 10
0.0
 20
0.0
 30
0.0
 70
   129
  0
VERTEX
  5
3C7
  8
__
  6
______-13
 62
     4
 10
69767.19781594322
 20
4756.534607992035
 30
0.0
  0
VERTEX
  5
3C8
  8
__
  6
______-13
 62
     4
 10
69767.4096169223
 20
4756.641892336662
 30
0.0
  0
VERTEX
  5
3C9
  8
__
  6
______-13
 62
     4
 10
69767.60992459537
 20
4756.734872102003
 30
0.0
  0
VERTEX
  5
3CA
  8
__
  6
______-13
 62
     4
 10
69767.79873896242
 20
4756.813547288062
 30
0.0
  0
VERTEX
  5
3CB
  8
__
  6
______-13
 62
     4
 10
69767.97606002346
 20
4756.877917894837
 30
0.0
  0
VERTEX
  5
3CC
  8
__
  6
______-13
 62
     4
 10
69768.14188777847
 20
4756.927983922329
 30
0.0
  0
VERTEX
  5
3CD
  8
__
  6
______-13
 62
     4
 10
69768.29622222747
 20
4756.963745370538
 30
0.0
  0
VERTEX
  5
3CE
  8
__
  6
______-13
 62
     4
 10
69768.43906337045
 20
4756.985202239463
 30
0.0
  0
VERTEX
  5
3CF
  8
__
  6
______-13
 62
     4
 10
69768.5704112074
 20
4756.992354529105
 30
0.0
  0
VERTEX
  5
3D0
  8
__
  6
______-13
 62
     4
 10
69768.5704112074
 20
4756.992354529105
 30
0.0
  0
VERTEX
  5
3D1
  8
__
  6
______-13
 62
     4
 10
69784.07281594322
 20
4756.992354529105
 30
0.0
  0
VERTEX
  5
3D2
  8
__
  6
______-13
 62
     4
 10
69784.32191489013
 20
4756.985202239463
 30
0.0
  0
VERTEX
  5
3D3
  8
__
  6
______-13
 62
     4
 10
69784.56680699508
 20
4756.963745370538
 30
0.0
  0
VERTEX
  5
3D4
  8
__
  6
______-13
 62
     4
 10
69784.80749225803
 20
4756.927983922329
 30
0.0
  0
VERTEX
  5
3D5
  8
__
  6
______-13
 62
     4
 10
69785.04397067902
 20
4756.877917894837
 30
0.0
  0
VERTEX
  5
3D6
  8
__
  6
______-13
 62
     4
 10
69785.27624225803
 20
4756.813547288062
 30
0.0
  0
VERTEX
  5
3D7
  8
__
  6
______-13
 62
     4
 10
69785.50430699508
 20
4756.734872102003
 30
0.0
  0
VERTEX
  5
3D8
  8
__
  6
______-13
 62
     4
 10
69785.72816489013
 20
4756.641892336662
 30
0.0
  0
VERTEX
  5
3D9
  8
__
  6
______-13
 62
     4
 10
69785.94781594322
 20
4756.534607992035
 30
0.0
  0
VERTEX
  5
3DA
  8
__
  6
______-13
 62
     4
 10
69785.94781594322
 20
4756.534607992035
 30
0.0
  0
VERTEX
  5
3DB
  8
__
  6
______-13
 62
     4
 10
69786.1596169223
 20
4756.41493551836
 30
0.0
  0
VERTEX
  5
3DC
  8
__
  6
______-13
 62
     4
 10
69786.35992459537
 20
4756.284791365868
 30
0.0
  0
VERTEX
  5
3DD
  8
__
  6
______-13
 62
     4
 10
69786.54873896242
 20
4756.14417553456
 30
0.0
  0
VERTEX
  5
3DE
  8
__
  6
______-13
 62
     4
 10
69786.72606002346
 20
4755.993088024436
 30
0.0
  0
VERTEX
  5
3DF
  8
__
  6
______-13
 62
     4
 10
69786.89188777847
 20
4755.831528835494
 30
0.0
  0
VERTEX
  5
3E0
  8
__
  6
______-13
 62
     4
 10
69787.04622222747
 20
4755.659497967737
 30
0.0
  0
VERTEX
  5
3E1
  8
__
  6
______-13
 62
     4
 10
69787.18906337045
 20
4755.476995421162
 30
0.0
  0
VERTEX
  5
3E2
  8
__
  6
______-13
 62
     4
 10
69787.3204112074
 20
4755.284021195772
 30
0.0
  0
VERTEX
  5
3E3
  8
__
  6
______-13
 62
     4
 10
69787.3204112074
 20
4755.284021195772
 30
0.0
  0
VERTEX
  5
3E4
  8
__
  6
______-13
 62
     4
 10
69787.43816231735
 20
4755.091046970381
 30
0.0
  0
VERTEX
  5
3E5
  8
__
  6
______-13
 62
     4
 10
69787.54021327932
 20
4754.908544423806
 30
0.0
  0
VERTEX
  5
3E6
  8
__
  6
______-13
 62
     4
 10
69787.6265640933
 20
4754.736513556049
 30
0.0
  0
VERTEX
  5
3E7
  8
__
  6
______-13
 62
     4
 10
69787.69721475926
 20
4754.574954367108
 30
0.0
  0
VERTEX
  5
3E8
  8
__
  6
______-13
 62
     4
 10
69787.75216527723
 20
4754.423866856983
 30
0.0
  0
VERTEX
  5
3E9
  8
__
  6
______-13
 62
     4
 10
69787.79141564723
 20
4754.283251025676
 30
0.0
  0
VERTEX
  5
3EA
  8
__
  6
______-13
 62
     4
 10
69787.81496586921
 20
4754.153106873184
 30
0.0
  0
VERTEX
  5
3EB
  8
__
  6
______-13
 62
     4
 10
69787.82281594322
 20
4754.033434399508
 30
0.0
  0
VERTEX
  5
3EC
  8
__
  6
______-13
 62
     4
 10
69787.82281594322
 20
4754.033434399508
 30
0.0
  0
VERTEX
  5
3ED
  8
__
  6
______-13
 62
     4
 10
69787.82281594322
 20
4739.992354529105
 30
0.0
  0
VERTEX
  5
3EE
  8
__
  6
______-13
 62
     4
 10
69804.32281594322
 20
4739.992354529105
 30
0.0
  0
VERTEX
  5
3EF
  8
__
  6
______-13
 62
     4
 10
69804.32281594322
 20
4739.992354529105
 30
0.0
 42
-0.1989123673811479
 70
     2
 50
-28544814485919.91
  0
VERTEX
  5
3F0
  8
__
  6
______-13
 62
     4
 10
69809.44934010682
 20
4737.868878692709
 30
0.0
  0
VERTEX
  5
3F1
  8
__
  6
______-13
 62
     4
 10
69809.44934010683
 20
4737.868878692694
 30
0.0
 42
-0.1989123673793099
 70
     2
 50
57.29577951282815
  0
VERTEX
  5
3F2
  8
__
  6
______-13
 62
     4
 10
69811.57281594322
 20
4732.742354529097
 30
0.0
  0
VERTEX
  5
3F3
  8
__
  6
______-13
 62
     4
 10
69811.57281594322
 20
4549.492354529105
 30
0.0
  0
VERTEX
  5
3F4
  8
__
  6
______-13
 62
     4
 10
69741.57281594322
 20
4549.492354529105
 30
0.0
  0
VERTEX
  5
3F5
  8
__
  6
______-13
 62
     4
 10
69741.57281594322
 20
4732.742354529105
 30
0.0
  0
VERTEX
  5
3F6
  8
__
  6
______-13
 62
     4
 10
69741.57281594322
 20
4732.742354529105
 30
0.0
 42
-0.4142135623730951
 70
     2
 50
-0.000000000000007
  0
VERTEX
  5
3F7
  8
__
  6
______-13
 62
     4
 10
69748.82281594322
 20
4739.992354529105
 30
0.0
  0
VERTEX
  5
3F8
  8
__
  6
______-13
 62
     4
 10
69765.32281594322
 20
4739.992354529105
 30
0.0
  0
VERTEX
  5
3F9
  8
__
  6
______-13
 62
     4
 10
69765.32281594322
 20
4754.033434399508
 30
0.0
  0
VERTEX
  5
3FA
  8
__
  6
______-13
 62
     4
 10
69765.33066601722
 20
4754.153106873184
 30
0.0
  0
VERTEX
  5
3FB
  8
__
  6
______-13
 62
     4
 10
69765.35421623921
 20
4754.283251025676
 30
0.0
  0
VERTEX
  5
3FC
  8
__
  6
______-13
 62
     4
 10
69765.39346660921
 20
4754.423866856983
 30
0.0
  0
VERTEX
  5
3FD
  8
__
  6
______-13
 62
     4
 10
69765.44841712718
 20
4754.574954367108
 30
0.0
  0
VERTEX
  5
3FE
  8
__
  6
______-13
 62
     4
 10
69765.51906779314
 20
4754.736513556049
 30
0.0
  0
VERTEX
  5
3FF
  8
__
  6
______-13
 62
     4
 10
69765.60541860711
 20
4754.908544423806
 30
0.0
  0
VERTEX
  5
400
  8
__
  6
______-13
 62
     4
 10
69765.70746956908
 20
4755.091046970381
 30
0.0
  0
VERTEX
  5
401
  8
__
  6
______-13
 62
     4
 10
69765.82522067903
 20
4755.284021195772
 30
0.0
  0
VERTEX
  5
402
  8
__
  6
______-13
 62
     4
 10
69765.82522067903
 20
4755.284021195772
 30
0.0
  0
VERTEX
  5
403
  8
__
  6
______-13
 62
     4
 10
69765.95656851599
 20
4755.476995421162
 30
0.0
  0
VERTEX
  5
404
  8
__
  6
______-13
 62
     4
 10
69766.09940965897
 20
4755.659497967737
 30
0.0
  0
VERTEX
  5
405
  8
__
  6
______-13
 62
     4
 10
69766.25374410796
 20
4755.831528835494
 30
0.0
  0
VERTEX
  5
406
  8
__
  6
______-13
 62
     4
 10
69766.41957186298
 20
4755.993088024436
 30
0.0
  0
VERTEX
  5
407
  8
__
  6
______-13
 62
     4
 10
69766.59689292402
 20
4756.14417553456
 30
0.0
  0
VERTEX
  5
408
  8
__
  6
______-13
 62
     4
 10
69766.78570729107
 20
4756.284791365868
 30
0.0
  0
VERTEX
  5
409
  8
__
  6
______-13
 62
     4
 10
69766.98601496413
 20
4756.41493551836
 30
0.0
  0
VERTEX
  5
40A
  8
__
  6
______-13
 62
     4
 10
69767.19781594322
 20
4756.534607992035
 30
0.0
  0
VERTEX
  5
40B
  8
__
  6
______-13
 62
     4
 10
69767.19781594322
 20
4756.534607992035
 30
0.0
  0
VERTEX
  5
40C
  8
__
  6
______-13
 62
     4
 10
69767.19781594322
 20
4756.534607992035
 30
0.0
  0
SEQEND
  5
40D
  8
__
  6
______-13
 62
     4
  0
INSERT
  5
40E
  8
__
 62
     4
  2
____-3
 10
0.0
 20
0.0
 30
0.0
  0
POLYLINE
  5
40F
  8
__
  6
CONTINUOUS
 62
     7
 66
     1
 10
0.0
 20
0.0
 30
0.0
 70
   129
  0
VERTEX
  5
410
  8
__
  6
CONTINUOUS
 62
     7
 10
70072.16115240536
 20
4888.492354529105
 30
0.0
  0
VERTEX
  5
411
  8
__
  6
CONTINUOUS
 62
     7
 10
70072.16115240536
 20
4903.492354529105
 30
0.0
  0
VERTEX
  5
412
  8
__
  6
CONTINUOUS
 62
     7
 10
70234.16115240536
 20
4903.492354529105
 30
0.0
  0
VERTEX
  5
413
  8
__
  6
CONTINUOUS
 62
     7
 10
70234.16115240536
 20
4888.492354529105
 30
0.0
  0
SEQEND
  5
414
  8
__
  6
CONTINUOUS
 62
     7
  0
POLYLINE
  5
415
  8
__
  6
CONTINUOUS
 62
     7
 66
     1
 10
0.0
 20
0.0
 30
0.0
 70
   129
  0
VERTEX
  5
416
  8
__
  6
CONTINUOUS
 62
     7
 10
71442.0856462213
 20
4531.492354529105
 30
0.0
  0
VERTEX
  5
417
  8
__
  6
CONTINUOUS
 62
     7
 10
71442.0856462213
 20
5111.492354529104
 30
0.0
  0
VERTEX
  5
418
  8
__
  6
CONTINUOUS
 62
     7
 10
71460.0856462213
 20
5111.492354529104
 30
0.0
  0
VERTEX
  5
419
  8
__
  6
CONTINUOUS
 62
     7
 10
71460.0856462213
 20
4531.492354529105
 30
0.0
  0
SEQEND
  5
41A
  8
__
  6
CONTINUOUS
 62
     7
  0
POLYLINE
  5
41B
  8
__
  6
CONTINUOUS
 62
     7
 66
     1
 10
0.0
 20
0.0
 30
0.0
 70
   129
  0
VERTEX
  5
41C
  8
__
  6
CONTINUOUS
 62
     7
 10
71036.60715181571
 20
5093.492354529104
 30
0.0
  0
VERTEX
  5
41D
  8
__
  6
CONTINUOUS
 62
     7
 10
71036.60715181571
 20
5111.492354529104
 30
0.0
  0
VERTEX
  5
41E
  8
__
  6
CONTINUOUS
 62
     7
 10
70884.60715181571
 20
5111.492354529104
 30
0.0
  0
VERTEX
  5
41F
  8
__
  6
CONTINUOUS
 62
     7
 10
70884.60715181571
 20
5093.492354529104
 30
0.0
  0
SEQEND
  5
420
  8
__
  6
CONTINUOUS
 62
     7
  0
POLYLINE
  5
421
  8
__
  6
CONTINUOUS
 62
     7
 66
     1
 10
0.0
 20
0.0
 30
0.0
 70
   129
  0
VERTEX
  5
422
  8
__
  6
CONTINUOUS
 62
     7
 10
70863.60715181571
 20
4531.492354529105
 30
0.0
  0
VERTEX
  5
423
  8
__
  6
CONTINUOUS
 62
     7
 10
70863.60715181571
 20
5111.492354529104
 30
0.0
  0
VERTEX
  5
424
  8
__
  6
CONTINUOUS
 62
     7
 10
70881.60715181571
 20
5111.492354529104
 30
0.0
  0
VERTEX
  5
425
  8
__
  6
CONTINUOUS
 62
     7
 10
70881.60715181571
 20
4531.492354529105
 30
0.0
  0
SEQEND
  5
426
  8
__
  6
CONTINUOUS
 62
     7
  0
DIMENSION
  5
427
  8
__-1
 62
    17
  2
*D11
 10
70863.60715181571
 20
4455.659021184596
 30
0.0
 11
70840.92244307819
 21
4455.659021184596
 31
0.0
 70
   160
  3
SPEAC
 13
70881.60715181571
 23
4531.492354529105
 33
0.0
 14
70863.60715181571
 24
4531.492354529105
 34
0.0
  0
POLYLINE
  5
428
  8
__
  6
CONTINUOUS
 62
     7
 66
     1
 10
0.0
 20
0.0
 30
0.0
 70
   129
  0
VERTEX
  5
429
  8
__
  6
CONTINUOUS
 62
     7
 10
71036.60715181571
 20
4531.492354529105
 30
0.0
  0
VERTEX
  5
42A
  8
__
  6
CONTINUOUS
 62
     7
 10
71036.60715181571
 20
4549.492354529105
 30
0.0
  0
VERTEX
  5
42B
  8
__
  6
CONTINUOUS
 62
     7
 10
70884.60715181571
 20
4549.492354529105
 30
0.0
  0
VERTEX
  5
42C
  8
__
  6
CONTINUOUS
 62
     7
 10
70884.60715181571
 20
4531.492354529105
 30
0.0
  0
SEQEND
  5
42D
  8
__
  6
CONTINUOUS
 62
     7
  0
POLYLINE
  5
42E
  8
__
  6
CONTINUOUS
 62
     7
 66
     1
 10
0.0
 20
0.0
 30
0.0
 70
   129
  0
VERTEX
  5
42F
  8
__
  6
CONTINUOUS
 62
     7
 10
71021.60715181571
 20
4549.492354529105
 30
0.0
  0
VERTEX
  5
430
  8
__
  6
CONTINUOUS
 62
     7
 10
71036.60715181571
 20
4549.492354529105
 30
0.0
  0
VERTEX
  5
431
  8
__
  6
CONTINUOUS
 62
     7
 10
71036.60715181571
 20
5093.492354529104
 30
0.0
  0
VERTEX
  5
432
  8
__
  6
CONTINUOUS
 62
     7
 10
71021.60715181571
 20
5093.492354529104
 30
0.0
  0
SEQEND
  5
433
  8
__
  6
CONTINUOUS
 62
     7
  0
DIMENSION
  5
434
  8
__-1
 62
    17
  2
*D12
 10
70884.60715181571
 20
4431.492354529105
 30
0.0
 11
70883.10715181571
 21
4444.112435540173
 31
0.0
 70
    32
  3
SPEAC
 13
70881.60715181571
 23
4531.492354529105
 33
0.0
 14
70884.60715181571
 24
4531.492354529105
 34
0.0
  0
DIMENSION
  5
437
  8
__-1
 62
    17
  2
*D13
 10
70884.60715181571
 20
4431.492354529105
 30
0.0
 11
70960.60715181571
 21
4444.112435540173
 31
0.0
 70
    32
  3
SPEAC
 13
71036.60715181571
 23
4531.492354529105
 33
0.0
 14
70884.60715181571
 24
4531.492354529105
 34
0.0
  0
DIMENSION
  5
438
  8
__-1
 62
    17
  2
*D14
 10
70863.60715181571
 20
4331.492354529105
 30
0.0
 11
70950.10715181571
 21
4344.112435540173
 31
0.0
 70
    32
  3
SPEAC
 13
71036.60715181571
 23
4531.492354529105
 33
0.0
 14
70863.60715181571
 24
4531.492354529105
 34
0.0
  0
LINE
  5
439
  8
__
  6
CONTINUOUS
 62
     4
 10
70884.60715181571
 20
4549.492354529105
 30
0.0
 11
70884.60715181571
 21
5093.492354529104
 31
0.0
  0
POLYLINE
  5
43A
  8
__
  6
CONTINUOUS
 62
     7
 66
     1
 10
0.0
 20
0.0
 30
0.0
 70
   129
  0
VERTEX
  5
43B
  8
__
  6
CONTINUOUS
 62
     7
 10
71021.60715181571
 20
4821.492354529105
 30
0.0
  0
VERTEX
  5
43C
  8
__
  6
CONTINUOUS
 62
     7
 10
71021.60715181571
 20
4836.492354529105
 30
0.0
  0
VERTEX
  5
43D
  8
__
  6
CONTINUOUS
 62
     7
 10
70884.60715181571
 20
4836.492354529105
 30
0.0
  0
VERTEX
  5
43E
  8
__
  6
CONTINUOUS
 62
     7
 10
70884.60715181571
 20
4821.492354529105
 30
0.0
  0
SEQEND
  5
43F
  8
__
  6
CONTINUOUS
 62
     7
  0
DIMENSION
  5
440
  8
__-1
 62
    17
  2
*D15
 10
70714.15132004679
 20
4531.492354529105
 30
0.0
 11
70701.53123903571
 21
4821.492354529104
 31
0.0
 70
    32
  3
SPEAC
 13
70864.15132004679
 23
5111.492354529104
 33
0.0
 14
70864.15132004679
 24
4531.492354529105
 34
0.0
 50
-90.0
  0
INSERT
  5
441
  8
_-_
 62
     1
  2
____-4
 10
0.0
 20
0.0
 30
0.0
  0
INSERT
  5
442
  8
_-_
 62
     1
  2
____-5
 10
0.0
 20
0.0
 30
0.0
  0
POLYLINE
  5
443
  8
__
  6
CONTINUOUS
 62
     7
 66
     1
 10
0.0
 20
0.0
 30
0.0
 70
   129
  0
VERTEX
  5
444
  8
__
  6
CONTINUOUS
 62
     7
 10
71615.0856462213
 20
5093.492354529104
 30
0.0
  0
VERTEX
  5
445
  8
__
  6
CONTINUOUS
 62
     7
 10
71615.0856462213
 20
5111.492354529104
 30
0.0
  0
VERTEX
  5
446
  8
__
  6
CONTINUOUS
 62
     7
 10
71442.0856462213
 20
5111.492354529104
 30
0.0
  0
VERTEX
  5
447
  8
__
  6
CONTINUOUS
 62
     7
 10
71442.0856462213
 20
5093.492354529104
 30
0.0
  0
SEQEND
  5
448
  8
__
  6
CONTINUOUS
 62
     7
  0
DIMENSION
  5
449
  8
__-1
 62
    17
  2
*D18
 10
71442.0856462213
 20
4455.659021184596
 30
0.0
 11
71419.40093748378
 21
4455.659021184596
 31
0.0
 70
   160
  3
SPEAC
 13
71460.0856462213
 23
4531.492354529105
 33
0.0
 14
71442.0856462213
 24
4531.492354529105
 34
0.0
  0
POLYLINE
  5
44A
  8
__
  6
CONTINUOUS
 62
     7
 66
     1
 10
0.0
 20
0.0
 30
0.0
 70
   129
  0
VERTEX
  5
44B
  8
__
  6
CONTINUOUS
 62
     7
 10
71615.0856462213
 20
4531.492354529105
 30
0.0
  0
VERTEX
  5
44C
  8
__
  6
CONTINUOUS
 62
     7
 10
71615.0856462213
 20
4549.492354529105
 30
0.0
  0
VERTEX
  5
44D
  8
__
  6
CONTINUOUS
 62
     7
 10
71442.0856462213
 20
4549.492354529105
 30
0.0
  0
VERTEX
  5
44E
  8
__
  6
CONTINUOUS
 62
     7
 10
71442.0856462213
 20
4531.492354529105
 30
0.0
  0
SEQEND
  5
44F
  8
__
  6
CONTINUOUS
 62
     7
  0
POLYLINE
  5
450
  8
__
  6
CONTINUOUS
 62
     7
 66
     1
 10
0.0
 20
0.0
 30
0.0
 70
   129
  0
VERTEX
  5
451
  8
__
  6
CONTINUOUS
 62
     7
 10
71600.0856462213
 20
4549.492354529105
 30
0.0
  0
VERTEX
  5
452
  8
__
  6
CONTINUOUS
 62
     7
 10
71615.0856462213
 20
4549.492354529105
 30
0.0
  0
VERTEX
  5
453
  8
__
  6
CONTINUOUS
 62
     7
 10
71615.0856462213
 20
5093.492354529104
 30
0.0
  0
VERTEX
  5
454
  8
__
  6
CONTINUOUS
 62
     7
 10
71600.0856462213
 20
5093.492354529104
 30
0.0
  0
SEQEND
  5
455
  8
__
  6
CONTINUOUS
 62
     7
  0
DIMENSION
  5
456
  8
__-1
 62
    17
  2
*D19
 10
71463.0856462213
 20
4431.492354529105
 30
0.0
 11
71461.5856462213
 21
4444.112435540173
 31
0.0
 70
    32
  3
SPEAC
 13
71460.0856462213
 23
4531.492354529105
 33
0.0
 14
71463.0856462213
 24
4531.492354529105
 34
0.0
  0
DIMENSION
  5
459
  8
__-1
 62
    17
  2
*D20
 10
71463.0856462213
 20
4431.492354529105
 30
0.0
 11
71539.0856462213
 21
4444.112435540173
 31
0.0
 70
    32
  3
SPEAC
 13
71615.0856462213
 23
4531.492354529105
 33
0.0
 14
71463.0856462213
 24
4531.492354529105
 34
0.0
  0
DIMENSION
  5
45A
  8
__-1
 62
    17
  2
*D21
 10
71442.0856462213
 20
4331.492354529105
 30
0.0
 11
71528.5856462213
 21
4344.112435540173
 31
0.0
 70
    32
  3
SPEAC
 13
71615.0856462213
 23
4531.492354529105
 33
0.0
 14
71442.0856462213
 24
4531.492354529105
 34
0.0
  0
LINE
  5
45B
  8
__
  6
CONTINUOUS
 62
     4
 10
71463.0856462213
 20
4549.492354529105
 30
0.0
 11
71463.0856462213
 21
5093.492354529104
 31
0.0
  0
DIMENSION
  5
45C
  8
__-1
 62
    17
  2
*D22
 10
71292.62981445238
 20
4531.492354529105
 30
0.0
 11
71280.00973344131
 21
4821.492354529104
 31
0.0
 70
    32
  3
SPEAC
 13
71442.62981445238
 23
5111.492354529104
 33
0.0
 14
71442.62981445238
 24
4531.492354529105
 34
0.0
 50
-90.0
  0
CIRCLE
  5
45D
  8
__
  6
CONTINUOUS
 62
     4
 10
70909.60715181571
 20
4871.492354529105
 30
0.0
 40
2.5
  0
CIRCLE
  5
45E
  8
__
  6
CONTINUOUS
 62
     4
 10
70996.60715181571
 20
4871.492354529105
 30
0.0
 40
2.5
  0
CIRCLE
  5
45F
  8
__
  6
CONTINUOUS
 62
     4
 10
70909.60715181571
 20
4821.492354529105
 30
0.0
 40
2.5
  0
CIRCLE
  5
460
  8
__
  6
CONTINUOUS
 62
     4
 10
70996.60715181571
 20
4821.492354529105
 30
0.0
 40
2.5
  0
CIRCLE
  5
461
  8
__
  6
CONTINUOUS
 62
     4
 10
70909.60715181571
 20
4771.492354529105
 30
0.0
 40
2.5
  0
CIRCLE
  5
462
  8
__
  6
CONTINUOUS
 62
     4
 10
70996.60715181571
 20
4771.492354529105
 30
0.0
 40
2.5
  0
POLYLINE
  5
463
  8
__
  6
CONTINUOUS
 62
     7
 66
     1
 10
0.0
 20
0.0
 30
0.0
 70
   129
  0
VERTEX
  5
464
  8
__
  6
CONTINUOUS
 62
     7
 10
71487.0856462213
 20
4888.492354529105
 30
0.0
  0
VERTEX
  5
465
  8
__
  6
CONTINUOUS
 62
     7
 10
71487.0856462213
 20
4903.492354529105
 30
0.0
  0
VERTEX
  5
466
  8
__
  6
CONTINUOUS
 62
     7
 10
71600.0856462213
 20
4903.492354529105
 30
0.0
  0
VERTEX
  5
467
  8
__
  6
CONTINUOUS
 62
     7
 10
71600.0856462213
 20
4888.492354529105
 30
0.0
  0
SEQEND
  5
468
  8
__
  6
CONTINUOUS
 62
     7
  0
POLYLINE
  5
469
  8
__
  6
CONTINUOUS
 62
     7
 66
     1
 10
0.0
 20
0.0
 30
0.0
 70
   129
  0
VERTEX
  5
46A
  8
__
  6
CONTINUOUS
 62
     7
 10
71487.0856462213
 20
4739.492354529105
 30
0.0
  0
VERTEX
  5
46B
  8
__
  6
CONTINUOUS
 62
     7
 10
71487.0856462213
 20
4754.492354529105
 30
0.0
  0
VERTEX
  5
46C
  8
__
  6
CONTINUOUS
 62
     7
 10
71600.0856462213
 20
4754.492354529105
 30
0.0
  0
VERTEX
  5
46D
  8
__
  6
CONTINUOUS
 62
     7
 10
71600.0856462213
 20
4739.492354529105
 30
0.0
  0
SEQEND
  5
46E
  8
__
  6
CONTINUOUS
 62
     7
  0
CIRCLE
  5
46F
  8
__
  6
CONTINUOUS
 62
     4
 10
70909.60715181571
 20
4921.492354529105
 30
0.0
 40
2.5
  0
CIRCLE
  5
470
  8
__
  6
CONTINUOUS
 62
     4
 10
70996.60715181571
 20
4921.492354529105
 30
0.0
 40
2.5
  0
CIRCLE
  5
471
  8
__
  6
CONTINUOUS
 62
     4
 10
70909.60715181571
 20
4721.492354529105
 30
0.0
 40
2.5
  0
CIRCLE
  5
472
  8
__
  6
CONTINUOUS
 62
     4
 10
70996.60715181571
 20
4721.492354529105
 30
0.0
 40
2.5
  0
POLYLINE
  5
473
  8
__
  6
CONTINUOUS
 62
     7
 66
     1
 10
0.0
 20
0.0
 30
0.0
 70
   129
  0
VERTEX
  5
474
  8
__
  6
CONTINUOUS
 62
     7
 10
69165.54252519493
 20
5111.492354529104
 30
0.0
  0
VERTEX
  5
475
  8
__
  6
CONTINUOUS
 62
     7
 10
68745.54252519493
 20
5111.492354529104
 30
0.0
  0
VERTEX
  5
476
  8
__
  6
CONTINUOUS
 62
     7
 10
68745.54252519493
 20
4531.492354529105
 30
0.0
  0
VERTEX
  5
477
  8
__
  6
CONTINUOUS
 62
     7
 10
69165.54252519493
 20
4531.492354529105
 30
0.0
  0
SEQEND
  5
478
  8
__
  6
CONTINUOUS
 62
     7
  0
INSERT
  5
479
  8
__
 62
     7
  2
____-6
 10
0.0
 20
0.0
 30
0.0
  0
DIMENSION
  5
47A
  8
__-1
 62
    17
  2
*D24
 10
71600.0856462213
 20
4961.992354529105
 30
0.0
 11
71543.5856462213
 21
4974.612435540173
 31
0.0
 70
    32
  3
SPEAC
 13
71487.0856462213
 23
4903.492354529105
 33
0.0
 14
71600.0856462213
 24
4903.492354529105
 34
0.0
  0
DIMENSION
  5
47B
  8
__-1
 62
    17
  2
*D25
 10
71463.0856462213
 20
4961.992354529105
 30
0.0
 11
71475.0856462213
 21
4974.612435540173
 31
0.0
 70
    32
  3
SPEAC
 13
71487.0856462213
 23
4903.492354529105
 33
0.0
 14
71463.0856462213
 24
4959.992354529105
 34
0.0
  0
TEXT
  5
47E
  8
__
 62
     4
 10
69829.66666666666
 20
4860.831111111111
 30
0.0
 40
21.24016203703704
  1
可動棚
  7
YUGOTHIC_MEDIUM
 11
69829.66666666666
 21
4882.071273148148
 31
0.0
 73
     3
  0
DIMENSION
  5
47F
  8
__
 62
    17
  2
*D26
 10
68745.54252519493
 20
4331.492354529105
 30
0.0
 11
69035.54252519493
 21
4344.112435540173
 31
0.0
 70
    32
  3
SPEAC
 13
69325.54252519493
 23
4531.492354529105
 33
0.0
 14
68745.54252519493
 24
4531.492354529105
 34
0.0
  0
DIMENSION
  5
480
  8
__-1
 62
    17
  2
*D27
 10
69672.16115240536
 20
4331.492354529105
 30
0.0
 11
69962.16115240536
 21
4344.112435540173
 31
0.0
 70
    32
  3
SPEAC
 13
70252.16115240536
 23
4531.492354529105
 33
0.0
 14
69672.16115240536
 24
4531.492354529105
 34
0.0
  0
DIMENSION
  5
481
  8
__
 62
    17
  2
*D28
 10
68745.54252519493
 20
4431.492354529105
 30
0.0
 11
68955.54252519493
 21
4444.112435540173
 31
0.0
 70
    32
  3
SPEAC
 13
69165.54252519493
 23
4531.492354529105
 33
0.0
 14
68745.54252519493
 24
4531.492354529105
 34
0.0
  0
DIMENSION
  5
482
  8
__
 62
    17
  2
*D29
 10
69325.54252519493
 20
4431.492354529105
 30
0.0
 11
69245.54252519493
 21
4444.112435540173
 31
0.0
 70
    32
  3
SPEAC
 13
69165.54252519493
 23
4531.492354529105
 33
0.0
 14
69325.54252519493
 24
4531.492354529105
 34
0.0
  0
DIMENSION
  5
483
  8
__-1
 62
    17
  2
*D30
 10
70072.16115240536
 20
4431.492354529105
 30
0.0
 11
70153.16115240536
 21
4444.112435540173
 31
0.0
 70
    32
  3
SPEAC
 13
70234.16115240536
 23
4531.492354529105
 33
0.0
 14
70072.16115240536
 24
4531.492354529105
 34
0.0
  0
DIMENSION
  5
484
  8
__-1
 62
    17
  2
*D31
 10
70072.16115240536
 20
4431.492354529105
 30
0.0
 11
70064.66115240536
 21
4444.112435540173
 31
0.0
 70
    32
  3
SPEAC
 13
70057.16115240536
 23
4531.492354529105
 33
0.0
 14
70072.16115240536
 24
4531.492354529105
 34
0.0
  0
DIMENSION
  5
487
  8
__-1
 62
    17
  2
*D32
 10
69690.16115240536
 20
4431.492354529105
 30
0.0
 11
69873.66115240536
 21
4444.112435540173
 31
0.0
 70
    32
  3
SPEAC
 13
70057.16115240536
 23
4531.492354529105
 33
0.0
 14
69690.16115240536
 24
4531.492354529105
 34
0.0
  0
DIMENSION
  5
488
  8
__-1
 62
    17
  2
*D33
 10
69690.16115240536
 20
4431.492354529105
 30
0.0
 11
69681.16115240536
 21
4444.112435540173
 31
0.0
 70
    32
  3
SPEAC
 13
69672.16115240536
 23
4531.492354529105
 33
0.0
 14
69690.16115240536
 24
4531.492354529105
 34
0.0
  0
DIMENSION
  5
48B
  8
__-1
 62
    17
  2
*D34
 10
70252.16115240536
 20
4431.492354529105
 30
0.0
 11
70243.16115240536
 21
4444.112435540173
 31
0.0
 70
    32
  3
SPEAC
 13
70234.16115240536
 23
4531.492354529105
 33
0.0
 14
70252.16115240536
 24
4531.492354529105
 34
0.0
  0
POLYLINE
  5
48E
  8
__
  6
DASHED-2
 62
     1
 66
     1
 10
0.0
 20
0.0
 30
0.0
 70
   129
  0
VERTEX
  5
48F
  8
__
  6
DASHED-2
 62
     1
 10
69130.54252519493
 20
6196.053234651074
 30
0.0
  0
VERTEX
  5
490
  8
__
  6
DASHED-2
 62
     1
 10
69145.54252519493
 20
6196.053234651074
 30
0.0
  0
VERTEX
  5
491
  8
__
  6
DASHED-2
 62
     1
 10
69145.54252519493
 20
6064.053234651074
 30
0.0
  0
VERTEX
  5
492
  8
__
  6
DASHED-2
 62
     1
 10
69130.54252519493
 20
6064.053234651074
 30
0.0
  0
SEQEND
  5
493
  8
__
  6
DASHED-2
 62
     1
  0
POLYLINE
  5
494
  8
__
  6
DASHED-2
 62
     1
 66
     1
 10
0.0
 20
0.0
 30
0.0
 70
   129
  0
VERTEX
  5
495
  8
__
  6
DASHED-2
 62
     1
 10
68765.46641915677
 20
6039.310119796126
 30
0.0
  0
VERTEX
  5
496
  8
__
  6
DASHED-2
 62
     1
 10
68728.86100720277
 20
5620.908346597599
 30
0.0
  0
VERTEX
  5
497
  8
__
  6
DASHED-2
 62
     1
 10
68708.93711324093
 20
5622.651461452548
 30
0.0
  0
VERTEX
  5
498
  8
__
  6
DASHED-2
 62
     1
 10
68745.54252519493
 20
6041.053234651074
 30
0.0
  0
SEQEND
  5
499
  8
__
  6
DASHED-2
 62
     1
  0
ARC
  5
49A
  8
__
  6
DASHED-2
 62
     1
 10
68745.54252519493
 20
6041.053234651074
 30
0.0
 40
420.4759208325701
 50
267.9424394799314
 51
0.0
  0
TEXT
  5
49B
  8
__
 62
     4
 10
70912.51601999586
 20
4859.538798973548
 30
0.0
 40
21.24016203703704
  1
可動棚
  7
YUGOTHIC_MEDIUM
 11
70912.51601999586
 21
4880.778961010586
 31
0.0
 73
     3
  0
POLYLINE
  5
49C
  8
__-10
 62
     1
 66
     1
 10
0.0
 20
0.0
 30
0.0
 70
   129
  0
VERTEX
  5
49D
  8
__-10
 62
     1
 10
70356.32207541747
 20
6349.557722690003
 30
0.0
  0
VERTEX
  5
49E
  8
__-10
 62
     1
 10
71656.73120870929
 20
6349.557722690003
 30
0.0
  0
VERTEX
  5
49F
  8
__-10
 62
     1
 10
71656.73120870929
 20
5749.557722690003
 30
0.0
  0
VERTEX
  5
4A0
  8
__-10
 62
     1
 10
70356.32207541747
 20
5749.557722690003
 30
0.0
  0
SEQEND
  5
4A1
  8
__-10
 62
     1
  0
LINE
  5
4A2
  8
__-10
 62
     1
 10
70457.24989341453
 20
6349.557722690003
 30
0.0
 11
70457.24989341453
 21
5749.557722690003
 31
0.0
  0
LINE
  5
4A3
  8
__-10
 62
     1
 10
70774.13554997242
 20
6349.557722690003
 30
0.0
 11
70774.13554997242
 21
5749.557722690003
 31
0.0
  0
TEXT
  5
4A4
  8
__-10
 62
     2
 10
70380.9943590853
 20
6280.920093406738
 30
0.0
 40
21.24016203703704
  1
No.
  7
YUGOTHIC_MEDIUM
 72
     1
 11
70406.785984416
 21
6291.540174425257
 31
0.0
 73
     2
  0
TEXT
  5
4A5
  8
__-10
 62
     2
 10
70545.63215436293
 20
6280.920093406738
 30
0.0
 40
21.24016203703704
  1
名 称
  7
YUGOTHIC_MEDIUM
 72
     1
 11
70574.45808855606
 21
6291.540174425257
 31
0.0
 73
     2
  0
TEXT
  5
4A6
  8
__-10
 62
     2
 10
71186.60744514772
 20
6280.920093406738
 30
0.0
 40
21.24016203703704
  1
仕 様
  7
YUGOTHIC_MEDIUM-B
 72
     1
 11
71215.43337934084
 21
6291.540174425257
 31
0.0
 73
     2
  0
TEXT
  5
4A7
  8
__-10
 62
     2
 10
70398.18877597243
 20
6089.192390547735
 30
0.0
 40
21.24016203703704
  1
1
  7
YUGOTHIC_MEDIUM
 72
     1
 11
70406.785984416
 21
6099.812471566253
 31
0.0
 73
     2
  0
TEXT
  5
4A8
  8
__-10
 62
     2
 10
70542.86930899505
 20
6089.192390547735
 30
0.0
 40
21.24016203703704
  1
扉・キャビネット
  7
YUGOTHIC_MEDIUM
 72
     1
 11
70615.69272169347
 21
6099.812471566253
 31
0.0
 73
     2
  0
TEXT
  5
4A9
  8
__-10
 62
     2
 10
70810.57451710865
 20
6198.398765070529
 30
0.0
 40
21.24016203703704
  1
・ラワン合板  
  7
YUGOTHIC_MEDIUM
 11
70810.57451710865
 21
6209.018846089048
 31
0.0
 73
     2
  0
TEXT
  5
4AA
  8
__-10
 62
     2
 10
70810.57451710865
 20
6156.065431737196
 30
0.0
 40
21.24016203703704
  1
・シナ合板 
  7
YUGOTHIC_MEDIUM
 11
70810.57451710865
 21
6166.685512755715
 31
0.0
 73
     2
  0
TEXT
  5
4AB
  8
__-10
 62
     2
 10
70810.57451710865
 20
6113.732098403863
 30
0.0
 40
21.24016203703704
  1
・バーチ合板
  7
YUGOTHIC_MEDIUM
 11
70810.57451710865
 21
6124.352179422382
 31
0.0
 73
     2
  0
LINE
  5
4AC
  8
__-10
 62
     1
 10
70356.32207541747
 20
6249.557722690003
 30
0.0
 11
71656.73120870929
 21
6249.557722690003
 31
0.0
  0
TEXT
  5
4AD
  8
__-10
 62
     2
 10
70358.77259200902
 20
6371.906292696333
 30
0.0
 40
26.5502025462963
  1
■仕様表
  7
YUGOTHIC_MEDIUM
 11
70358.77259200902
 21
6385.181393969481
 31
0.0
 73
     2
  0
LINE
  5
4AE
  8
__-10
 62
     1
 10
70356.32207541747
 20
5949.557722690003
 30
0.0
 11
71656.73120870929
 21
5949.557722690003
 31
0.0
  0
TEXT
  5
4AF
  8
__-10
 62
     2
 10
70396.67162154122
 20
5838.956811946385
 30
0.0
 40
21.24016203703704
  1
2
  7
YUGOTHIC_MEDIUM
 72
     1
 11
70406.785984416
 21
5849.576892964903
 31
0.0
 73
     2
  0
TEXT
  5
4B0
  8
__-10
 62
     2
 10
70606.58979510616
 20
5838.956811946385
 30
0.0
 40
21.24016203703704
  1
鏡
  7
YUGOTHIC_MEDIUM
 72
     1
 11
70615.69272169347
 21
5849.576892964903
 31
0.0
 73
     2
  0
LINE
  5
4B1
  8
__-10
 62
     1
 10
70356.32207541747
 20
5749.557722690003
 30
0.0
 11
71656.73120870929
 21
5749.557722690003
 31
0.0
  0
LINE
  5
4B2
  8
0
  6
CONTINUOUS
 62
    17
 10
70356.32207541747
 20
6249.557722690003
 30
0.0
 11
70356.32207541747
 21
5949.557722690003
 31
0.0
  0
LINE
  5
4B3
  8
__-10
 62
     1
 10
71656.73120870929
 20
6249.557722690003
 30
0.0
 11
71656.73120870929
 21
5949.557722690003
 31
0.0
  0
LINE
  5
4B4
  8
__-10
  6
______-11
 62
     1
 10
71656.73120870929
 20
6099.812471566253
 30
0.0
 11
70774.13554997242
 21
6099.812471566253
 31
0.0
  0
TEXT
  5
4B5
  8
__-10
 62
     2
 10
71285.65078364457
 20
6177.770975004816
 30
0.0
 40
21.24016203703704
  1
オイル塗装+ウレタン塗装 
  7
YUGOTHIC_MEDIUM
 11
71285.65078364457
 21
6188.391056023334
 31
0.0
 73
     2
  0
TEXT
  5
4B6
  8
__-10
 62
     2
 10
71285.65078364457
 20
6135.437641671482
 30
0.0
 40
21.24016203703704
  1
小口テープ仕上げ
  7
YUGOTHIC_MEDIUM
 11
71285.65078364457
 21
6146.05772269
 31
0.0
 73
     2
  0
TEXT
  5
4B7
  8
__-10
 62
     2
 10
70810.57451710865
 20
6024.51788394771
 30
0.0
 40
21.24016203703704
  1
・ホワイトパーチクルボード 
  7
YUGOTHIC_MEDIUM
 11
70810.57451710865
 21
6035.137964966229
 31
0.0
 73
     2
  0
TEXT
  5
4B8
  8
__-10
 62
     2
 10
70810.57451710865
 20
5982.184550614376
 30
0.0
 40
21.24016203703704
  1
・ブラックパーチクルボード
  7
YUGOTHIC_MEDIUM
 11
70810.57451710865
 21
5992.804631632895
 31
0.0
 73
     2
  0
TEXT
  5
4B9
  8
__-10
 62
     2
 10
70810.57451710865
 20
5830.092712171606
 30
0.0
 40
21.24016203703704
  1
防湿ミラー t3mm
  7
YUGOTHIC_MEDIUM
 11
70810.57451710865
 21
5840.712793190124
 31
0.0
 73
     2
  0
TEXT
  5
4BA
  8
__-10
 62
     2
 10
71285.65078364457
 20
6005.770975004821
 30
0.0
 40
21.24016203703704
  1
小口テープ仕上げ
  7
YUGOTHIC_MEDIUM
 11
71285.65078364457
 21
6016.391056023339
 31
0.0
 73
     2
  0
TEXT
  5
4BB
  8
____-8
 62
     1
 10
70359.18424549614
 20
5680.643447317027
 30
0.0
 40
26.5502025462963
  1
※下地は厚さ12mm以上幅90mm以上の十分な強度をもつ木下地をご用意ください。 
  7
YUGOTHIC_MEDIUM
 11
70359.18424549614
 21
5707.193649863323
 31
0.0
 73
     3
  0
TEXT
  5
4BC
  8
____-8
 62
     1
 10
70359.18424549614
 20
5627.72678065036
 30
0.0
 40
26.5502025462963
  1
※　　　　　は取り付け下地の位置を示しています。 
  7
YUGOTHIC_MEDIUM
 11
70359.18424549614
 21
5654.276983196656
 31
0.0
 73
     3
  0
TEXT
  5
4BD
  8
____-8
 62
     1
 10
70359.18424549614
 20
5574.810113983694
 30
0.0
 40
26.5502025462963
  1
※製品の外径寸法は概略表記です。 
  7
YUGOTHIC_MEDIUM
 11
70359.18424549614
 21
5601.36031652999
 31
0.0
 73
     3
  0
TEXT
  5
4BE
  8
____-8
 62
     1
 10
70359.18424549614
 20
5468.97678065036
 30
0.0
 40
26.5502025462963
  1
※1：バーチの仕上げの場合は、(   )の寸法です。
  7
YUGOTHIC_MEDIUM
 11
70359.18424549614
 21
5495.526983196656
 31
0.0
 73
     3
  0
LINE
  5
4BF
  8
__-10
  6
______-11
 62
     1
 10
71242.77678592669
 20
6249.557722690003
 30
0.0
 11
71242.77678592669
 21
5949.557722690003
 31
0.0
  0
DIMENSION
  5
4C0
  8
__-1
 62
    17
  2
*D35
 10
70402.16115240536
 20
5111.492354529104
 30
0.0
 11
70389.54107139428
 21
5102.492354529104
 31
0.0
 70
    32
  3
SPEAC
 13
70252.16115240536
 23
5093.492354529104
 33
0.0
 14
70252.16115240536
 24
5111.492354529104
 34
0.0
 50
-90.0
  0
DIMENSION
  5
4C3
  8
__-1
 62
    17
  2
*D36
 10
70402.16115240536
 20
4903.492354529105
 30
0.0
 11
70389.54107139428
 21
4998.492354529104
 31
0.0
 70
    32
  3
SPEAC
 13
70252.16115240536
 23
5093.492354529104
 33
0.0
 14
70252.16115240536
 24
4903.492354529105
 34
0.0
 50
-90.0
  0
DIMENSION
  5
4C4
  8
__-1
 62
    17
  2
*D37
 10
70402.16115240536
 20
4903.492354529105
 30
0.0
 11
70389.54107139428
 21
4895.992354529105
 31
0.0
 70
    32
  3
SPEAC
 13
70252.16115240536
 23
4888.492354529105
 33
0.0
 14
70252.16115240536
 24
4903.492354529105
 34
0.0
 50
-90.0
  0
DIMENSION
  5
4C7
  8
__-1
 62
    17
  2
*D38
 10
70402.16115240536
 20
4754.492354529105
 30
0.0
 11
70389.54107139428
 21
4821.492354529105
 31
0.0
 70
    32
  3
SPEAC
 13
70252.16115240536
 23
4888.492354529105
 33
0.0
 14
70252.16115240536
 24
4754.492354529105
 34
0.0
 50
-90.0
  0
DIMENSION
  5
4C8
  8
__-1
 62
    17
  2
*D39
 10
70402.16115240536
 20
4754.492354529105
 30
0.0
 11
70389.54107139428
 21
4746.992354529105
 31
0.0
 70
    32
  3
SPEAC
 13
70252.16115240536
 23
4739.492354529105
 33
0.0
 14
70252.16115240536
 24
4754.492354529105
 34
0.0
 50
-90.0
  0
DIMENSION
  5
4CB
  8
__-1
 62
    17
  2
*D40
 10
70402.16115240536
 20
4549.492354529105
 30
0.0
 11
70389.54107139428
 21
4644.492354529105
 31
0.0
 70
    32
  3
SPEAC
 13
70252.16115240536
 23
4739.492354529105
 33
0.0
 14
70252.16115240536
 24
4549.492354529105
 34
0.0
 50
-90.0
  0
DIMENSION
  5
4CC
  8
__-1
 62
    17
  2
*D41
 10
70402.16115240536
 20
4549.492354529105
 30
0.0
 11
70389.54107139428
 21
4540.492354529105
 31
0.0
 70
    32
  3
SPEAC
 13
70252.16115240536
 23
4531.492354529105
 33
0.0
 14
70252.16115240536
 24
4549.492354529105
 34
0.0
 50
-90.0
  0
TEXT
  5
4CF
  8
__-1
 62
    17
 10
70431.64502880564
 20
4718.244097222223
 30
0.0
 40
21.24016203703704
  1
(17)
 50
90.0
  7
YUGOTHIC_MEDIUM
 11
70410.4048667686
 21
4718.244097222223
 31
0.0
 73
     3
  0
TEXT
  5
4D0
  8
__-1
 62
    17
 10
70431.64502880564
 20
4783.989318116495
 30
0.0
 40
21.24016203703704
  1
(130)
 50
90.0
  7
YUGOTHIC_MEDIUM
 11
70410.4048667686
 21
4783.989318116495
 31
0.0
 73
     3
  0
TEXT
  5
4D1
  8
__-1
 62
    17
 10
70431.64502880564
 20
4869.244097222223
 30
0.0
 40
21.24016203703704
  1
(17)
 50
90.0
  7
YUGOTHIC_MEDIUM
 11
70410.4048667686
 21
4869.244097222223
 31
0.0
 73
     3
  0
TEXT
  5
4D2
  8
__-1
 62
    17
 10
70454.09880832209
 20
4804.432813724234
 30
0.0
 40
21.24016203703704
  1
(※1)
  7
YUGOTHIC_MEDIUM
 11
70454.09880832209
 21
4825.672975761271
 31
0.0
 73
     3
  0
INSERT
  5
4D3
  8
0
 62
    17
  2
*X42
 10
0.0
 20
0.0
 30
0.0
  0
POLYLINE
  5
4D4
  8
0
  6
DASHDOT
 62
    17
 66
     1
 10
0.0
 20
0.0
 30
0.0
 70
   129
  0
VERTEX
  5
4D5
  8
0
  6
DASHDOT
 62
    17
 10
69672.16115240536
 20
5111.492354529104
 30
0.0
  0
VERTEX
  5
4D6
  8
0
  6
DASHDOT
 62
    17
 10
70252.16115240536
 20
5111.492354529104
 30
0.0
  0
VERTEX
  5
4D7
  8
0
  6
DASHDOT
 62
    17
 10
70252.16115240536
 20
5011.492354529104
 30
0.0
  0
VERTEX
  5
4D8
  8
0
  6
DASHDOT
 62
    17
 10
69672.16115240536
 20
5011.492354529104
 30
0.0
  0
SEQEND
  5
4D9
  8
0
  6
DASHDOT
 62
    17
  0
INSERT
  5
4DA
  8
0
 62
    17
  2
*X43
 10
0.0
 20
0.0
 30
0.0
  0
POLYLINE
  5
4DB
  8
0
  6
DASHDOT
 62
    17
 66
     1
 10
0.0
 20
0.0
 30
0.0
 70
   129
  0
VERTEX
  5
4DC
  8
0
  6
DASHDOT
 62
    17
 10
69672.16115240536
 20
4631.492354529105
 30
0.0
  0
VERTEX
  5
4DD
  8
0
  6
DASHDOT
 62
    17
 10
70252.16115240536
 20
4631.492354529105
 30
0.0
  0
VERTEX
  5
4DE
  8
0
  6
DASHDOT
 62
    17
 10
70252.16115240536
 20
4531.492354529105
 30
0.0
  0
VERTEX
  5
4DF
  8
0
  6
DASHDOT
 62
    17
 10
69672.16115240536
 20
4531.492354529105
 30
0.0
  0
SEQEND
  5
4E0
  8
0
  6
DASHDOT
 62
    17
  0
TEXT
  5
4E1
  8
____-8
 62
     1
 10
70217.54613991673
 20
5231.664444444451
 30
0.0
 40
21.24016203703704
  1
斜線部：取り付け下地 
  7
YUGOTHIC_MEDIUM
 11
70217.54613991673
 21
5252.904606481488
 31
0.0
 73
     3
  0
TEXT
  5
4E2
  8
____-8
 62
     1
 10
70217.54613991673
 20
5189.331111111118
 30
0.0
 40
21.24016203703704
  1
(建築工事にてご用意ください)
  7
YUGOTHIC_MEDIUM
 11
70217.54613991673
 21
5210.571273148155
 31
0.0
 73
     3
  0
LINE
  5
4E3
  8
0
  6
CONTINUOUS
 62
    17
 10
70119.87947325007
 20
5049.244757553679
 30
0.0
 11
70215.37947325007
 21
5170.244757553679
 31
0.0
  0
LINE
  5
4E4
  8
0
  6
CONTINUOUS
 62
    17
 10
70215.37947325007
 20
5170.244757553679
 30
0.0
 11
70599.47455982352
 21
5170.244757553679
 31
0.0
  0
INSERT
  5
4E5
  8
__
 62
    17
  2
____-7
 10
0.0
 20
0.0
 30
0.0
  0
INSERT
  5
4E6
  8
0
 62
    17
  2
*X45
 10
0.0
 20
0.0
 30
0.0
  0
POLYLINE
  5
4E7
  8
0
  6
DASHDOT
 62
    17
 66
     1
 10
0.0
 20
0.0
 30
0.0
 70
   129
  0
VERTEX
  5
4E8
  8
0
  6
DASHDOT
 62
    17
 10
70403.58518470249
 20
5661.667620612386
 30
0.0
  0
VERTEX
  5
4E9
  8
0
  6
DASHDOT
 62
    17
 10
70565.71459729559
 20
5661.667620612386
 30
0.0
  0
VERTEX
  5
4EA
  8
0
  6
DASHDOT
 62
    17
 10
70565.71459729559
 20
5617.806393969474
 30
0.0
  0
VERTEX
  5
4EB
  8
0
  6
DASHDOT
 62
    17
 10
70403.58518470249
 20
5617.806393969474
 30
0.0
  0
SEQEND
  5
4EC
  8
0
  6
DASHDOT
 62
    17
  0
VIEWPORT
  5
4ED
 67
     1
  8
0
 10
128.5
 20
97.5
 30
0.0
 40
314.226
 41
222.18
 68
     1
 69
     1
1001
ACAD
1000
MVIEW
1002
{
1070
    16
1010
0.0
1020
0.0
1030
0.0
1010
0.0
1020
0.0
1030
1.0
1040
0.0
1040
222.18
1040
128.5
1040
97.5
1040
50.0
1040
0.0
1040
0.0
1070
     0
1070
   100
1070
     0
1070
     3
1070
     0
1070
     0
1070
     0
1070
     0
1040
0.0
1040
0.0
1040
0.0
1040
10.0
1040
10.0
1040
10.0
1040
10.0
1070
     0
1002
{
1002
}
1002
}
  0
ENDSEC
  0
EOF
